Tags
Language
Tags

Gary Burton & Keith Jarrett - Gary Burton & Keith Jarrett (1970) {2012 Japan Jazz Best Collection 1000 Series WPCR-27043}

Posted By: ruskaval
Gary Burton & Keith Jarrett - Gary Burton & Keith Jarrett (1970) {2012 Japan Jazz Best Collection 1000 Series WPCR-27043}

Gary Burton & Keith Jarrett - Gary Burton & Keith Jarrett (1970) {2012 Japan Jazz Best Collection 1000 Series WPCR-27043}
EAC rip (secure mode) | FLAC (tracks)+CUE+LOG -> 222 Mb | MP3 @320 -> 86 Mb
Full Artwork @ 300 dpi (jpg) -> 17 Mb | 5% repair rar | 24-bit remaster
© 1970, 2012 Atlantic / Rhino / WEA / Warner Japan | WPCR-27043 | Jazz Best Collection 1000 Series
Jazz / Post Bop / Vibes / Piano

This combination works. Vibraphonist Gary Burton and pianist Keith Jarrett (along with guitarist Sam Brown, bassist Steve Swallow, and drummer Bill Goodwin) play four Jarrett originals plus Steve Swallow's "Como en Vietnam." Elements of pop music, rock, country, and the jazz avant-garde are used in the mixture of styles and the results are quite logical.
Gary Burton & Keith Jarrett - Gary Burton & Keith Jarrett (1970) {2012 Japan Jazz Best Collection 1000 Series WPCR-27043}


Personnel
Gary Burton - vibes
Keith Jarrett - Piano, electric piano, soprano sax
Sam Brown - guitar
Steve Swallow - bass
Bill Goodwin - drums

Recorded: July 23, 1970 NYC

Track Listing
01 - Grow your own
02 - Moonchild, In your quiet place
03 - Como en Vietnam
04 - Fortune smiles
05 - The Raven speaks

Exact Audio Copy V1.0 beta 3 from 29. August 2011

EAC extraction logfile from 12. August 2014, 12:50

Gary Burton & Keith Jarrett / Gary Burton & Keith Jarrett

Used drive : ATAPI DVD A DH16ABSH Adapter: 2 ID: 1

Read mode : Secure
Utilize accurate stream : Yes
Defeat audio cache : Yes
Make use of C2 pointers : No

Read offset correction : 6
Overread into Lead-In and Lead-Out : No
Fill up missing offset samples with silence : Yes
Delete leading and trailing silent blocks : No
Null samples used in CRC calculations : Yes
Used interface : Native Win32 interface for Win NT & 2000
Gap handling : Appended to previous track

Used output format : User Defined Encoder
Selected bitrate : 128 kBit/s
Quality : High
Add ID3 tag : No
Command line compressor : C:\Program Files (x86)\Exact Audio Copy\FLAC\FLAC.EXE
Additional command line options : -8 -V -T "ARTIST=%artist%" -T "TITLE=%title%" -T "ALBUM=%albumtitle%" -T "DATE=%year%" -T "TRACKNUMBER=%tracknr%" -T "TOTALTRACKS=%numtracks%" -T "GENRE=%genre%" -T "ALBUMARTIST=%albumartist%" -T "ALBUM ARTIST=%albumartist%" -T "COMMENT=EAC Secure Mode, Test & Copy, AccurateRip, FLAC -8" %source%


TOC of the extracted CD

Track | Start | Length | Start sector | End sector
––––––––––––––––––––––––––––-
1 | 0:00.00 | 4:54.40 | 0 | 22089
2 | 4:54.40 | 7:23.07 | 22090 | 55321
3 | 12:17.47 | 7:04.52 | 55322 | 87173
4 | 19:22.24 | 8:31.57 | 87174 | 125555
5 | 27:54.06 | 8:16.48 | 125556 | 162803


Track 1

Filename C:\Users\owner\Desktop\Gary Burton & Keith Jarrett - Gary Burton & Keith Jarrett (1970) [FLAC] {Atlantic WPCR-27043}\01 - Grow your own.wav

Pre-gap length 0:00:02.00

Peak level 100.0 %
Extraction speed 3.2 X
Track quality 100.0 %
Test CRC 08284135
Copy CRC 08284135
Accurately ripped (confidence 5) [81A31780] (AR v2)
Copy OK

Track 2

Filename C:\Users\owner\Desktop\Gary Burton & Keith Jarrett - Gary Burton & Keith Jarrett (1970) [FLAC] {Atlantic WPCR-27043}\02 - Moonchild, In your quiet place.wav

Pre-gap length 0:00:00.34

Peak level 100.0 %
Extraction speed 3.9 X
Track quality 100.0 %
Test CRC 089A8342
Copy CRC 089A8342
Accurately ripped (confidence 6) [EBF2DB61] (AR v2)
Copy OK

Track 3

Filename C:\Users\owner\Desktop\Gary Burton & Keith Jarrett - Gary Burton & Keith Jarrett (1970) [FLAC] {Atlantic WPCR-27043}\03 - Como en Vietnam.wav

Pre-gap length 0:00:01.31

Peak level 100.0 %
Extraction speed 4.5 X
Track quality 100.0 %
Test CRC 6D94DC4F
Copy CRC 6D94DC4F
Accurately ripped (confidence 5) [CD1363D3] (AR v2)
Copy OK

Track 4

Filename C:\Users\owner\Desktop\Gary Burton & Keith Jarrett - Gary Burton & Keith Jarrett (1970) [FLAC] {Atlantic WPCR-27043}\04 - Fortune smiles.wav

Pre-gap length 0:00:02.11

Peak level 100.0 %
Extraction speed 5.3 X
Track quality 100.0 %
Test CRC 3038874D
Copy CRC 3038874D
Accurately ripped (confidence 5) [588A1710] (AR v2)
Copy OK

Track 5

Filename C:\Users\owner\Desktop\Gary Burton & Keith Jarrett - Gary Burton & Keith Jarrett (1970) [FLAC] {Atlantic WPCR-27043}\05 - The Raven speaks.wav

Pre-gap length 0:00:02.17

Peak level 100.0 %
Extraction speed 5.8 X
Track quality 100.0 %
Test CRC B71752B2
Copy CRC B71752B2
Accurately ripped (confidence 5) [0A925E52] (AR v2)
Copy OK


All tracks accurately ripped

No errors occurred

End of status report

==== Log checksum 4F43FB4FF0642369FBA3BAB5D7A8D2DF9A633A3C32186ED665D679ACCEDF66A3 ====


Gary Burton & Keith Jarrett - Gary Burton & Keith Jarrett (1970) {2012 Japan Jazz Best Collection 1000 Series WPCR-27043}

Gary Burton & Keith Jarrett - Gary Burton & Keith Jarrett (1970) {2012 Japan Jazz Best Collection 1000 Series WPCR-27043}


see more Japan Jazz Best Collection 1000 Series 24bit Remaster…


===