Tags
Language
Tags

Georg Solti, Wiener Philharmoniker - Wagner: Siegfried (1963) (4CD Box Set)

Posted By: shamanicus
Georg Solti, Wiener Philharmoniker - Wagner: Siegfried (1963) (4CD Box Set)

Georg Solti, Wiener Philharmoniker - Wagner: Siegfried (1963) (4CD Box Set)
EAC Rip | FLAC (tracks+.cue, log) | Covers, d.boolet | 1099 mb | MP3 CBR 320kbps | 03:59:45 | 554 mb
Classical, Opera, Romantic | Label: 1984 - Decca Records / 455564

The third portion of Solti's famed traversal of Richard Wagner's "Ring" tetralogy (I love that word, had to use it) is, simply, terrific. You could call it uneven, but that's unevenness fluctuating between "very good" and "inspired".

The first scene in Act III, the dialogue between The Wanderer (Hans Hotter) and Erda (alto Marga Hoffgen), is as good Wagner performing has I've had the pleasure of hearing. Solti infuses the "walking" theme that opens the orchestral prologue with a sense of impending tragedy mixed with urgency that is unforgettable. Until hearing this version, I had always thought of this scene as a sort of expository one. In the hands of Hotter, Hoffgen and Solti, it becomes a thrilling, momentum-filled experience. The contuination of Act III, in which Siegfried (Wolfgang Windgassen) breaches the circle of fire to gaze upon Brunnhilde (Birgit Nilsson), is luminous, with some precise singing of this very difficult part by Nilsson and sensitive playing by Solti and the Vienna Philharmonic.

Weaknesses: Hans Hotter was unfortunately a bit old when he recorded this role, of which he was probably the most famous post-war exponent. I'll emphasize that the problem is not the tone of his voice but his ability to project. In Act III, there are some passages where The Wanderer sings passages either unaccompanied or accompanied sparsely by the orchestra, and Hotter sounds wonderful there. But when singing over a more active orchestral texture, he struggles to project. I also thought the beginning of Act II wasn't as successful as the rest of "Siegfried". Solti emphasizes the individual parts of the orchestra rather than the overall sound, which doesn't entirely work here, with the details obscuring the overall gloom and fear surrounding the deep woods, the dragon and the blood.

Let's talk about the record engineering a bit. This Ring set sounds almost as good as any recording I've heard, even 50 years after it was first committed to tape. The rich tone combined with the level of detail and the spatial realization is striking. The spatial placement of the singers - sometimes referred to as "soundstage" - aids the drama. In Act II, Fafner the Dragon is placed in the sound at the back and to the right, like he is growling in his cave. So the sonics are excellent.

Some other briefer comments: While I don't love Wolfgang Windgassen's performance, he is certainly satisfactory and capable. The Mime characterization provided by Gerhard Stolze is an example of particularly well-realized operating acting - a vivid performance of an unattractive supporting player. Star Aussie soprano Joan Sutherland has a small role in the forest whispers scene, where she is ok.

After all these years, this continues to be a very strong Wagner offering. Recommended.
amazon, jc52.



Tracklist:

CD 01 (16 / 59:08)

01. Act1, Sc 1- Vorspiel
02. Act1, Sc 1- Zwangvolle Plage! Müh ohne Zweck!
03. Act1, Sc 1- Hoiho! Hoiho! Hau ein! Hau ein!
04. Act1, Sc 1- Da hast du die Stucken, schandlicher Stumper
05. Act1, Sc 1- Da hast du die Stücken, schandlicher Stümper
06. Act1, Sc 1- Als zullendes Kind zog ich dich auf
07. Act1, Sc 1- Vieles lehrtest du, Mime
08. Act1, Sc 1- Einst lag wimmernd ein Weib
09. Act1, Sc 1- Und diese Stucken sollst du mir schmieden
10. Act1, Sc 1- Da sturmt er hin!
11. Act1, Sc 2- Heil dir, weise Schmied!
12. Act1, Sc 2- Hier sitz' ich am Herd und setze mein Haupt
13. Act1, Sc 2- Was zu wissen dir frommt, solltest du fragen
14. Act1, Sc 2- Die Stucken! Das Schwert! O weh! Mir schwindelt!
15. Act1, Sc 3- Verfluchtes Licht!
16. Act1, Sc 3- Heda! Du Fauler!


CD 02 (13 / 55:37)

01. Act1, Sc3- Bist du es, Kind
02. Act1, Sc3- Fuhltest du nie im finstren Wald
03. Act1, Sc3- Her mit den Stucken, fort mit dem Stumper
04. Act1, Sc3- Notung! Notung! Neidliches Schwert
05. Act1, Sc3- Hoho! Hoho! Hahei!
06. Act2- Vorspiel
07. Act2, Sc1- In Wald und Nacht
08. Act2, Sc1- Zur Neidhohle fuhr ich bei Nacht
09. Act2, Sc1- Mit mir nicht, hadre mit Mime
10. Act2, Sc1- Fafner, Fafner! Erwache Wurm!
11. Act2, Sc1- Nun, Alberich! das schlug fehl
12. Act2, Sc2- Wir sind zur Stelle!
13. Act2, Sc2- Dass der mein Vater nicht ist


CD 03 (12 / 58:56)

01. Act2, Sc2- Aber wie sah meine Mutter wohl aus
02. Act2, Sc2- Meine Mutter, ein Menschenweib!
03. Act2, Sc2- Haha! Da hatte mein Lied
04. Act2, Sc2- Wer bist du, kuhner Knabe
05. Act2, Sc2- Zur Kunde taugt kein Toter
06. Act2, Sc3- Wohin schleichst du eilig und schlau
07. Act2, Sc3- Was ihr mir nützt, weiss ich nicht
08. Act2, Sc3- Willkommen, Siegfried!
09. Act2, Sc3- Da lieg auch du, dunkler Wurm!
10. Act3, Sc1- Vorspiel
11. Act3, Sc1- Wache, Wala! Wala! Erwach!
12. Act3, Sc1- Stark ruft das Lied


CD 04 (11 / 1:06:04)

01. Act3, Sc1- Dir Unweisen ruf' ich ins Ohr
02. Act3, Sc2- Mein Voglein Schwebte mir fort!
03. Act3, Sc2- Wohin, Knabe, heisst dich dein Weg
04. Act3, Sc2- Kenntest du mich, kuhner Spross
05. Act3, Sc2- Mit zerfochtner Waffe wich mir der Feige
06. Act3, Sc3- Selige Ode auf sonniger Hoh!
07. Act3, Sc3- Das ist kein Mann!
08. Act3, Sc3- Heil dir, Sonne! Heil dir, Licht!
09. Act3, Sc3- O Siegfried! Siegfried! Seliger Held!
10. Act3, Sc3- Dort seh' ich Grane
11. Act3, Sc3- Ewig war ich, ewig bin ich

Personnel & Credits

Siegfried - Wolfgang Windgassen
Mime - Gerhard Stolze
Wanderer - Hans Hotter
Alberich - Gustav Neidlinger
Brünnhilde - Birgit Nilsson
Fafner - Kurt Böhme
Erda - Marga Höffgen
Waldvogel - Joan Sutherland
Georg Solti - Conductor
Wiener Philharmoniker


Recorded: 8. May – 5. November 1962, Sofiensaal, Vienna

Exact Audio Copy V1.3 from 2. September 2016

EAC extraction logfile from 14. January 2018, 21:33

Wiener Philharmoniker, Sir Georg Solti / Siegfried

Used drive : PLEXTOR CD-R PX-240A Adapter: 1 ID: 0

Read mode : Secure
Utilize accurate stream : Yes
Defeat audio cache : Yes
Make use of C2 pointers : No

Read offset correction : 6
Overread into Lead-In and Lead-Out : No
Fill up missing offset samples with silence : Yes
Delete leading and trailing silent blocks : No
Null samples used in CRC calculations : Yes
Used interface : Native Win32 interface for Win NT & 2000
Gap handling : Appended to previous track

Used output format : User Defined Encoder
Selected bitrate : 1024 kBit/s
Quality : High
Add ID3 tag : No
Command line compressor : C:\Program Files (x86)\Exact Audio Copy\FLAC\FLAC.EXE
Additional command line options : -8 -e -p -V -T "ARTIST=%artist%" -T "TITLE=%title%" -T "ALBUM=%albumtitle%" -T "DATE=%year%" -T "TRACKNUMBER=%tracknr%" -T "GENRE=%genre%" -T "PERFORMER=%albuminterpret%" -T "COMPOSER=%composer%" %haslyrics%–tag-from-file=LYRICS="%lyricsfile%"%haslyrics% -T "ALBUMARTIST=%albumartist%" -T "DISCNUMBER=%cdnumber%" -T "TOTALDISCS=%totalcds%" -T "TOTALTRACKS=%numtracks%" -T "COMMENT=%comment%" %source% -o %dest%


TOC of the extracted CD

Track | Start | Length | Start sector | End sector
––––––––––––––––––––––––––––-
1 | 0:00.32 | 4:24.73 | 32 | 19904
2 | 4:25.30 | 3:36.10 | 19905 | 36114
3 | 8:01.40 | 1:36.65 | 36115 | 43379
4 | 9:38.30 | 2:24.17 | 43380 | 54196
5 | 12:02.47 | 1:39.43 | 54197 | 61664
6 | 13:42.15 | 8:32.05 | 61665 | 100069
7 | 22:14.20 | 5:41.07 | 100070 | 125651
8 | 27:55.27 | 1:37.33 | 125652 | 132959
9 | 29:32.60 | 1:27.22 | 132960 | 139506
10 | 31:00.07 | 3:36.23 | 139507 | 155729
11 | 34:36.30 | 10:23.00 | 155730 | 202454
12 | 44:59.30 | 7:21.67 | 202455 | 235596
13 | 52:21.22 | 2:50.53 | 235597 | 248399
14 | 55:12.00 | 1:02.50 | 248400 | 253099
15 | 56:14.50 | 0:29.12 | 253100 | 255286


Track 1

Filename I:\+-+ CD rips +-+\Encodes\01 - Siegfried, Act I, Scene 1- Vorspiel.wav

Pre-gap length 0:00:02.42

Peak level 81.2 %
Extraction speed 5.4 X
Track quality 100.0 %
Test CRC 421FA702
Copy CRC 421FA702
Accurately ripped (confidence 16) [5FB562F1] (AR v2)
Copy OK

Track 2

Filename I:\+-+ CD rips +-+\Encodes\02 - Siegfried, Act I, Scene 1- ''Zwangvolle Plage! Müh ohne Zweck!''.wav

Peak level 77.5 %
Extraction speed 5.2 X
Track quality 99.9 %
Test CRC 44EC1487
Copy CRC 44EC1487
Accurately ripped (confidence 16) [5180C8D2] (AR v2)
Copy OK

Track 3

Filename I:\+-+ CD rips +-+\Encodes\03 - Siegfried, Act I, Scene 1- ''Hoiho! Hoiho! Hau ein! Hau ein!''.wav

Peak level 75.8 %
Extraction speed 5.3 X
Track quality 100.0 %
Test CRC 8F49D8CF
Copy CRC 8F49D8CF
Accurately ripped (confidence 15) [23D1BFEA] (AR v2)
Copy OK

Track 4

Filename I:\+-+ CD rips +-+\Encodes\04 - Siegfried, Act I, Scene 1- ''Da hast du die Stücken, schandlicher Stümper''.wav

Peak level 97.2 %
Extraction speed 6.1 X
Track quality 100.0 %
Test CRC 9DC13DD9
Copy CRC 9DC13DD9
Accurately ripped (confidence 15) [9FACD0F8] (AR v2)
Copy OK

Track 5

Filename I:\+-+ CD rips +-+\Encodes\05 - Siegfried, Act I, Scene 1- ''Als zullendes Kind zog ich dich auf''.wav

Peak level 57.8 %
Extraction speed 4.6 X
Track quality 99.8 %
Test CRC 4363473E
Copy CRC 4363473E
Accurately ripped (confidence 15) [615F662A] (AR v2)
Copy OK

Track 6

Filename I:\+-+ CD rips +-+\Encodes\06 - Siegfried, Act I, Scene 1- ''Vieles lehrtest du, Mime''.wav

Peak level 98.0 %
Extraction speed 8.0 X
Track quality 100.0 %
Test CRC 2DE19A44
Copy CRC 2DE19A44
Accurately ripped (confidence 15) [5072BE0C] (AR v2)
Copy OK

Track 7

Filename I:\+-+ CD rips +-+\Encodes\07 - Siegfried, Act I, Scene 1 ''Einst lag wimmernd ein Weib''.wav

Peak level 63.1 %
Extraction speed 8.5 X
Track quality 100.0 %
Test CRC 6E82E2D3
Copy CRC 6E82E2D3
Accurately ripped (confidence 15) [4F7535A8] (AR v2)
Copy OK

Track 8

Filename I:\+-+ CD rips +-+\Encodes\08 - Siegfried, Act I, Scene 1- ''Und diese Stücken sollst du mir schmieden''.wav

Peak level 92.5 %
Extraction speed 7.0 X
Track quality 100.0 %
Test CRC AB25968B
Copy CRC AB25968B
Accurately ripped (confidence 15) [7B9D039E] (AR v2)
Copy OK

Track 9

Filename I:\+-+ CD rips +-+\Encodes\09 - Siegfried, Act I, Scene 1- ''Da stürmt er hin!''.wav

Peak level 78.0 %
Extraction speed 5.5 X
Track quality 99.8 %
Test CRC 69FAB910
Copy CRC 69FAB910
Accurately ripped (confidence 15) [A4F5B780] (AR v2)
Copy OK

Track 10

Filename I:\+-+ CD rips +-+\Encodes\10 - Siegfried, Act I, Scene 2- ''Heil dir, weise Schmied!''.wav

Peak level 88.8 %
Extraction speed 8.1 X
Track quality 100.0 %
Test CRC 03AAF9B0
Copy CRC 03AAF9B0
Accurately ripped (confidence 15) [A0095192] (AR v2)
Copy OK

Track 11

Filename I:\+-+ CD rips +-+\Encodes\11 - Siegfried, Act I, Scene 2- ''Hier sitz' ich am Herd und setze mein Haupt''.wav

Peak level 97.5 %
Extraction speed 9.3 X
Track quality 100.0 %
Test CRC 3F22B1B1
Copy CRC 3F22B1B1
Accurately ripped (confidence 15) [28F68D0E] (AR v2)
Copy OK

Track 12

Filename I:\+-+ CD rips +-+\Encodes\12 - Siegfried, Act I, Scene 2- ''Was zu wissen dir frommt, solltest du fragen''.wav

Peak level 97.3 %
Extraction speed 10.0 X
Track quality 99.9 %
Test CRC 4B3E89B8
Copy CRC 4B3E89B8
Accurately ripped (confidence 15) [6A6D9DAE] (AR v2)
Copy OK

Track 13

Filename I:\+-+ CD rips +-+\Encodes\13 - Siegfried, Act I, Scene 2- ''Die Stücken! Das Schwert! O weh! Mir schwindelt!''.wav

Peak level 97.8 %
Extraction speed 5.0 X
Track quality 100.0 %
Test CRC 5509867B
Copy CRC 5509867B
Accurately ripped (confidence 15) [94C2C606] (AR v2)
Copy OK

Track 14

Filename I:\+-+ CD rips +-+\Encodes\14 - Siegfried, Act I, Scene 3- ''Verfluchtes Licht!''.wav

Peak level 82.7 %
Extraction speed 3.9 X
Track quality 100.0 %
Test CRC 288571B4
Copy CRC 288571B4
Accurately ripped (confidence 15) [49C47AEA] (AR v2)
Copy OK

Track 15

Filename I:\+-+ CD rips +-+\Encodes\15 - Siegfried, Act I, Scene 3- ''Heda! Du Fauler!''.wav

Peak level 70.9 %
Extraction speed 2.6 X
Track quality 100.0 %
Test CRC 44C178C1
Copy CRC 44C178C1
Accurately ripped (confidence 15) [2F1B61A3] (AR v2)
Copy OK


All tracks accurately ripped

No errors occurred

End of status report

–– CUETools DB Plugin V2.1.6

[CTDB TOCID: 3HJVrnpEYS.v78DEP4oPMaSMwhY-] found
Submit result: 3HJVrnpEYS.v78DEP4oPMaSMwhY- has been confirmed
Track | CTDB Status
1 | (77/78) Accurately ripped
2 | (77/78) Accurately ripped
3 | (78/78) Accurately ripped
4 | (78/78) Accurately ripped
5 | (77/78) Accurately ripped
6 | (77/78) Accurately ripped
7 | ( 8/78) Accurately ripped, or (59/78) differs in 3 samples @02:13:47, or (1/78) differs in 3 samples @02:13:47, or (3/78) differs in 3 samples @02:13:47
8 | (77/78) Accurately ripped
9 | (77/78) Accurately ripped
10 | (76/78) Accurately ripped
11 | (74/78) Accurately ripped
12 | (74/78) Accurately ripped
13 | (77/78) Accurately ripped
14 | (77/78) Accurately ripped
15 | (76/78) Accurately ripped
If you are sure that your rip contains errors, you can use CUETools to repair it.


==== Log checksum E17D3F23A0F43342A97E79168C273F16DA883EEC4CCE7CBF146A9FF6A215EC09 ====

Exact Audio Copy V1.3 from 2. September 2016

EAC extraction logfile from 14. January 2018, 22:39

Windgassen, Nilsson, Sutherland; Wiener Philharmoniker; Georg Solti / Siegfried

Used drive : PLEXTOR CD-R PX-240A Adapter: 1 ID: 0

Read mode : Secure
Utilize accurate stream : Yes
Defeat audio cache : Yes
Make use of C2 pointers : No

Read offset correction : 6
Overread into Lead-In and Lead-Out : No
Fill up missing offset samples with silence : Yes
Delete leading and trailing silent blocks : No
Null samples used in CRC calculations : Yes
Used interface : Native Win32 interface for Win NT & 2000
Gap handling : Appended to previous track

Used output format : User Defined Encoder
Selected bitrate : 1024 kBit/s
Quality : High
Add ID3 tag : No
Command line compressor : C:\Program Files (x86)\Exact Audio Copy\FLAC\FLAC.EXE
Additional command line options : -8 -e -p -V -T "ARTIST=%artist%" -T "TITLE=%title%" -T "ALBUM=%albumtitle%" -T "DATE=%year%" -T "TRACKNUMBER=%tracknr%" -T "GENRE=%genre%" -T "PERFORMER=%albuminterpret%" -T "COMPOSER=%composer%" %haslyrics%–tag-from-file=LYRICS="%lyricsfile%"%haslyrics% -T "ALBUMARTIST=%albumartist%" -T "DISCNUMBER=%cdnumber%" -T "TOTALDISCS=%totalcds%" -T "TOTALTRACKS=%numtracks%" -T "COMMENT=%comment%" %source% -o %dest%


TOC of the extracted CD

Track | Start | Length | Start sector | End sector
––––––––––––––––––––––––––––-
1 | 0:00.33 | 2:56.55 | 33 | 13287
2 | 2:57.13 | 5:13.00 | 13288 | 36762
3 | 8:10.13 | 3:10.60 | 36763 | 51072
4 | 11:20.73 | 8:27.37 | 51073 | 89134
5 | 19:48.35 | 5:57.63 | 89135 | 115972
6 | 25:46.23 | 5:15.30 | 115973 | 139627
7 | 31:01.53 | 2:12.67 | 139628 | 149594
8 | 33:14.45 | 5:57.15 | 149595 | 176384
9 | 39:11.60 | 2:18.60 | 176385 | 186794
10 | 41:30.45 | 2:39.13 | 186795 | 198732
11 | 44:09.58 | 3:46.47 | 198733 | 215729
12 | 47:56.30 | 5:57.50 | 215730 | 242554
13 | 53:54.05 | 1:43.38 | 242555 | 250317


Track 1

Filename I:\+-+ CD rips +-+\Encodes\01 - Act 1, Scene 3- 'Bist du es, Kind' (Mime).wav

Pre-gap length 0:00:02.44

Peak level 86.7 %
Extraction speed 1.6 X
Track quality 100.0 %
Test CRC 8BC63936
Copy CRC 8BC63936
Accurately ripped (confidence 13) [FE4F37E6] (AR v2)
Copy OK

Track 2

Filename I:\+-+ CD rips +-+\Encodes\02 - Act 1, Scene 3- 'Fühltest du nie im finstren Wald' (Mime).wav

Peak level 89.5 %
Extraction speed 1.9 X
Track quality 100.0 %
Test CRC 09763428
Copy CRC 09763428
Accurately ripped (confidence 13) [12BB31AF] (AR v2)
Copy OK

Track 3

Filename I:\+-+ CD rips +-+\Encodes\03 - Act 1, Scene 3- 'Her mit den Stücken, fort mit dem Stümper' (Siegfried).wav

Peak level 96.9 %
Extraction speed 2.0 X
Track quality 100.0 %
Test CRC B8094C56
Copy CRC B8094C56
Accurately ripped (confidence 13) [85870E2A] (AR v2)
Copy OK

Track 4

Filename I:\+-+ CD rips +-+\Encodes\04 - Act 1, Scene 3- 'Notung! Notung! Neidliches Schwert' (Siegfried).wav

Peak level 97.4 %
Extraction speed 2.5 X
Track quality 100.0 %
Test CRC E9B4C5AF
Copy CRC E9B4C5AF
Accurately ripped (confidence 13) [609EE53B] (AR v2)
Copy OK

Track 5

Filename I:\+-+ CD rips +-+\Encodes\05 - Act 1, Scene 3- 'Hoho! Hoho! Hahei!' (Siegfried).wav

Peak level 98.1 %
Extraction speed 2.7 X
Track quality 100.0 %
Test CRC B37DC115
Copy CRC B37DC115
Accurately ripped (confidence 13) [573744A4] (AR v2)
Copy OK

Track 6

Filename I:\+-+ CD rips +-+\Encodes\06 - Act 2- Vorspiel.wav

Pre-gap length 0:00:13.64

Peak level 97.8 %
Extraction speed 2.6 X
Track quality 99.9 %
Test CRC E7BC3557
Copy CRC E7BC3557
Accurately ripped (confidence 13) [86420C4A] (AR v2)
Copy OK

Track 7

Filename I:\+-+ CD rips +-+\Encodes\07 - Act 2. Scene 1- 'In Wald und Nacht' (Alberich).wav

Peak level 87.8 %
Extraction speed 2.6 X
Track quality 100.0 %
Test CRC 6526EDBD
Copy CRC 6526EDBD
Accurately ripped (confidence 13) [3D199A23] (AR v2)
Copy OK

Track 8

Filename I:\+-+ CD rips +-+\Encodes\08 - Act 2. Scene 1- 'Zur Neidhöhle fuhr ich bei Nacht' (Wanderer).wav

Peak level 97.5 %
Extraction speed 2.9 X
Track quality 99.9 %
Test CRC DE16BEF8
Copy CRC DE16BEF8
Accurately ripped (confidence 13) [D14A30F2] (AR v2)
Copy OK

Track 9

Filename I:\+-+ CD rips +-+\Encodes\09 - Act 2. Scene 1- 'Mit mir nicht, hadre mit Mime' (Wanderer).wav

Peak level 91.9 %
Extraction speed 2.4 X
Track quality 99.9 %
Test CRC FD4C2EAD
Copy CRC FD4C2EAD
Accurately ripped (confidence 13) [62D194B1] (AR v2)
Copy OK

Track 10

Filename I:\+-+ CD rips +-+\Encodes\10 - Act 2. Scene 1- 'Fafner, Fafner! Erwache Wurm!' (Wanderer).wav

Peak level 97.5 %
Extraction speed 3.0 X
Track quality 100.0 %
Test CRC A821DA75
Copy CRC A821DA75
Accurately ripped (confidence 13) [FD9BC141] (AR v2)
Copy OK

Track 11

Filename I:\+-+ CD rips +-+\Encodes\11 - Act 2. Scene 1- 'Nun, Alberich! das schlug fehl' (Wanderer).wav

Peak level 97.1 %
Extraction speed 3.2 X
Track quality 100.0 %
Test CRC 11CC4A75
Copy CRC 11CC4A75
Accurately ripped (confidence 13) [E4DCAABB] (AR v2)
Copy OK

Track 12

Filename I:\+-+ CD rips +-+\Encodes\12 - Act 2, Scene 2- 'Wir sind zur Stelle!' (Mime).wav

Peak level 80.0 %
Extraction speed 3.6 X
Track quality 100.0 %
Test CRC D0E63BD2
Copy CRC D0E63BD2
Accurately ripped (confidence 13) [08F4F01F] (AR v2)
Copy OK

Track 13

Filename I:\+-+ CD rips +-+\Encodes\13 - Act 2, Scene 2- 'Daß der mein Vater nicht ist' (Siegfried).wav

Peak level 56.5 %
Extraction speed 2.9 X
Track quality 100.0 %
Test CRC 0DD6A66A
Copy CRC 0DD6A66A
Accurately ripped (confidence 13) [BDD0BAF0] (AR v2)
Copy OK


All tracks accurately ripped

No errors occurred

End of status report

–– CUETools DB Plugin V2.1.6

[CTDB TOCID: fSjNr3XrEvnrNYG8w_aD6_nk9h8-] found
Submit result: fSjNr3XrEvnrNYG8w_aD6_nk9h8- has been confirmed
Track | CTDB Status
1 | (18/18) Accurately ripped
2 | (18/18) Accurately ripped
3 | (18/18) Accurately ripped
4 | (17/18) Accurately ripped
5 | (17/18) Accurately ripped
6 | (18/18) Accurately ripped
7 | (17/18) Accurately ripped
8 | (17/18) Accurately ripped
9 | (18/18) Accurately ripped
10 | (18/18) Accurately ripped
11 | (18/18) Accurately ripped
12 | (18/18) Accurately ripped
13 | (18/18) Accurately ripped


==== Log checksum 0FB036E3350B824C0AC75A30F3447C728FBA34D86C7DC8DCE19439ED37D381D6 ====

Exact Audio Copy V1.3 from 2. September 2016

EAC extraction logfile from 15. January 2018, 4:21

Windgassen, Nilsson, Sutherland; Wiener Philharmoniker; Georg Solti / Siegfried

Used drive : PLEXTOR CD-R PX-240A Adapter: 1 ID: 0

Read mode : Secure
Utilize accurate stream : Yes
Defeat audio cache : Yes
Make use of C2 pointers : No

Read offset correction : 6
Overread into Lead-In and Lead-Out : No
Fill up missing offset samples with silence : Yes
Delete leading and trailing silent blocks : No
Null samples used in CRC calculations : Yes
Used interface : Native Win32 interface for Win NT & 2000
Gap handling : Appended to previous track

Used output format : User Defined Encoder
Selected bitrate : 1024 kBit/s
Quality : High
Add ID3 tag : No
Command line compressor : C:\Program Files (x86)\Exact Audio Copy\FLAC\FLAC.EXE
Additional command line options : -8 -e -p -V -T "ARTIST=%artist%" -T "TITLE=%title%" -T "ALBUM=%albumtitle%" -T "DATE=%year%" -T "TRACKNUMBER=%tracknr%" -T "GENRE=%genre%" -T "PERFORMER=%albuminterpret%" -T "COMPOSER=%composer%" %haslyrics%–tag-from-file=LYRICS="%lyricsfile%"%haslyrics% -T "ALBUMARTIST=%albumartist%" -T "DISCNUMBER=%cdnumber%" -T "TOTALDISCS=%totalcds%" -T "TOTALTRACKS=%numtracks%" -T "COMMENT=%comment%" %source% -o %dest%


TOC of the extracted CD

Track | Start | Length | Start sector | End sector
––––––––––––––––––––––––––––-
1 | 0:00.33 | 2:47.22 | 33 | 12579
2 | 2:47.55 | 5:38.10 | 12580 | 37939
3 | 8:25.65 | 5:29.58 | 37940 | 62672
4 | 13:55.48 | 4:35.32 | 62673 | 83329
5 | 18:31.05 | 2:13.45 | 83330 | 93349
6 | 20:44.50 | 2:45.58 | 93350 | 105782
7 | 23:30.33 | 2:53.40 | 105783 | 118797
8 | 26:23.73 | 9:30.02 | 118798 | 161549
9 | 35:54.00 | 8:28.70 | 161550 | 199719
10 | 44:22.70 | 2:15.03 | 199720 | 209847
11 | 46:37.73 | 1:42.42 | 209848 | 217539
12 | 48:20.40 | 10:35.38 | 217540 | 265202


Track 1

Filename I:\+-+ CD rips +-+\Encodes\301 - Siegfried, Act II Scene II- Aber wie sah meine Mutter wohl aus.wav

Pre-gap length 0:00:02.44

Peak level 47.9 %
Extraction speed 4.4 X
Track quality 99.9 %
Test CRC ADCCCA41
Copy CRC ADCCCA41
Accurately ripped (confidence 9) [75FA93AE] (AR v2)
Copy OK

Track 2

Filename I:\+-+ CD rips +-+\Encodes\302 - Siegfried, Act II Scene II- Meine Mutter, ein Menschenweib!.wav

Peak level 79.9 %
Extraction speed 6.3 X
Track quality 100.0 %
Test CRC FA56A8F7
Copy CRC FA56A8F7
Accurately ripped (confidence 9) [F1248D53] (AR v2)
Copy OK

Track 3

Filename I:\+-+ CD rips +-+\Encodes\303 - Siegfried, Act II Scene II- Haha! Da hätte mein Lied.wav

Peak level 97.3 %
Extraction speed 7.1 X
Track quality 100.0 %
Test CRC 1AB718C4
Copy CRC 1AB718C4
Accurately ripped (confidence 9) [D365FC21] (AR v2)
Copy OK

Track 4

Filename I:\+-+ CD rips +-+\Encodes\304 - Siegfried, Act II Scene II- Wer bist du, kühner Knabe.wav

Peak level 97.8 %
Extraction speed 7.6 X
Track quality 100.0 %
Test CRC F22525DC
Copy CRC F22525DC
Accurately ripped (confidence 9) [DA861153] (AR v2)
Copy OK

Track 5

Filename I:\+-+ CD rips +-+\Encodes\305 - Siegfried, Act II Scene II- Zur Kunde taugt kein Toter.wav

Peak level 61.5 %
Extraction speed 7.0 X
Track quality 100.0 %
Test CRC 45156DFC
Copy CRC 45156DFC
Accurately ripped (confidence 9) [4596A8C9] (AR v2)
Copy OK

Track 6

Filename I:\+-+ CD rips +-+\Encodes\306 - Siegfried, Act II Scene III- Wohin schleichst du eilig und schlau.wav

Peak level 68.5 %
Extraction speed 7.6 X
Track quality 100.0 %
Test CRC B2C22619
Copy CRC B2C22619
Accurately ripped (confidence 9) [E2AE764A] (AR v2)
Copy OK

Track 7

Filename I:\+-+ CD rips +-+\Encodes\307 - Siegfried, Act II Scene III- Was ihr mir nützt, weiß ich nicht.wav

Peak level 68.9 %
Extraction speed 8.0 X
Track quality 100.0 %
Test CRC 5A36C425
Copy CRC 5A36C425
Accurately ripped (confidence 9) [4D3B2EBF] (AR v2)
Copy OK

Track 8

Filename I:\+-+ CD rips +-+\Encodes\308 - Siegfried, Act II Scene III- Willkommen, Siegfried!.wav

Peak level 73.5 %
Extraction speed 9.0 X
Track quality 99.9 %
Test CRC BC96F15D
Copy CRC BC96F15D
Accurately ripped (confidence 9) [488FC172] (AR v2)
Copy OK

Track 9

Filename I:\+-+ CD rips +-+\Encodes\309 - Siegfried, Act II Scene III- Da lieg auch du, dunkler Wurm!.wav

Peak level 93.7 %
Extraction speed 9.6 X
Track quality 99.9 %
Test CRC 77144AAE
Copy CRC 77144AAE
Accurately ripped (confidence 9) [54452FF2] (AR v2)
Copy OK

Track 10

Filename I:\+-+ CD rips +-+\Encodes\310 - Siegfried, Act III Scene I- Vorspiel.wav

Pre-gap length 0:00:15.60

Peak level 97.8 %
Extraction speed 9.2 X
Track quality 100.0 %
Test CRC C6DF5CCE
Copy CRC C6DF5CCE
Accurately ripped (confidence 9) [75BD6A92] (AR v2)
Copy OK

Track 11

Filename I:\+-+ CD rips +-+\Encodes\311 - Siegfried, Act III Scene I- Wache, Wala! Wala! Erwach!.wav

Peak level 97.4 %
Extraction speed 7.0 X
Track quality 99.8 %
Test CRC B66C6F5C
Copy CRC B66C6F5C
Accurately ripped (confidence 9) [75FE2944] (AR v2)
Copy OK

Track 12

Filename I:\+-+ CD rips +-+\Encodes\312 - Siegfried, Act III Scene I- Stark ruft das Lied.wav

Peak level 96.6 %
Extraction speed 11.7 X
Track quality 100.0 %
Test CRC 632AEEDE
Copy CRC 632AEEDE
Accurately ripped (confidence 9) [887F6D89] (AR v2)
Copy OK


All tracks accurately ripped

No errors occurred

End of status report

–– CUETools DB Plugin V2.1.6

[CTDB TOCID: mJYBz27QPx3T5BQOi3pFqSM3e_k-] found
Submit result: mJYBz27QPx3T5BQOi3pFqSM3e_k- has been confirmed
Track | CTDB Status
1 | (24/26) Accurately ripped
2 | (25/26) Accurately ripped
3 | (25/26) Accurately ripped
4 | (25/26) Accurately ripped
5 | (25/26) Accurately ripped
6 | (25/26) Accurately ripped
7 | (25/26) Accurately ripped
8 | (24/26) Accurately ripped
9 | (24/26) Accurately ripped
10 | (24/26) Accurately ripped
11 | (25/26) Accurately ripped
12 | (24/26) Accurately ripped


==== Log checksum 4D872F02B1F4D1A2B131EACB47E554DEA2F468A4DCEAA4C6A50102DE50855C14 ====

Exact Audio Copy V1.3 from 2. September 2016

EAC extraction logfile from 15. January 2018, 13:54

Windgassen, Nilsson, Sutherland; Wiener Philharmoniker; Georg Solti / Siegfried

Used drive : PLEXTOR CD-R PX-240A Adapter: 1 ID: 0

Read mode : Secure
Utilize accurate stream : Yes
Defeat audio cache : Yes
Make use of C2 pointers : No

Read offset correction : 6
Overread into Lead-In and Lead-Out : No
Fill up missing offset samples with silence : Yes
Delete leading and trailing silent blocks : No
Null samples used in CRC calculations : Yes
Used interface : Native Win32 interface for Win NT & 2000
Gap handling : Appended to previous track

Used output format : User Defined Encoder
Selected bitrate : 1024 kBit/s
Quality : High
Add ID3 tag : No
Command line compressor : C:\Program Files (x86)\Exact Audio Copy\FLAC\FLAC.EXE
Additional command line options : -8 -e -p -V -T "ARTIST=%artist%" -T "TITLE=%title%" -T "ALBUM=%albumtitle%" -T "DATE=%year%" -T "TRACKNUMBER=%tracknr%" -T "GENRE=%genre%" -T "PERFORMER=%albuminterpret%" -T "COMPOSER=%composer%" %haslyrics%–tag-from-file=LYRICS="%lyricsfile%"%haslyrics% -T "ALBUMARTIST=%albumartist%" -T "DISCNUMBER=%cdnumber%" -T "TOTALDISCS=%totalcds%" -T "TOTALTRACKS=%numtracks%" -T "COMMENT=%comment%" %source% -o %dest%


TOC of the extracted CD

Track | Start | Length | Start sector | End sector
––––––––––––––––––––––––––––-
1 | 0:00.32 | 4:18.53 | 32 | 19434
2 | 4:19.10 | 0:56.45 | 19435 | 23679
3 | 5:15.55 | 5:16.00 | 23680 | 47379
4 | 10:31.55 | 5:13.17 | 47380 | 70871
5 | 15:44.72 | 3:46.55 | 70872 | 87876
6 | 19:31.52 | 6:27.63 | 87877 | 116964
7 | 25:59.40 | 7:47.40 | 116965 | 152029
8 | 33:47.05 | 6:08.30 | 152030 | 179659
9 | 39:55.35 | 6:48.12 | 179660 | 210271
10 | 46:43.47 | 8:04.23 | 210272 | 246594
11 | 54:47.70 | 11:16.57 | 246595 | 297351


Track 1

Filename I:\+-+ CD rips +-+\Encodes\401 - Siegfried- Act III, Scene I. ''Dir Unweisen ruf' ich ins Ohr''.wav

Pre-gap length 0:00:02.42

Peak level 96.4 %
Extraction speed 6.2 X
Track quality 100.0 %
Test CRC C51027F9
Copy CRC C51027F9
Accurately ripped (confidence 5) [772588AF] (AR v2)
Copy OK

Track 2

Filename I:\+-+ CD rips +-+\Encodes\402 - Siegfried- Act III, Scene II. ''Mein Vöglein Schwebte mir fort!''.wav

Peak level 48.5 %
Extraction speed 4.5 X
Track quality 100.0 %
Test CRC 0804315E
Copy CRC 0804315E
Accurately ripped (confidence 5) [9EFC0FA9] (AR v2)
Copy OK

Track 3

Filename I:\+-+ CD rips +-+\Encodes\403 - Siegfried- Act III, Scene II. ''Wohin, Knabe, heißt dich dein Weg''.wav

Pre-gap length 0:00:00.01

Peak level 89.6 %
Extraction speed 7.1 X
Track quality 100.0 %
Test CRC 6D81D977
Copy CRC 6D81D977
Accurately ripped (confidence 5) [3DEA78A9] (AR v2)
Copy OK

Track 4

Filename I:\+-+ CD rips +-+\Encodes\404 - Siegfried- Act III, Scene II. ''Kenntest du mich, kühner Sproß''.wav

Pre-gap length 0:00:00.01

Peak level 97.5 %
Extraction speed 7.8 X
Track quality 100.0 %
Test CRC 7DEC7271
Copy CRC 7DEC7271
Accurately ripped (confidence 5) [91786C7E] (AR v2)
Copy OK

Track 5

Filename I:\+-+ CD rips +-+\Encodes\405 - Siegfried- Act III, Scene II. ''Mit zerfochtner Waffe wich mir der Feige''.wav

Pre-gap length 0:00:00.01

Peak level 96.4 %
Extraction speed 7.1 X
Track quality 99.9 %
Test CRC BEF2E942
Copy CRC BEF2E942
Accurately ripped (confidence 5) [ED11C39E] (AR v2)
Copy OK

Track 6

Filename I:\+-+ CD rips +-+\Encodes\406 - Siegfried- Act III, Scene III. ''Selige Öde auf sonniger Höh'!''.wav

Pre-gap length 0:00:00.01

Peak level 51.6 %
Extraction speed 9.1 X
Track quality 100.0 %
Test CRC FDA28E97
Copy CRC FDA28E97
Accurately ripped (confidence 5) [D9E8836D] (AR v2)
Copy OK

Track 7

Filename I:\+-+ CD rips +-+\Encodes\407 - Siegfried- Act III, Scene III. ''Das ist kein Mann!''.wav

Pre-gap length 0:00:00.01

Peak level 97.6 %
Extraction speed 10.0 X
Track quality 100.0 %
Test CRC 37F753B2
Copy CRC 37F753B2
Accurately ripped (confidence 5) [A4FA2EA1] (AR v2)
Copy OK

Track 8

Filename I:\+-+ CD rips +-+\Encodes\408 - Siegfried- Act III, Scene III. ''Heil dir, Sonne! Heil dir, Licht!''.wav

Pre-gap length 0:00:00.02

Peak level 97.6 %
Extraction speed 10.5 X
Track quality 100.0 %
Test CRC B02D7ED4
Copy CRC B02D7ED4
Accurately ripped (confidence 5) [EA448F6D] (AR v2)
Copy OK

Track 9

Filename I:\+-+ CD rips +-+\Encodes\409 - Siegfried- Act III, Scene III. ''O Siegfried! Siegfried! Seliger Held!''.wav

Pre-gap length 0:00:00.01

Peak level 81.7 %
Extraction speed 11.1 X
Track quality 100.0 %
Test CRC C7335C8E
Copy CRC C7335C8E
Accurately ripped (confidence 5) [7CD3C066] (AR v2)
Copy OK

Track 10

Filename I:\+-+ CD rips +-+\Encodes\410 - Siegfried- Act III, Scene III. ''Dort seh' ich Grane''.wav

Pre-gap length 0:00:00.01

Peak level 94.4 %
Extraction speed 11.9 X
Track quality 100.0 %
Test CRC 0F42C80D
Copy CRC 0F42C80D
Accurately ripped (confidence 5) [86DF17EB] (AR v2)
Copy OK

Track 11

Filename I:\+-+ CD rips +-+\Encodes\411 - Siegfried- Act III, Scene III. ''Ewig war ich, ewig bin ich''.wav

Pre-gap length 0:00:00.01

Peak level 97.4 %
Extraction speed 12.1 X
Track quality 100.0 %
Test CRC E1B4E661
Copy CRC E1B4E661
Accurately ripped (confidence 5) [EBBEB682] (AR v2)
Copy OK


All tracks accurately ripped

No errors occurred

End of status report

–– CUETools DB Plugin V2.1.6

[CTDB TOCID: 7tnSfWaJQz0d1E6sUuP_JWNsiDQ-] found
Submit result: 7tnSfWaJQz0d1E6sUuP_JWNsiDQ- has been confirmed
Track | CTDB Status
1 | (2/2) Accurately ripped
2 | (2/2) Accurately ripped
3 | (2/2) Accurately ripped
4 | (2/2) Accurately ripped
5 | (2/2) Accurately ripped
6 | (2/2) Accurately ripped
7 | (2/2) Accurately ripped
8 | (2/2) Accurately ripped
9 | (2/2) Accurately ripped
10 | (2/2) Accurately ripped
11 | (2/2) Accurately ripped


==== Log checksum 5F4B71D731DF80D8E7B3BE00700894EC5677304BBEF3A8CA01FF4CB312476FBB ====


Thanks to the Original customer.