Tags
Language
Tags

George Michael & Wham! - Last Christmas: The Original Motion Picture Soundtrack (2019)

Posted By: Domestos
George Michael & Wham! - Last Christmas: The Original Motion Picture Soundtrack (2019)

George Michael & Wham! - Last Christmas: The Original Motion Picture Soundtrack (2019)
EAC Rip | FLAC (tracks+.cue, log) ~ 487.74 Mb | 01:12:04 | Covers
Soundtrack | Label: Sony Music - 19075978832

Sony Music is thrilled to present the soundtrack album to accompany the highly-anticipated film, Last Christmas, co-scripted by Emma Thompson and inspired by the music of George Michael and Wham! Last Christmas, the soundtrack album, features 3 fabulous Wham! songs including Last Christmas, Everything She Wants as well as 12 George Michael solo tracks from throughout his career. The film began when the acclaimed British film producer David Livingstone (best known for the BAFTA Award winning feature film Pride, and the Renee Zellweger feature, Judy) spoke of his love of Wham!’s iconic hit Last Christmas to the Oscar-winning actor, producer and screenwriter, Emma Thompson.

That conversation sowed the seed of a winning idea: to make a film inspired by Last Christmas, and in Spring 2013, Emma Thompson visited George Michael who gave her his blessing. After the 2017 film Freedom opened up the musical worlds of George Michael to Paul Feig, the director immersed himself in George’s entire catalogue and selected tracks to complement the film’s narrative. Highlights include the much-loved hits, Faith, Fastlove and Freedom '90 alongside such surprises as Heal The Pain, Waiting For That Day and the MTV Unplugged version of Praying For Time which George himself adored. As Paul Feig says, the result is “A love letter to George”. Then Emma Thompson heard the new George Michael song, This Is How (We Want You To Get High) and she instantly knew that the song had to be part of Last Christmas. An extended version is available on the vinyl version of the soundtrack.



Track List:
01. Wham! - Last Christmas (4:25)
02. George Michael - Too Funky (3:46)
03. George Michael - Fantasy (5:02)
04. George Michael - Praying for Time (4:41)
05. George Michael - Faith (3:17)
06. George Michael - Waiting for That Day (4:52)
07. George Michael - Heal the Pain (4:46)
08. George Michael - One More Try (5:50)
09. George Michael - Fastlove, Pt. 1 (5:29)
10. Wham! - Everything She Wants (5:29)
11. Wham! - Wake Me Up Before You Go-Go (3:53)
12. George Michael - Move On (4:48)
13. George Michael - Freedom! '90 (6:30)
14. George Michael - Praying for Time (Live) (5:15)
15. George Michael - This Is How (We Want You to Get High) (4:01)

George Michael & Wham! - Last Christmas: The Original Motion Picture Soundtrack (2019)

Exact Audio Copy V1.3 from 2. September 2016

EAC extraction logfile from 9. November 2019, 15:27

George Michael & Wham! / Last Christmas

Used drive : PLEXTOR CD-R PX-230A Adapter: 1 ID: 1

Read mode : Secure
Utilize accurate stream : Yes
Defeat audio cache : Yes
Make use of C2 pointers : No

Read offset correction : 738
Overread into Lead-In and Lead-Out : No
Fill up missing offset samples with silence : Yes
Delete leading and trailing silent blocks : No
Null samples used in CRC calculations : Yes
Used interface : Native Win32 interface for Win NT & 2000
Gap handling : Appended to previous track

Used output format : User Defined Encoder
Selected bitrate : 1024 kBit/s
Quality : High
Add ID3 tag : No
Command line compressor : C:\Program Files\Exact Audio Copy\Flac\flac.exe
Additional command line options : -6 -V -T "ARTIST=%artist%" -T "TITLE=%title%" -T "ALBUM=%albumtitle%" -T "DATE=%year%" -T "TRACKNUMBER=%tracknr%" -T "GENRE=%genre%" -T "COMMENT=%comment%" -T "ALBUMARTIST=%albuminterpret%" -T "COMPOSER=%composer%" -T "DISCNUMBER=%cdnumber%" -T "TOTALDISCS=%totalcds%" -T "TOTALTRACKS=%numtracks%" %source% -o %dest%


TOC of the extracted CD

Track | Start | Length | Start sector | End sector
––––––––––––––––––––––––––––-
1 | 0:00.00 | 4:24.72 | 0 | 19871
2 | 4:24.72 | 3:46.23 | 19872 | 36844
3 | 8:11.20 | 5:01.69 | 36845 | 59488
4 | 13:13.14 | 4:41.03 | 59489 | 80566
5 | 17:54.17 | 3:16.48 | 80567 | 95314
6 | 21:10.65 | 4:51.63 | 95315 | 117202
7 | 26:02.53 | 4:45.43 | 117203 | 138620
8 | 30:48.21 | 5:50.23 | 138621 | 164893
9 | 36:38.44 | 5:29.29 | 164894 | 189597
10 | 42:07.73 | 5:29.30 | 189598 | 214302
11 | 47:37.28 | 3:52.41 | 214303 | 231743
12 | 51:29.69 | 4:47.50 | 231744 | 253318
13 | 56:17.44 | 6:30.02 | 253319 | 282570
14 | 62:47.46 | 5:15.11 | 282571 | 306206
15 | 68:02.57 | 4:00.39 | 306207 | 324245


Track 1

Filename C:\Ripped by Filex\01 - Wham! - Last Christmas.wav

Pre-gap length 0:00:02.00

Peak level 99.8 %
Extraction speed 4.6 X
Track quality 99.9 %
Test CRC 1398C31A
Copy CRC 1398C31A
Track not present in AccurateRip database
Copy OK

Track 2

Filename C:\Ripped by Filex\02 - George Michael - Too Funky.wav

Peak level 98.6 %
Extraction speed 4.8 X
Track quality 100.0 %
Test CRC 19C44735
Copy CRC 19C44735
Track not present in AccurateRip database
Copy OK

Track 3

Filename C:\Ripped by Filex\03 - George Michael - Fantasy.wav

Peak level 97.5 %
Extraction speed 5.3 X
Track quality 100.0 %
Test CRC 6F487B14
Copy CRC 6F487B14
Track not present in AccurateRip database
Copy OK

Track 4

Filename C:\Ripped by Filex\04 - George Michael - Praying for Time.wav

Peak level 99.8 %
Extraction speed 5.7 X
Track quality 100.0 %
Test CRC 3F9024D1
Copy CRC 3F9024D1
Track not present in AccurateRip database
Copy OK

Track 5

Filename C:\Ripped by Filex\05 - George Michael - Faith.wav

Peak level 99.8 %
Extraction speed 5.8 X
Track quality 100.0 %
Test CRC 9331AE1B
Copy CRC 9331AE1B
Track not present in AccurateRip database
Copy OK

Track 6

Filename C:\Ripped by Filex\06 - George Michael - Waiting for That Day.wav

Peak level 99.8 %
Extraction speed 5.8 X
Track quality 99.9 %
Test CRC A855B9D1
Copy CRC A855B9D1
Track not present in AccurateRip database
Copy OK

Track 7

Filename C:\Ripped by Filex\07 - George Michael - Heal the Pain.wav

Peak level 99.8 %
Extraction speed 2.8 X
Track quality 100.0 %
Test CRC B263590C
Copy CRC B263590C
Track not present in AccurateRip database
Copy OK

Track 8

Filename C:\Ripped by Filex\08 - George Michael - One More Try.wav

Peak level 99.1 %
Extraction speed 7.0 X
Track quality 100.0 %
Test CRC B40ADB98
Copy CRC B40ADB98
Track not present in AccurateRip database
Copy OK

Track 9

Filename C:\Ripped by Filex\09 - George Michael - Fastlove, Pt. 1.wav

Peak level 99.6 %
Extraction speed 7.1 X
Track quality 100.0 %
Test CRC EA824FEB
Copy CRC EA824FEB
Track not present in AccurateRip database
Copy OK

Track 10

Filename C:\Ripped by Filex\10 - Wham! - Everything She Wants.wav

Peak level 96.5 %
Extraction speed 7.4 X
Track quality 100.0 %
Test CRC F11103D3
Copy CRC F11103D3
Track not present in AccurateRip database
Copy OK

Track 11

Filename C:\Ripped by Filex\11 - Wham! - Wake Me Up Before You Go-Go.wav

Peak level 95.3 %
Extraction speed 7.2 X
Track quality 100.0 %
Test CRC D2A866FE
Copy CRC D2A866FE
Track not present in AccurateRip database
Copy OK

Track 12

Filename C:\Ripped by Filex\12 - George Michael - Move On.wav

Peak level 98.7 %
Extraction speed 7.7 X
Track quality 100.0 %
Test CRC 5D4ADBF2
Copy CRC 5D4ADBF2
Track not present in AccurateRip database
Copy OK

Track 13

Filename C:\Ripped by Filex\13 - George Michael - Freedom! '90.wav

Peak level 93.9 %
Extraction speed 7.9 X
Track quality 100.0 %
Test CRC 93A2CE90
Copy CRC 93A2CE90
Track not present in AccurateRip database
Copy OK

Track 14

Filename C:\Ripped by Filex\14 - George Michael - Praying for Time (Live).wav

Peak level 94.8 %
Extraction speed 7.7 X
Track quality 100.0 %
Test CRC 66E20535
Copy CRC 66E20535
Track not present in AccurateRip database
Copy OK

Track 15

Filename C:\Ripped by Filex\15 - George Michael - This Is How (We Want You to Get High).wav

Peak level 99.8 %
Extraction speed 7.5 X
Track quality 100.0 %
Test CRC ADB83E31
Copy CRC ADB83E31
Track not present in AccurateRip database
Copy OK


None of the tracks are present in the AccurateRip database

No errors occurred

End of status report

–– CUETools DB Plugin V2.1.6

[CTDB TOCID: u1i_tLf1Rna_6Mi5dGZcX1RzyEc-] found
Submit result: u1i_tLf1Rna_6Mi5dGZcX1RzyEc- has been confirmed
Track | CTDB Status
1 | (1/1) Accurately ripped
2 | (1/1) Accurately ripped
3 | (1/1) Accurately ripped
4 | (1/1) Accurately ripped
5 | (1/1) Accurately ripped
6 | (1/1) Accurately ripped
7 | (1/1) Accurately ripped
8 | (1/1) Accurately ripped
9 | (1/1) Accurately ripped
10 | (1/1) Accurately ripped
11 | (1/1) Accurately ripped
12 | (1/1) Accurately ripped
13 | (1/1) Accurately ripped
14 | (1/1) Accurately ripped
15 | (1/1) Accurately ripped


==== Log checksum CF4309EF17711EF2A2BDE48C913C26D8BC799A96A08F4401D44B19A80D7E8BB4 ====

All thanks go to the Filex

More Music in My Blog
Follow My RSS Channel