Tags
Language
Tags

Pierre Fournier, Suk Trio & George Szell - Dvořák: Concerto pour violoncelle, op.104, Trio avec piano N°4 «Dumky», op.90 (2020)

Posted By: delpotro
Pierre Fournier, Suk Trio & George Szell - Dvořák: Concerto pour violoncelle, op.104, Trio avec piano N°4 «Dumky», op.90 (2020)

Pierre Fournier, Suk Trio & George Szell - Dvořák: Concerto pour violoncelle, op.104 - Trio avec piano N°4 « Dumky », op.90 (2020)
EAC Rip | FLAC (tracks+log+.cue) - 330 Mb | MP3 CBR 320 kbps - 175 Mb | Covers included | 01:11:00
Classical | Label: Les indispensables de Diapason

The Cello Concerto in B minor, Op. 104, B. 191, is the last solo concerto by Antonín Dvořák. It was written in 1894 for his friend, the cellist Hanuš Wihan, but was premiered by the English cellist Leo Stern. The Piano Trio No. 4 in E minor, Op. 90, B. 166, (also called Dumky trio from the subtitle Dumky) is a composition by Antonín Dvořák for piano, violin and cello. It is among the composer's best-known works. At the same time it is a prominent example for a piece of chamber music deviating strongly from the customary form of classical chamber music – both in terms of the number of movements and of their formal construction.
Tracklist:
01. P.Fournier, Berliner Philh., G.Szell - Concerto pour violoncelle, op.104: Allegro
02. P.Fournier, Berliner Philh., G.Szell - Concerto pour violoncelle, op.104: Adagio ma non troppo
03. P.Fournier, Berliner Philh., G.Szell - Concerto pour violoncelle, op.104: Finale. Allegro moderato
04. Trio Suk - Trio N°4, op.90: Lento maestoso - Allegro quasi …
05. Trio Suk - Trio N°4, op.90: Poco adagio - Vivace non troppo - Vivace
06. Trio Suk - Trio N°4, op.90: Andante - Vivace non troppo - Allegretto
07. Trio Suk - Trio N°4, op.90: Andante moderato - Allegretto scherzando - Marcia
08. Trio Suk - Trio N°4, op.90: Allegro - Meno mosso
09. Trio Suk - Trio N°4, op.90: Lento maestoso - Vivace

Exact Audio Copy V1.3 from 2. September 2016

EAC extraction logfile from 29. September 2020, 14:50

Pierre Fournier, Trio Suk / Dvořák_Concerto pour violoncelle, Trio N°4, Indispensables 128

Used drive : SlimtypeeBAU108 6 L Adapter: 1 ID: 1

Read mode : Secure
Utilize accurate stream : Yes
Defeat audio cache : Yes
Make use of C2 pointers : No

Read offset correction : 6
Overread into Lead-In and Lead-Out : No
Fill up missing offset samples with silence : Yes
Delete leading and trailing silent blocks : No
Null samples used in CRC calculations : Yes
Used interface : Native Win32 interface for Win NT & 2000
Gap handling : Appended to previous track

Used output format : User Defined Encoder
Selected bitrate : 896 kBit/s
Quality : High
Add ID3 tag : No
Command line compressor : C:\Program Files (x86)\Exact Audio Copy\FLAC\FLAC.EXE
Additional command line options : -6 -V -T "COMPOSER=%composer%" -T "TITLE=%title%" -T "ARTIST=%artist%" -T "ALBUM=%albumtitle%" -T "DATE=%year%" -T "TRACKNUMBER=%tracknr%" -T "GENRE=%genre%" -T "BAND=%albuminterpret%" -T "ALBUMARTIST=%albuminterpret%" -T "DISCNUMBER=%cdnumber%" -T "TOTALDISCS=%totalcds%" -T "TOTALTRACKS=%numtracks%" %source% -o %dest%


TOC of the extracted CD

Track | Start | Length | Start sector | End sector
––––––––––––––––––––––––––––-
1 | 0:00.00 | 14:48.17 | 0 | 66616
2 | 14:48.17 | 11:27.30 | 66617 | 118171
3 | 26:15.47 | 12:25.15 | 118172 | 174061
4 | 38:40.62 | 4:12.05 | 174062 | 192966
5 | 42:52.67 | 7:27.02 | 192967 | 226493
6 | 50:19.69 | 6:34.65 | 226494 | 256108
7 | 56:54.59 | 4:47.26 | 256109 | 277659
8 | 61:42.10 | 4:12.13 | 277660 | 296572
9 | 65:54.23 | 5:06.04 | 296573 | 319526


Track 1

Filename Y:\_orp\diap128\01. Concerto pour violoncelle, op.104- Allegro.wav

Pre-gap length 0:00:02.00

Peak level 79.0 %
Extraction speed 1.4 X
Track quality 100.0 %
Test CRC EFFA320B
Copy CRC EFFA320B
Copy OK

Track 2

Filename Y:\_orp\diap128\02. Concerto pour violoncelle, op.104- Adagio ma non troppo.wav

Peak level 70.4 %
Extraction speed 1.7 X
Track quality 100.0 %
Test CRC 7D37E028
Copy CRC 7D37E028
Copy OK

Track 3

Filename Y:\_orp\diap128\03. Concerto pour violoncelle, op.104- Finale. Allegro moderato.wav

Peak level 72.3 %
Extraction speed 2.0 X
Track quality 100.0 %
Test CRC E4CDCE34
Copy CRC E4CDCE34
Copy OK

Track 4

Filename Y:\_orp\diap128\04. Trio N°4, op.90- Lento maestoso - Allegro quasi ….wav

Peak level 82.2 %
Extraction speed 2.0 X
Track quality 100.0 %
Test CRC 734EBF0D
Copy CRC 734EBF0D
Copy OK

Track 5

Filename Y:\_orp\diap128\05. Trio N°4, op.90- Poco adagio - Vivace non troppo - Vivace.wav

Peak level 78.7 %
Extraction speed 2.2 X
Track quality 100.0 %
Test CRC 60771B4B
Copy CRC 60771B4B
Copy OK

Track 6

Filename Y:\_orp\diap128\06. Trio N°4, op.90- Andante - Vivace non troppo - Allegretto.wav

Peak level 84.9 %
Extraction speed 2.3 X
Track quality 100.0 %
Test CRC 15F94A5F
Copy CRC 15F94A5F
Copy OK

Track 7

Filename Y:\_orp\diap128\07. Trio N°4, op.90- Andante moderato - Allegretto scherzando - Marcia.wav

Peak level 83.1 %
Extraction speed 2.3 X
Track quality 100.0 %
Test CRC BDD38A85
Copy CRC BDD38A85
Copy OK

Track 8

Filename Y:\_orp\diap128\08. Trio N°4, op.90- Allegro - Meno mosso.wav

Peak level 98.2 %
Extraction speed 2.3 X
Track quality 100.0 %
Test CRC 3FD3F50B
Copy CRC 3FD3F50B
Copy OK

Track 9

Filename Y:\_orp\diap128\09. Trio N°4, op.90- Lento maestoso - Vivace.wav

Peak level 95.1 %
Extraction speed 2.4 X
Track quality 100.0 %
Test CRC 794E2891
Copy CRC 794E2891
Copy OK

No errors occurred

End of status report

–– CUETools DB Plugin V2.1.6

[CTDB TOCID: c4JJoqMGiRsp.dVJwrSSfhfhsTE-] disk not present in database
Submit result: c4JJoqMGiRsp.dVJwrSSfhfhsTE- has been uploaded


==== Log checksum 7E284B68C8C8747BB0179780AD85E28DB126CB1090E9512EF1969F9EF7305CF7 ====

Thanks to the Original ripper !