Tags
Language
Tags

Gillian Welch - Boots No.1 - The Official Revival Bootleg (2016) {2CD Acony Records ACNY-1601}

Posted By: ruskaval
Gillian Welch - Boots No.1 - The Official Revival Bootleg (2016) {2CD Acony Records ACNY-1601}

Gillian Welch - Boots No.1 - The Official Revival Bootleg (2016) {2CD Acony Records ACNY-1601}
EAC rip (secure mode) | FLAC (tracks)+CUE+LOG -> 425 Mb | MP3 @320 -> 182 Mb
Full Artwork @ 300 dpi (png) -> 34 Mb | 5% repair rar
© 2016 Acony Records | ACNY-1601
Country / Folk / Americana / Neo-Traditional Folk / Alt-Country

When Gillian Welch released her debut album, Revival, in 1996, plenty of listeners and critics were taken aback by her strikingly accomplished re-creation of the sound and mindset of country music of the '20s and '30s, as if she'd miraculously stepped out of Harry Smith's Anthology of American Folk Music into Nashville in the late 20th century. It soon became common knowledge that Welch was born in New York City and had attended the Berklee School of Music, leading many to question the sincerity of the artist and the validity of the work. Twenty years later, Welch has released Boots No. 1: The Official Revival Bootleg, a collection of outtakes, demos, and alternate versions committed to tape before or during the making of Revival.

The front cover of Boots No. 1 features a photo from the same sitting that produced Revival's cover art, except this time Welch is holding an electric guitar. The shot is a subtle but cheeky reminder of what should have been the point all along: Gillian Welch wasn't a savant but an artist, one who drew clear inspiration from the sounds of America's past, but used them as a starting point to tell powerful and eloquent stories of her own. And while Welch could pass for the lost member of the Carter Family when she saw fit, Boots No. 1 reveals there are plenty of other directions she could have taken that would have been just as compelling and just as valid. Most of the tracks here follow the essential template of Revival – Welch and her constant collaborator David Rawlings blending their vocals and guitars with minimal accompaniment, sometimes in glorious mono. But the ragged but right rock & roll of "455 Rocket," the sinewy midnight groove of "Pass You By," and the evocative Patsy Cline-isms of "Paper Wings" (which appears in two versions, one featuring ethereal pedal steel work from John R. Hughey) testify to Welch's versatility, as well as her unerring skill as a singer and tunesmith. And while Welch had plenty of gifted accompanists on board (no surprise with T-Bone Burnett producing the sessions), you'd be hard-pressed to name two people who are as musically simpatico as Welch and Rawlings, and his graceful, lively guitar work is a joy to behold here. Boots No. 1 plays less like an expansion of Revival than a document of a fertile period of creativity in the life of Gillian Welch, and while fans of the original album will revel in it, you don't have to be familiar with it to be dazzled by the subtle passion, intelligence, and eloquence of this music.
Gillian Welch - Boots No.1 - The Official Revival Bootleg (2016) {2CD Acony Records ACNY-1601}


Track list:

CD1


01 - Orphan Girl (Alternate Version)
02 - Annabelle (Alternate Version)
03 - Pass You By (Alternate Version)
04 - Go On Downtown (Revival Outtake)
05 - Red Clay Halo (Revival Outtake)
06 - By The Mark (Alternate Mix)
07 - Paper Wings (Demo)
08 - Georgia Road (Revival Outtake)
09 - Tear My Stillhouse Down (Home Demo)
10 - Only One And Only (Alternate Version)

Gillian Welch - Boots No.1 - The Official Revival Bootleg (2016) {2CD Acony Records ACNY-1601}


CD2

01 - Orphan Girl (Home Demo)
02 - I Don't Want To Go Downtown (Revival Outtake)
03 - 455 Rocket (Revival Outtake)
04 - Barroom Girls (Live Radio)
05 - Wichita (Revival Outtake)
06 - One More Dollar (Alternate Version)
07 - Dry Town (Demo)
08 - Paper Wings (Alternate Mix)
09 - Riverboat Song (Revival Outtake)
10 - Old Time Religion (Revival Outtake)
11 - Acony Bell (Demo)

Gillian Welch - Boots No.1 - The Official Revival Bootleg (2016) {2CD Acony Records ACNY-1601}


Exact Audio Copy V1.1 from 23. June 2015

EAC extraction logfile from 2. January 2017, 17:39

Gillian Welch / Boots No. 1: The Official Revival Bootleg, Disc 1

Used drive : Optiarc DVD RW AD-5240S Adapter: 1 ID: 0

Read mode : Secure
Utilize accurate stream : Yes
Defeat audio cache : Yes
Make use of C2 pointers : No

Read offset correction : 48
Overread into Lead-In and Lead-Out : No
Fill up missing offset samples with silence : Yes
Delete leading and trailing silent blocks : No
Null samples used in CRC calculations : Yes
Used interface : Native Win32 interface for Win NT & 2000
Gap handling : Appended to previous track

Used output format : User Defined Encoder
Selected bitrate : 128 kBit/s
Quality : High
Add ID3 tag : No
Command line compressor : C:\Program Files (x86)\Exact Audio Copy\Flac\flac.exe
Additional command line options : -8 -V -T "ARTIST=%artist%" -T "TITLE=%title%" -T "ALBUM=%albumtitle%" -T "DATE=%year%" -T "TRACKNUMBER=%tracknr%" -T "TOTALTRACKS=%numtracks%" -T "GENRE=%genre%" -T "ALBUMARTIST=%albumartist%" -T "ALBUM ARTIST=%albumartist%" -T "COMMENT=EAC Secure Mode, Test & Copy, AccurateRip, FLAC -8" %source%


TOC of the extracted CD

Track | Start | Length | Start sector | End sector
––––––––––––––––––––––––––––-
1 | 0:00.00 | 3:29.53 | 0 | 15727
2 | 3:29.53 | 3:55.19 | 15728 | 33371
3 | 7:24.72 | 3:55.08 | 33372 | 51004
4 | 11:20.05 | 5:45.02 | 51005 | 76881
5 | 17:05.07 | 3:24.10 | 76882 | 92191
6 | 20:29.17 | 3:40.52 | 92192 | 108743
7 | 24:09.69 | 3:13.59 | 108744 | 123277
8 | 27:23.53 | 3:04.05 | 123278 | 137082
9 | 30:27.58 | 3:52.54 | 137083 | 154536
10 | 34:20.37 | 4:20.01 | 154537 | 174037


Track 1

Filename D:\Downloads\uTorrent\Gillian Welch - Boots No.1 - The Official Revival Bootleg (2016) [FLAC]\CD1\01 - Orphan Girl (Alternate Version).wav

Pre-gap length 0:00:02.00

Peak level 94.4 %
Extraction speed 2.2 X
Track quality 100.0 %
Test CRC 6334C710
Copy CRC 6334C710
Accurately ripped (confidence 3) [2B991CF8] (AR v2)
Copy OK

Track 2

Filename D:\Downloads\uTorrent\Gillian Welch - Boots No.1 - The Official Revival Bootleg (2016) [FLAC]\CD1\02 - Annabelle (Alternate Version).wav

Peak level 99.5 %
Extraction speed 2.5 X
Track quality 100.0 %
Test CRC B79B6996
Copy CRC B79B6996
Accurately ripped (confidence 3) [A43E2B39] (AR v2)
Copy OK

Track 3

Filename D:\Downloads\uTorrent\Gillian Welch - Boots No.1 - The Official Revival Bootleg (2016) [FLAC]\CD1\03 - Pass You By (Alternate Version).wav

Peak level 92.6 %
Extraction speed 2.7 X
Track quality 100.0 %
Test CRC 81BACD99
Copy CRC 81BACD99
Accurately ripped (confidence 3) [DF5C3A16] (AR v2)
Copy OK

Track 4

Filename D:\Downloads\uTorrent\Gillian Welch - Boots No.1 - The Official Revival Bootleg (2016) [FLAC]\CD1\04 - Go On Downtown (Revival Outtake).wav

Peak level 98.4 %
Extraction speed 3.1 X
Track quality 100.0 %
Test CRC B6BC6964
Copy CRC B6BC6964
Accurately ripped (confidence 3) [12AC0615] (AR v2)
Copy OK

Track 5

Filename D:\Downloads\uTorrent\Gillian Welch - Boots No.1 - The Official Revival Bootleg (2016) [FLAC]\CD1\05 - Red Clay Halo (Revival Outtake).wav

Peak level 99.0 %
Extraction speed 3.1 X
Track quality 100.0 %
Test CRC C8D0169F
Copy CRC C8D0169F
Accurately ripped (confidence 3) [5ED6F34A] (AR v2)
Copy OK

Track 6

Filename D:\Downloads\uTorrent\Gillian Welch - Boots No.1 - The Official Revival Bootleg (2016) [FLAC]\CD1\06 - By The Mark (Alternate Mix).wav

Peak level 79.9 %
Extraction speed 3.3 X
Track quality 100.0 %
Test CRC 81D67A21
Copy CRC 81D67A21
Accurately ripped (confidence 3) [EF80F9FE] (AR v2)
Copy OK

Track 7

Filename D:\Downloads\uTorrent\Gillian Welch - Boots No.1 - The Official Revival Bootleg (2016) [FLAC]\CD1\07 - Paper Wings (Demo).wav

Peak level 97.4 %
Extraction speed 3.4 X
Track quality 100.0 %
Test CRC 5D858ED6
Copy CRC 5D858ED6
Accurately ripped (confidence 3) [01F22463] (AR v2)
Copy OK

Track 8

Filename D:\Downloads\uTorrent\Gillian Welch - Boots No.1 - The Official Revival Bootleg (2016) [FLAC]\CD1\08 - Georgia Road (Revival Outtake).wav

Peak level 93.2 %
Extraction speed 3.6 X
Track quality 100.0 %
Test CRC B1C12491
Copy CRC B1C12491
Accurately ripped (confidence 3) [DCF3F33A] (AR v2)
Copy OK

Track 9

Filename D:\Downloads\uTorrent\Gillian Welch - Boots No.1 - The Official Revival Bootleg (2016) [FLAC]\CD1\09 - Tear My Stillhouse Down (Home Demo).wav

Peak level 98.7 %
Extraction speed 3.4 X
Track quality 99.9 %
Test CRC 0DDA3B2A
Copy CRC 0DDA3B2A
Accurately ripped (confidence 3) [F8869F20] (AR v2)
Copy OK

Track 10

Filename D:\Downloads\uTorrent\Gillian Welch - Boots No.1 - The Official Revival Bootleg (2016) [FLAC]\CD1\10 - Only One And Only (Alternate Version).wav

Peak level 95.1 %
Extraction speed 4.0 X
Track quality 100.0 %
Test CRC 9EAFDB6A
Copy CRC 9EAFDB6A
Accurately ripped (confidence 3) [928BB813] (AR v2)
Copy OK


All tracks accurately ripped

No errors occurred

End of status report

–– CUETools DB Plugin V2.1.6

[CTDB TOCID: XGY4czyGc4qNph5zwoZC0bf_geM-] found
Submit result: already submitted
Track | CTDB Status
1 | (37/37) Accurately ripped
2 | (37/37) Accurately ripped
3 | (37/37) Accurately ripped
4 | (37/37) Accurately ripped
5 | (37/37) Accurately ripped
6 | (37/37) Accurately ripped
7 | (37/37) Accurately ripped
8 | (37/37) Accurately ripped
9 | (37/37) Accurately ripped
10 | (37/37) Accurately ripped


==== Log checksum 5ACA15E2BBC06D449776F884C20647A38B12603EA76B8F29F40975E284EBCA40 ====

Exact Audio Copy V1.1 from 23. June 2015

EAC extraction logfile from 2. January 2017, 18:14

Gillian Welch / Boots No. 1: The Official Revival Bootleg (Disc Two)

Used drive : Optiarc DVD RW AD-5240S Adapter: 1 ID: 0

Read mode : Secure
Utilize accurate stream : Yes
Defeat audio cache : Yes
Make use of C2 pointers : No

Read offset correction : 48
Overread into Lead-In and Lead-Out : No
Fill up missing offset samples with silence : Yes
Delete leading and trailing silent blocks : No
Null samples used in CRC calculations : Yes
Used interface : Native Win32 interface for Win NT & 2000
Gap handling : Appended to previous track

Used output format : User Defined Encoder
Selected bitrate : 128 kBit/s
Quality : High
Add ID3 tag : No
Command line compressor : C:\Program Files (x86)\Exact Audio Copy\Flac\flac.exe
Additional command line options : -8 -V -T "ARTIST=%artist%" -T "TITLE=%title%" -T "ALBUM=%albumtitle%" -T "DATE=%year%" -T "TRACKNUMBER=%tracknr%" -T "TOTALTRACKS=%numtracks%" -T "GENRE=%genre%" -T "ALBUMARTIST=%albumartist%" -T "ALBUM ARTIST=%albumartist%" -T "COMMENT=EAC Secure Mode, Test & Copy, AccurateRip, FLAC -8" %source%


TOC of the extracted CD

Track | Start | Length | Start sector | End sector
––––––––––––––––––––––––––––-
1 | 0:00.00 | 3:28.04 | 0 | 15603
2 | 3:28.04 | 3:29.25 | 15604 | 31303
3 | 6:57.29 | 4:02.30 | 31304 | 49483
4 | 10:59.59 | 4:10.33 | 49484 | 68266
5 | 15:10.17 | 2:50.54 | 68267 | 81070
6 | 18:00.71 | 4:33.27 | 81071 | 101572
7 | 22:34.23 | 2:55.06 | 101573 | 114703
8 | 25:29.29 | 3:56.10 | 114704 | 132413
9 | 29:25.39 | 3:17.21 | 132414 | 147209
10 | 32:42.60 | 2:06.51 | 147210 | 156710
11 | 34:49.36 | 3:15.03 | 156711 | 171338


Track 1

Filename D:\Downloads\uTorrent\Gillian Welch - Boots No.1 - The Official Revival Bootleg (2016) [FLAC]\CD2\01 - Orphan Girl (Home Demo).wav

Pre-gap length 0:00:02.00

Peak level 71.7 %
Extraction speed 2.2 X
Track quality 100.0 %
Test CRC 98DB539F
Copy CRC 98DB539F
Accurately ripped (confidence 2) [FEB2489B] (AR v2)
Copy OK

Track 2

Filename D:\Downloads\uTorrent\Gillian Welch - Boots No.1 - The Official Revival Bootleg (2016) [FLAC]\CD2\02 - I Don't Want To Go Downtown (Revival Outtake).wav

Peak level 85.1 %
Extraction speed 2.4 X
Track quality 100.0 %
Test CRC A7D9F0E6
Copy CRC A7D9F0E6
Accurately ripped (confidence 2) [01BACE71] (AR v2)
Copy OK

Track 3

Filename D:\Downloads\uTorrent\Gillian Welch - Boots No.1 - The Official Revival Bootleg (2016) [FLAC]\CD2\03 - 455 Rocket (Revival Outtake).wav

Peak level 97.2 %
Extraction speed 2.7 X
Track quality 100.0 %
Test CRC D715A02C
Copy CRC D715A02C
Accurately ripped (confidence 2) [31CA7DEE] (AR v2)
Copy OK

Track 4

Filename D:\Downloads\uTorrent\Gillian Welch - Boots No.1 - The Official Revival Bootleg (2016) [FLAC]\CD2\04 - Barroom Girls (Live Radio).wav

Peak level 100.0 %
Extraction speed 2.9 X
Track quality 100.0 %
Test CRC 240B4435
Copy CRC 240B4435
Accurately ripped (confidence 2) [CCB16C92] (AR v2)
Copy OK

Track 5

Filename D:\Downloads\uTorrent\Gillian Welch - Boots No.1 - The Official Revival Bootleg (2016) [FLAC]\CD2\05 - Wichita (Revival Outtake).wav

Peak level 100.0 %
Extraction speed 2.9 X
Track quality 100.0 %
Test CRC 7F754A17
Copy CRC 7F754A17
Accurately ripped (confidence 2) [A2DBAF18] (AR v2)
Copy OK

Track 6

Filename D:\Downloads\uTorrent\Gillian Welch - Boots No.1 - The Official Revival Bootleg (2016) [FLAC]\CD2\06 - One More Dollar (Alternate Version).wav

Peak level 99.9 %
Extraction speed 3.3 X
Track quality 100.0 %
Test CRC 87692944
Copy CRC 87692944
Accurately ripped (confidence 2) [335722DB] (AR v2)
Copy OK

Track 7

Filename D:\Downloads\uTorrent\Gillian Welch - Boots No.1 - The Official Revival Bootleg (2016) [FLAC]\CD2\07 - Dry Town (Demo).wav

Peak level 100.0 %
Extraction speed 3.2 X
Track quality 100.0 %
Test CRC 3E876D92
Copy CRC 3E876D92
Accurately ripped (confidence 2) [399941D0] (AR v2)
Copy OK

Track 8

Filename D:\Downloads\uTorrent\Gillian Welch - Boots No.1 - The Official Revival Bootleg (2016) [FLAC]\CD2\08 - Paper Wings (Alternate Mix).wav

Peak level 100.0 %
Extraction speed 3.5 X
Track quality 100.0 %
Test CRC B2CCBB89
Copy CRC B2CCBB89
Accurately ripped (confidence 2) [B96C0EAD] (AR v2)
Copy OK

Track 9

Filename D:\Downloads\uTorrent\Gillian Welch - Boots No.1 - The Official Revival Bootleg (2016) [FLAC]\CD2\09 - Riverboat Song (Revival Outtake).wav

Peak level 55.8 %
Extraction speed 3.6 X
Track quality 100.0 %
Test CRC 0F848120
Copy CRC 0F848120
Accurately ripped (confidence 2) [77A3ECA5] (AR v2)
Copy OK

Track 10

Filename D:\Downloads\uTorrent\Gillian Welch - Boots No.1 - The Official Revival Bootleg (2016) [FLAC]\CD2\10 - Old Time Religion (Revival Outtake).wav

Peak level 78.5 %
Extraction speed 3.3 X
Track quality 100.0 %
Test CRC B164A587
Copy CRC B164A587
Accurately ripped (confidence 2) [C25202FB] (AR v2)
Copy OK

Track 11

Filename D:\Downloads\uTorrent\Gillian Welch - Boots No.1 - The Official Revival Bootleg (2016) [FLAC]\CD2\11 - Acony Bell (Demo).wav

Peak level 97.2 %
Extraction speed 3.8 X
Track quality 100.0 %
Test CRC F3CA58EB
Copy CRC F3CA58EB
Accurately ripped (confidence 2) [967D2F6E] (AR v2)
Copy OK


All tracks accurately ripped

No errors occurred

End of status report

–– CUETools DB Plugin V2.1.6

[CTDB TOCID: UxcOiyf43IttpIgzU5eRtM6Wak4-] found
Submit result: already submitted
Track | CTDB Status
1 | (39/39) Accurately ripped
2 | (39/39) Accurately ripped
3 | (39/39) Accurately ripped
4 | (39/39) Accurately ripped
5 | (39/39) Accurately ripped
6 | (39/39) Accurately ripped
7 | (39/39) Accurately ripped
8 | (39/39) Accurately ripped
9 | (39/39) Accurately ripped
10 | (39/39) Accurately ripped
11 | (39/39) Accurately ripped


==== Log checksum 620297491AA3177007CFF492871AEBCD8FFF8FC7100E5FF7A1918B62E12F2F90 ====


Gillian Welch - Boots No.1 - The Official Revival Bootleg (2016) {2CD Acony Records ACNY-1601}


All thanks goes to the original releaser!


===