Subcategories

Giovanni Tommaso Quintets - Third Step - Good Bye 900 (1998)

Posted By: Domestos
Giovanni Tommaso Quintets - Third Step - Good Bye 900 (1998)

Giovanni Tommaso Quintets - Third Step - Good Bye 900 (1998)
EAC Rip | FLAC (tracks+.cue, log) ~ 333.56 Mb | 01:01:54 | Cover
Contemporary Jazz, Avant-garde Jazz, Post-Bop | Label: Ricordi - 74321 582552

Giovanni Tommaso (Lucca, 20 gennaio 1941) è un bassista e contrabbassista italiano. Giovanni Tommaso inizia lo studio della musica frequentando il conservatorio di Bologna negli anni cinquanta, e in seguito a suonare jazz spostandosi con il suo contrabbasso a Bologna per partecipare a jam session che vedevano nella città emiliana una dei riferimenti per questo genere di musica in Italia.

Nel 1957 forma il Quintetto di Lucca, insieme al fratello Vito come pianista, al cognato Gaetano Mariani alla chitarra, a Giampiero Giusti come batterista e Antonello Vannucchi al vibrafono, con i quali nel 1958 pubblica un EP con quattro brani e si aggiudica La Coppa del jazz, torneo radiofonico organizzato dalla RAI.

A 18 anni inizia a lavorare come musicista in orchestre di navi da crociera, cosa che gli permette di frequentare tra il 1959 e il 1960 i locali jazz di New York, dove ha modo di incontrare contrabbassisti come Paul Chambers, Ray Brown e Charles Mingus. Formò poi un trio con Amedeo Tommasi al pianoforte e Gegè Munari alla batteria e - quando ancora frequentava il Conservatorio a Bologna - suonò con Chet Baker (dopo la detenzione del trombettista a Lucca per problemi di droga), Amedeo Tommasi al piano e Franco Mondini alla batteria.

Si trasferì a Roma nel 1967 per lavorare alla RCA Italiana come strumentista, arrangiatore e produttore, partecipando a numerose incisioni come gli album A mano a mano e Cervo a primavera di Riccardo Cocciante, Finalmente ho conosciuto il Conte Dracula di Mina, Morandi di Gianni Morandi, E io ci sto di Rino Gaetano, Viaggi e intemperie di Ivan Graziani, Controllo totale di Anna Oxa, Alice del Perigeo Special, European Tour di Sammy Davis Jr.

Alla RAI suonò con Sonny Rollins per una puntata di Studio Uno. Insieme a Pepito Pignatelli aprì il Music inn, che diventò uno dei locali di riferimento per il jazz a Roma e nel quale accompagnò artisti del livello di Dexter Gordon, Johnny Griffin, Art Farmer o Kenny Drew. In questi anni frequenta anche Steve Lacy, sassofonista newyorkese stabilitosi a Roma e riferimento per l'avanguardia jazz del tempo.

Nel 1971 con Claudio Fasoli al sax, Tony Sidney alla chitarra, Franco D'Andrea alle tastiere e Bruno Biriaco alla batteria forma il quintetto di jazz rock del Perigeo, seguendo l'evoluzione anche di altri musicisti come Miles Davis o i Weather Report; il gruppo rimane in attività fino al 1977 con l'incisione di otto album.

Giovanni Tommaso prosegue la sua attività con formazioni differenti, come il GT Quintet, o il Tommaso/Bollani/Gatto trio. A trent'anni dalla fine del Perigeo, nel 2007 dà vita ad un nuovo gruppo, chiamato Apogeo, con Daniele Scannapieco al sax, Bebo Ferra alla chitarra, Claudio Filippini al pianoforte ed Anthony Pinciotti alla batteria.

Giovanni Tommaso è anche titolare della cattedra di musica jazz al Conservatorio di Perugia e dirige dal 1986 i seminari della Umbria Jazz Clinics.

Da diversi anni insegna stabilmente al CEMM (Centro Educativo Musica Moderna) di Bussero (Milano).

===
Wiki | Amazon | Discogs
===


Track List:
01. Goodbye 900 (04:28)
02. To Toto' (06:33)
03. Techno Jazz (10:10)
04. Rumbame (05:59)
05. Tracce (06:52)
06. Like We Did (02:23)
07. Tangoing (06:21)
08. Blue Bud Note (06:50)
09. My Bossa (02:37)
10. Fast Fox (05:22)
11. Buongiorno 2000 (04:19)

Bass, Composed By, Producer – Giovanni Tommaso
Drums – Aldo Romano (tracks: 1, 5, 6, 8, 10, 11), Pietro Iodice (tracks: 2 to 4, 7, 9)
Flugelhorn – Paolo Fresu (tracks: 2, 3, 9)
Piano – Danilo Rea (tracks: 2, 3, 9), Luis Bacalov (tracks: 7), Rita Marcotulli (tracks: 1, 4, 5, 6, 8, 10, 11)
Tenor Saxophone – Joe Lovano (tracks: 5), Maurizio Giammarco (tracks: 7), Pietro Tonolo (tracks: 1 to 4, 6, 8 to 11)
Trumpet – Enrico Rava (tracks: 4), Flavio Boltro (tracks: 1, 5, 6, 8, 10, 11), Giovanni Amato (tracks: 7)

Exact Audio Copy V1.3 from 2. September 2016

EAC extraction logfile from 30. December 2019, 9:19

Giovanni Tommaso Quintets / Third Step - Good Bye 900

Used drive : MATSHITADVD-RAM Adapter: 1 ID: 0

Read mode : Secure
Utilize accurate stream : Yes
Defeat audio cache : Yes
Make use of C2 pointers : No

Read offset correction : 103
Overread into Lead-In and Lead-Out : No
Fill up missing offset samples with silence : Yes
Delete leading and trailing silent blocks : No
Null samples used in CRC calculations : Yes
Used interface : Native Win32 interface for Win NT & 2000
Gap handling : Appended to previous track

Used output format : User Defined Encoder
Selected bitrate : 1024 kBit/s
Quality : High
Add ID3 tag : No
Command line compressor : C:\Program Files (x86)\FLAC\flac.exe
Additional command line options : -8 -e -p -V -T "ARTIST=%artist%" -T "TITLE=%title%" -T "ALBUM=%albumtitle%" -T "DATE=%year%" -T "TRACKNUMBER=%tracknr%" -T "GENRE=%genre%" -T "PERFORMER=%albuminterpret%" -T "COMPOSER=%composer%" %haslyrics%–tag-from-file=LYRICS="%lyricsfile%"%haslyrics% -T "ALBUMARTIST=%albumartist%" -T "DISCNUMBER=%cdnumber%" -T "TOTALDISCS=%totalcds%" -T "TOTALTRACKS=%numtracks%" -T "COMMENT=%comment%" %source% -o %dest%


TOC of the extracted CD

Track | Start | Length | Start sector | End sector
––––––––––––––––––––––––––––-
1 | 0:00.32 | 4:28.00 | 32 | 20131
2 | 4:28.32 | 6:33.00 | 20132 | 49606
3 | 11:01.32 | 10:10.00 | 49607 | 95356
4 | 21:11.32 | 5:59.00 | 95357 | 122281
5 | 27:10.32 | 6:52.00 | 122282 | 153181
6 | 34:02.32 | 2:23.00 | 153182 | 163906
7 | 36:25.32 | 6:21.00 | 163907 | 192481
8 | 42:46.32 | 6:50.00 | 192482 | 223231
9 | 49:36.32 | 2:37.00 | 223232 | 235006
10 | 52:13.32 | 5:22.00 | 235007 | 259156
11 | 57:35.32 | 4:19.00 | 259157 | 278581


Track 1

Filename C:\Users\Mummy\Desktop\Rips\01 - Giovanni Tommaso Quintets - Goodbye 900.wav

Pre-gap length 0:00:02.42

Peak level 81.6 %
Extraction speed 2.4 X
Track quality 100.0 %
Test CRC 256B9A51
Copy CRC 256B9A51
Accurately ripped (confidence 2) [342051D0] (AR v1)
Copy OK

Track 2

Filename C:\Users\Mummy\Desktop\Rips\02 - Giovanni Tommaso Quintets - To Toto'.wav

Peak level 97.8 %
Extraction speed 2.9 X
Track quality 100.0 %
Test CRC DBFF89B1
Copy CRC DBFF89B1
Accurately ripped (confidence 2) [B5E75D53] (AR v1)
Copy OK

Track 3

Filename C:\Users\Mummy\Desktop\Rips\03 - Giovanni Tommaso Quintets - Techno Jazz.wav

Peak level 100.0 %
Extraction speed 3.4 X
Track quality 100.0 %
Test CRC 3ECFBE55
Copy CRC 3ECFBE55
Accurately ripped (confidence 2) [55D9275B] (AR v1)
Copy OK

Track 4

Filename C:\Users\Mummy\Desktop\Rips\04 - Giovanni Tommaso Quintets - Rumbame.wav

Peak level 95.6 %
Extraction speed 3.7 X
Track quality 100.0 %
Test CRC 80BC9683
Copy CRC 80BC9683
Accurately ripped (confidence 2) [A9E3CA71] (AR v1)
Copy OK

Track 5

Filename C:\Users\Mummy\Desktop\Rips\05 - Giovanni Tommaso Quintets - Tracce.wav

Peak level 98.0 %
Extraction speed 3.4 X
Track quality 99.9 %
Test CRC 6933BF71
Copy CRC 6933BF71
Accurately ripped (confidence 2) [5026336F] (AR v1)
Copy OK

Track 6

Filename C:\Users\Mummy\Desktop\Rips\06 - Giovanni Tommaso Quintets - Like We Did.wav

Peak level 100.0 %
Extraction speed 3.6 X
Track quality 100.0 %
Test CRC AD4E1F8D
Copy CRC AD4E1F8D
Accurately ripped (confidence 2) [E57EBA31] (AR v1)
Copy OK

Track 7

Filename C:\Users\Mummy\Desktop\Rips\07 - Giovanni Tommaso Quintets - Tangoing.wav

Peak level 98.7 %
Extraction speed 4.4 X
Track quality 100.0 %
Test CRC E718B93A
Copy CRC E718B93A
Accurately ripped (confidence 2) [283214F6] (AR v1)
Copy OK

Track 8

Filename C:\Users\Mummy\Desktop\Rips\08 - Giovanni Tommaso Quintets - Blue Bud Note.wav

Peak level 96.0 %
Extraction speed 3.8 X
Track quality 99.9 %
Test CRC F355E75A
Copy CRC F355E75A
Accurately ripped (confidence 2) [BB0814E1] (AR v1)
Copy OK

Track 9

Filename C:\Users\Mummy\Desktop\Rips\09 - Giovanni Tommaso Quintets - My Bossa.wav

Peak level 94.6 %
Extraction speed 2.8 X
Track quality 99.9 %
Test CRC E5C2D6E7
Copy CRC E5C2D6E7
Accurately ripped (confidence 2) [9528C2C1] (AR v1)
Copy OK

Track 10

Filename C:\Users\Mummy\Desktop\Rips\10 - Giovanni Tommaso Quintets - Fast Fox.wav

Peak level 99.3 %
Extraction speed 3.8 X
Track quality 99.9 %
Test CRC 6667501E
Copy CRC 6667501E
Accurately ripped (confidence 2) [8DE144A7] (AR v1)
Copy OK

Track 11

Filename C:\Users\Mummy\Desktop\Rips\11 - Giovanni Tommaso Quintets - Buongiorno 2000.wav

Peak level 88.6 %
Extraction speed 4.9 X
Track quality 100.0 %
Test CRC 09664AD2
Copy CRC 09664AD2
Accurately ripped (confidence 2) [6B8C68A5] (AR v1)
Copy OK


All tracks accurately ripped

No errors occurred

End of status report

–– CUETools DB Plugin V2.1.6

[CTDB TOCID: wJTsMd0ij5ouyJtaXYJuyvEBeqU-] found
Submit result: unrecognized or virtual drive
Track | CTDB Status
1 | (8/8) Accurately ripped
2 | (8/8) Accurately ripped
3 | (8/8) Accurately ripped
4 | (6/8) Accurately ripped
5 | (7/8) Accurately ripped
6 | (8/8) Accurately ripped
7 | (8/8) Accurately ripped
8 | (6/8) Accurately ripped
9 | (8/8) Accurately ripped
10 | (8/8) Accurately ripped
11 | (8/8) Accurately ripped


==== Log checksum 9C05631024684420011E21549C1AF660EEA46266773B9FCB9A36742CE46D82B0 ====

All thanks go to the Original ripper (unknown)

More Music in My Blog
Follow My RSS Channel