Subcategories

Goose Creek Symphony - Est. 1970 (1970)

Posted By: mr. magoo
Goose Creek Symphony - Est. 1970 (1970)

Goose Creek Symphony - Est. 1970 (1970)
EAC AccurateRip | FLAC + Log + Cue | Scans | 253 MB | HF + RS | 5% recovery
Label: Southern Music Distribution 72438-19682-2-2 | Genre: Folk


Goose Creek Symphony found its roots in the Phoenix, AZ, area originally as a countrified side project for Richie Hart & the Heart Beats. Vocalist and guitarist Charles Gearheart (aka Richie Hart) spent his childhood "up Goose Creek Hollow" in Floyd County, KY, and when he put together his good-time country-rock group, he drew upon his home's rich musical heritage as well as its name. In 1970, Gearheart and a group of local studio musicians assembled a handful of songs and presented them to Capitol Records. Capitol signed his project, forcing Gearheart to assemble a touring group. Banjo player and fiddler Fred Weisz was brought in to complement existing guitarists Paul Spradlin (listed as "Paul Howard" on the album), Bob Henke ("Williard"), Mike McFadden (following the breakup of his psychedelic group Superfine Dandelion), as well as a rotating cast of bassists and drummers. With a sound very similar to what the Band was doing at the same time, Goose Creek Symphony were rock & rollers who played a very faithful brand of country music, all the while layering rhythms and harmonies along the same lines as Buffalo Springfield and the Grateful Dead. They released albums through the mid-'70s, with that streak ending in a long hiatus from 1976 to 1990, when the group decided to re-form and record again. Their marriage of earthy instrumentation and easygoing vibes have been able to give the group a certain longevity. Into their third decade, Goose Creek Symphony is drawing strong groups of fans to their summer festival appearances, similar to what the Dead and Jimmy Buffett have known.

If the Grateful Dead had come from Kentucky instead of San Francisco, they might have sounded much like these guys. "This song might sound kinda strange, but it's got more soul than Home on the Range," they accurately sing in "Talk About Goose Creek and Other Important Places," an eight-minute psychedelic showstopper complete with Beatles-style tape tricks. This album is a fun listen that can suck even a city slicker into a stoned, good-time, backhills vibe.

Tracks:
01 - I'll Fly Away
02 - Charlie's Tune
03 - A Satisfied Mind
04 - Confusion
05 - No News Is Good News
06 - Talk About Goose Creek And Other Important Places
07 - Beautiful Bertha
08 - Raid On Bush Creek In '39
09 - Big Time Saturday Night
10 - Symphony Music

Exact Audio Copy V0.99 prebeta 4 from 23. January 2008

EAC extraction logfile from 30. December 2009, 12:17

Goose Creek Symphony / Est. 1979

Used drive : SONY DVD RW DRU-840A Adapter: 1 ID: 1

Read mode : Secure
Utilize accurate stream : Yes
Defeat audio cache : Yes
Make use of C2 pointers : No

Read offset correction : 6
Overread into Lead-In and Lead-Out : No
Fill up missing offset samples with silence : Yes
Delete leading and trailing silent blocks : No
Null samples used in CRC calculations : Yes
Used interface : Native Win32 interface for Win NT & 2000
Gap handling : Appended to previous track

Used output format : User Defined Encoder
Selected bitrate : 1024 kBit/s
Quality : High
Add ID3 tag : No
Command line compressor : C:\Program Files\Exact Audio Copy\Flac\flac.exe
Additional command line options : -8 -V -T "artist=%a" -T "title=%t" -T "album=%g" -T "date=%y" -T "tracknumber=%n" -T "genre=%m" %s


TOC of the extracted CD

Track | Start | Length | Start sector | End sector
––––––––––––––––––––––––––––-
1 | 0:00.32 | 1:19.20 | 32 | 5976
2 | 1:19.52 | 4:37.60 | 5977 | 26811
3 | 5:57.37 | 3:25.63 | 26812 | 42249
4 | 9:23.25 | 3:29.60 | 42250 | 57984
5 | 12:53.10 | 3:55.32 | 57985 | 75641
6 | 16:48.42 | 8:21.25 | 75642 | 113241
7 | 25:09.67 | 3:08.23 | 113242 | 127364
8 | 28:18.15 | 1:41.47 | 127365 | 134986
9 | 29:59.62 | 3:33.18 | 134987 | 150979
10 | 33:33.05 | 4:49.42 | 150980 | 172696


Track 1

Filename F:\EAC Rips\Goose Creek Symphony - 1970 - Est. 1970\01 - I'll Fly Away.wav

Pre-gap length 0:00:02.42

Peak level 72.0 %
Track quality 100.0 %
Test CRC 13055A9A
Copy CRC 13055A9A
Accurately ripped (confidence 4) [DB5C5CA2]
Copy OK

Track 2

Filename F:\EAC Rips\Goose Creek Symphony - 1970 - Est. 1970\02 - Charlie's Tune.wav

Peak level 100.0 %
Track quality 100.0 %
Test CRC 3DAEB30D
Copy CRC 3DAEB30D
Accurately ripped (confidence 4) [4FDBE9C2]
Copy OK

Track 3

Filename F:\EAC Rips\Goose Creek Symphony - 1970 - Est. 1970\03 - A Satisfied Mind.wav

Pre-gap length 0:00:03.22

Peak level 82.1 %
Track quality 100.0 %
Test CRC AB512B46
Copy CRC AB512B46
Accurately ripped (confidence 4) [31EEDEFE]
Copy OK

Track 4

Filename F:\EAC Rips\Goose Creek Symphony - 1970 - Est. 1970\04 - Confusion.wav

Pre-gap length 0:00:00.30

Peak level 88.5 %
Track quality 100.0 %
Test CRC 44ACCE89
Copy CRC 44ACCE89
Accurately ripped (confidence 4) [717EBA80]
Copy OK

Track 5

Filename F:\EAC Rips\Goose Creek Symphony - 1970 - Est. 1970\05 - No News Is Good News.wav

Pre-gap length 0:00:00.13

Peak level 98.7 %
Track quality 99.9 %
Test CRC 6B15D558
Copy CRC 6B15D558
Accurately ripped (confidence 4) [4A40BDAF]
Copy OK

Track 6

Filename F:\EAC Rips\Goose Creek Symphony - 1970 - Est. 1970\06 - Talk About Goose Creek And Other Important Places.wav

Pre-gap length 0:00:02.20

Peak level 100.0 %
Track quality 100.0 %
Test CRC 6710BE3C
Copy CRC 6710BE3C
Accurately ripped (confidence 4) [3D18867D]
Copy OK

Track 7

Filename F:\EAC Rips\Goose Creek Symphony - 1970 - Est. 1970\07 - Beautiful Bertha.wav

Peak level 98.3 %
Track quality 100.0 %
Test CRC 57B050C6
Copy CRC 57B050C6
Accurately ripped (confidence 4) [21183B3C]
Copy OK

Track 8

Filename F:\EAC Rips\Goose Creek Symphony - 1970 - Est. 1970\08 - Raid On Brush Creek In '39.wav

Pre-gap length 0:00:00.33

Peak level 81.9 %
Track quality 99.8 %
Test CRC 42F44488
Copy CRC 42F44488
Accurately ripped (confidence 4) [AA0133F2]
Copy OK

Track 9

Filename F:\EAC Rips\Goose Creek Symphony - 1970 - Est. 1970\09 - Big Time Saturday Night.wav

Peak level 81.7 %
Track quality 100.0 %
Test CRC E7B78907
Copy CRC E7B78907
Accurately ripped (confidence 4) [E97E5FD8]
Copy OK

Track 10

Filename F:\EAC Rips\Goose Creek Symphony - 1970 - Est. 1970\10 - Symphony Music.wav

Pre-gap length 0:00:00.37

Peak level 64.4 %
Track quality 99.9 %
Test CRC D7FAF8A6
Copy CRC D7FAF8A6
Accurately ripped (confidence 4) [0B5DF136]
Copy OK


All tracks accurately ripped

No errors occurred

End of status report


Hotfile Links




Rapid Share Links



Links Are Interchangeable


Password: mr. magoo