Subcategories
Tags
Language
Tags

Grant Green & Baby Face Willette - Trio/Quartet - Complete Recordings (2014) {2CD American Jazz Classics 99103 rec 1961-62}

Posted By: ruskaval
Grant Green & Baby Face Willette - Trio/Quartet - Complete Recordings (2014) {2CD American Jazz Classics 99103 rec 1961-62}

Grant Green & Baby Face Willette - Trio/Quartet - Complete Recordings (2014) {2CD American Jazz Classics 99103 rec 1961-62}
EAC rip (secure mode) | FLAC (tracks)+CUE+LOG -> 916 Mb | MP3 @320 -> 367 Mb
Full Artwork @ 600 dpi (jpg) -> 274 Mb | 5% repair rar | 24bit remaster
© 1961-62, 2014 Blue Note / American Jazz Classics | 99103
Jazz / Hard Bop / Soul Jazz / Guitar / Organ

This release presnts all of Grant Green and Baby Face Willette's collaborative albums as leaders. Recorded in 1961-62, they consist of the LP "Grant's First Stand" (Blue Note BST-84064), issued under the guitarist's name, and “Baby Face” Willette's albums "Face to Face" (Blue Note BST-84068) and "Stop and Listen" (Blue Note BST-84084). Other than their three LPs as leaders, Green and Willette only recorded together on Lou Donaldson's album Here ‘Tis, from which it has been added the title song, a long blues, as a bonus.
Grant Green & Baby Face Willette - Trio/Quartet - Complete Recordings (2014) {2CD American Jazz Classics 99103 rec 1961-62}

This double-disc package contains the three sessions that organist Baby Face Willette recorded with guitarist Grant Green and drummer Ben Dixon for Blue Note in 1961. The famed guitarist's debut album, Grant's First Stand, was cut on January 28. After Jimmy Smith, the pair really helped to establish soul jazz in its own right with this one: the standouts are two of the leader's fine originals, the cooking hard bop on "Miss Ann's Tempo" and the swinging blues in "A Wee Bit O' Green." Willette's first session as a leader for the label took place two days later, in a quartet setting with Fred Jackson on tenor saxophone. If the organist didn't stand out as much on Green's date, he certainly took the reins here, writing five of the six tunes. Standouts include "Swinging at Sugar Ray's," which showcases the rough and rowdy style of his playing, and "Somethin' Strange," which shifts between blues and funky soul. The lone cover is a soul-jazz read on mambo in "Whatever Lola Wants" by Richard Adler and Jerry Ross. Five months later, under Willette's leadership, Stop and Listen was cut with the same personnel sans Jackson. It's the organist's finest moment for the label, and reveals his deep communication with Green; two tunes that are fine showcases of their fluid rhythmic signatures and the interplay inside the trio are the contrasting slow blues of "Chances Are Few" and the martial swing in "Soul Walk." While Green went on to record for Blue Note for most of the rest of his career, Willette left the label for Argo. This set, with its budget price, contains all of the alternate takes available on the individual albums.
Grant Green & Baby Face Willette - Trio/Quartet - Complete Recordings (2014) {2CD American Jazz Classics 99103 rec 1961-62}


Personnel:
GRANT GREEN, guitar
“BABY FACE” WILLETTE, organ
BEN DIXON, drums

CD1, 1-6: Grant's First Stand (4 1/2 Stars All Music Guide)
Rudy Van Gelder Studio, Englewood Cliffs, New Jersey, January 28, 1961.

CD1, 7-12 & CD2, 1-2: Stop and Listen (4 1/2 Stars All Music Guide)
Rudy Van Gelder Studio, Englewood Cliffs, New Jersey, May 22, 1961.

CD2, 3-10: Face to Face (4 Stars All Music Guide) Add FRED JACKSON, tenor sax.
Rudy Van Gelder Studio, Englewood Cliffs, New Jersey, January 30, 1961.

CD2 [11] bonus track: Lou Donaldson (as),
Grant Green (g), “Baby Face” Willette (org), Dave Bailey (d).
Englewood Cliffs, New Jersey, January 23, 1961.

Grant Green & Baby Face Willette - Trio/Quartet - Complete Recordings (2014) {2CD American Jazz Classics 99103 rec 1961-62}


tracklist:
CD1

01 - Miss Ann's Tempo
02 - Lullaby Of The Leaves
03 - Blues For Willarene
04 - Baby's Minor Lope
05 - 'Tain't Nobody's Business If I Do
06 - A Wee Bit O'Green
07 - Willow Weep For Me
08 - Chances Are Few
09 - Jumpin' Jupiter
10 - Stop And Listen
11 - At Last
12 - Soul Walk

Grant Green & Baby Face Willette - Trio/Quartet - Complete Recordings (2014) {2CD American Jazz Classics 99103 rec 1961-62}


CD2
01 - Work Song
02 - They Can't Take That Away From Me
03 - Swingin' At Sugar Ray's
04 - Goin' Down
05 - Whatever Lola Wants
06 - Face To Face
07 - Something Strange
08 - High 'N Low
09 - Face To Face (alternative take)
10 - Something Strange (alternative take)
11 - Here 'Tis (bonus track)

Grant Green & Baby Face Willette - Trio/Quartet - Complete Recordings (2014) {2CD American Jazz Classics 99103 rec 1961-62}


Exact Audio Copy V1.1 from 23. June 2015

EAC extraction logfile from 13. June 2016, 15:53

Grant Green & Baby Face Willette / Trio/Quartet - Complete Recordings (CD1)

Used drive : TSSTcorpCDDVDW SE-208DB Adapter: 1 ID: 2

Read mode : Secure
Utilize accurate stream : Yes
Defeat audio cache : Yes
Make use of C2 pointers : No

Read offset correction : 6
Overread into Lead-In and Lead-Out : No
Fill up missing offset samples with silence : Yes
Delete leading and trailing silent blocks : No
Null samples used in CRC calculations : Yes
Used interface : Native Win32 interface for Win NT & 2000
Gap handling : Appended to previous track

Used output format : User Defined Encoder
Selected bitrate : 1024 kBit/s
Quality : High
Add ID3 tag : No
Command line compressor : C:\Program Files (x86)\FLAC Frontend\tools\flac.exe
Additional command line options : -8 -V -T "ARTIST=%artist%" -T "TITLE=%title%" -T "ALBUM=%albumtitle%" -T "DATE=%year%" -T "TRACKNUMBER=%tracknr%" -T "TOTALTRACKS=%numtracks%" -T "GENRE=%genre%" -T "ALBUMARTIST=%albumartist%" -T "ALBUM ARTIST=%albumartist%" -T "COMMENT=EAC Secure Mode, Test & Copy, AccurateRip, FLAC -8" %source%


TOC of the extracted CD

Track | Start | Length | Start sector | End sector
––––––––––––––––––––––––––––-
1 | 0:00.00 | 5:42.55 | 0 | 25704
2 | 5:42.55 | 7:44.10 | 25705 | 60514
3 | 13:26.65 | 7:10.30 | 60515 | 92794
4 | 20:37.20 | 7:20.14 | 92795 | 125808
5 | 27:57.34 | 4:28.44 | 125809 | 145952
6 | 32:26.03 | 7:50.27 | 145953 | 181229
7 | 40:16.30 | 8:16.36 | 181230 | 218465
8 | 48:32.66 | 7:43.69 | 218466 | 253259
9 | 56:16.60 | 5:13.39 | 253260 | 276773
10 | 61:30.24 | 4:40.27 | 276774 | 297800
11 | 66:10.51 | 7:21.56 | 297801 | 330931
12 | 73:32.32 | 5:23.63 | 330932 | 355219


Track 1

Filename D:\_EAC\Grant Green & Baby Face Willette - Trio-Quartet (2014) [FLAC]\CD1\01 - Miss Ann's Tempo.wav

Pre-gap length 0:00:02.00

Peak level 97.9 %
Extraction speed 3.0 X
Track quality 100.0 %
Test CRC 92AB61A2
Copy CRC 92AB61A2
Track not present in AccurateRip database
Copy OK

Track 2

Filename D:\_EAC\Grant Green & Baby Face Willette - Trio-Quartet (2014) [FLAC]\CD1\02 - Lullaby Of The Leaves.wav

Peak level 97.9 %
Extraction speed 3.2 X
Track quality 99.9 %
Test CRC 061BA991
Copy CRC 061BA991
Track not present in AccurateRip database
Copy OK

Track 3

Filename D:\_EAC\Grant Green & Baby Face Willette - Trio-Quartet (2014) [FLAC]\CD1\03 - Blues For Willarene.wav

Peak level 97.9 %
Extraction speed 4.1 X
Track quality 100.0 %
Test CRC 1A1637B0
Copy CRC 1A1637B0
Track not present in AccurateRip database
Copy OK

Track 4

Filename D:\_EAC\Grant Green & Baby Face Willette - Trio-Quartet (2014) [FLAC]\CD1\04 - Baby's Minor Lope.wav

Peak level 97.9 %
Extraction speed 3.8 X
Track quality 99.9 %
Test CRC 18FCBCD0
Copy CRC 18FCBCD0
Track not present in AccurateRip database
Copy OK

Track 5

Filename D:\_EAC\Grant Green & Baby Face Willette - Trio-Quartet (2014) [FLAC]\CD1\05 - 'Tain't Nobody's Business If I Do.wav

Peak level 97.9 %
Extraction speed 3.7 X
Track quality 99.9 %
Test CRC EB1CB0AE
Copy CRC EB1CB0AE
Track not present in AccurateRip database
Copy OK

Track 6

Filename D:\_EAC\Grant Green & Baby Face Willette - Trio-Quartet (2014) [FLAC]\CD1\06 - A Wee Bit O'Green.wav

Peak level 97.9 %
Extraction speed 5.0 X
Track quality 100.0 %
Test CRC C09F41A6
Copy CRC C09F41A6
Track not present in AccurateRip database
Copy OK

Track 7

Filename D:\_EAC\Grant Green & Baby Face Willette - Trio-Quartet (2014) [FLAC]\CD1\07 - Willow Weep For Me.wav

Peak level 90.4 %
Extraction speed 5.4 X
Track quality 100.0 %
Test CRC D5E604DF
Copy CRC D5E604DF
Track not present in AccurateRip database
Copy OK

Track 8

Filename D:\_EAC\Grant Green & Baby Face Willette - Trio-Quartet (2014) [FLAC]\CD1\08 - Chances Are Few.wav

Peak level 94.6 %
Extraction speed 5.7 X
Track quality 100.0 %
Test CRC E7817536
Copy CRC E7817536
Track not present in AccurateRip database
Copy OK

Track 9

Filename D:\_EAC\Grant Green & Baby Face Willette - Trio-Quartet (2014) [FLAC]\CD1\09 - Jumpin' Jupiter.wav

Peak level 97.9 %
Extraction speed 5.6 X
Track quality 100.0 %
Test CRC 340222B6
Copy CRC 340222B6
Track not present in AccurateRip database
Copy OK

Track 10

Filename D:\_EAC\Grant Green & Baby Face Willette - Trio-Quartet (2014) [FLAC]\CD1\10 - Stop And Listen.wav

Peak level 97.9 %
Extraction speed 5.7 X
Track quality 100.0 %
Test CRC 25ED7DAA
Copy CRC 25ED7DAA
Track not present in AccurateRip database
Copy OK

Track 11

Filename D:\_EAC\Grant Green & Baby Face Willette - Trio-Quartet (2014) [FLAC]\CD1\11 - At Last.wav

Peak level 97.9 %
Extraction speed 6.1 X
Track quality 100.0 %
Test CRC 0CD23E34
Copy CRC 0CD23E34
Track not present in AccurateRip database
Copy OK

Track 12

Filename D:\_EAC\Grant Green & Baby Face Willette - Trio-Quartet (2014) [FLAC]\CD1\12 - Soul Walk.wav

Peak level 97.9 %
Extraction speed 6.2 X
Track quality 100.0 %
Test CRC C26132CC
Copy CRC C26132CC
Track not present in AccurateRip database
Copy OK


None of the tracks are present in the AccurateRip database

No errors occurred

End of status report

==== Log checksum 114239C7BD6D173DF82B5A05A0E0C62F7D5E43D444CA78661B65706C7F7AC317 ====

Exact Audio Copy V1.1 from 23. June 2015

EAC extraction logfile from 13. June 2016, 16:46

Grant Green & Baby Face Willette / Trio/Quartet - Complete Recordings (CD2)

Used drive : TSSTcorpCDDVDW SE-208DB Adapter: 1 ID: 2

Read mode : Secure
Utilize accurate stream : Yes
Defeat audio cache : Yes
Make use of C2 pointers : No

Read offset correction : 6
Overread into Lead-In and Lead-Out : No
Fill up missing offset samples with silence : Yes
Delete leading and trailing silent blocks : No
Null samples used in CRC calculations : Yes
Used interface : Native Win32 interface for Win NT & 2000
Gap handling : Appended to previous track

Used output format : User Defined Encoder
Selected bitrate : 1024 kBit/s
Quality : High
Add ID3 tag : No
Command line compressor : C:\Program Files (x86)\FLAC Frontend\tools\flac.exe
Additional command line options : -8 -V -T "ARTIST=%artist%" -T "TITLE=%title%" -T "ALBUM=%albumtitle%" -T "DATE=%year%" -T "TRACKNUMBER=%tracknr%" -T "TOTALTRACKS=%numtracks%" -T "GENRE=%genre%" -T "ALBUMARTIST=%albumartist%" -T "ALBUM ARTIST=%albumartist%" -T "COMMENT=EAC Secure Mode, Test & Copy, AccurateRip, FLAC -8" %source%


TOC of the extracted CD

Track | Start | Length | Start sector | End sector
––––––––––––––––––––––––––––-
1 | 0:00.00 | 4:55.24 | 0 | 22148
2 | 4:55.24 | 6:26.60 | 22149 | 51158
3 | 11:22.09 | 6:37.11 | 51159 | 80944
4 | 17:59.20 | 7:26.45 | 80945 | 114439
5 | 25:25.65 | 7:23.62 | 114440 | 147726
6 | 32:49.52 | 6:19.36 | 147727 | 176187
7 | 39:09.13 | 6:44.01 | 176188 | 206488
8 | 45:53.14 | 7:09.61 | 206489 | 238724
9 | 53:03.00 | 6:54.64 | 238725 | 269838
10 | 59:57.64 | 6:43.72 | 269839 | 300135
11 | 66:41.61 | 9:25.73 | 300136 | 342583


Track 1

Filename D:\_EAC\Grant Green & Baby Face Willette - Trio-Quartet (2014) [FLAC]\CD2\01 - Work Song.wav

Pre-gap length 0:00:02.00

Peak level 97.9 %
Extraction speed 3.1 X
Track quality 100.0 %
Test CRC 51B91F48
Copy CRC 51B91F48
Track not present in AccurateRip database
Copy OK

Track 2

Filename D:\_EAC\Grant Green & Baby Face Willette - Trio-Quartet (2014) [FLAC]\CD2\02 - They Can't Take That Away From Me.wav

Peak level 97.9 %
Extraction speed 3.5 X
Track quality 100.0 %
Test CRC F25C5A08
Copy CRC F25C5A08
Track not present in AccurateRip database
Copy OK

Track 3

Filename D:\_EAC\Grant Green & Baby Face Willette - Trio-Quartet (2014) [FLAC]\CD2\03 - Swingin' At Sugar Ray's.wav

Peak level 97.9 %
Extraction speed 3.9 X
Track quality 100.0 %
Test CRC FAE34E7F
Copy CRC FAE34E7F
Track not present in AccurateRip database
Copy OK

Track 4

Filename D:\_EAC\Grant Green & Baby Face Willette - Trio-Quartet (2014) [FLAC]\CD2\04 - Goin' Down.wav

Peak level 97.9 %
Extraction speed 4.3 X
Track quality 100.0 %
Test CRC 90F85317
Copy CRC 90F85317
Track not present in AccurateRip database
Copy OK

Track 5

Filename D:\_EAC\Grant Green & Baby Face Willette - Trio-Quartet (2014) [FLAC]\CD2\05 - Whatever Lola Wants.wav

Peak level 97.9 %
Extraction speed 4.7 X
Track quality 100.0 %
Test CRC F4EFA9B4
Copy CRC F4EFA9B4
Track not present in AccurateRip database
Copy OK

Track 6

Filename D:\_EAC\Grant Green & Baby Face Willette - Trio-Quartet (2014) [FLAC]\CD2\06 - Face To Face.wav

Peak level 97.9 %
Extraction speed 4.2 X
Track quality 99.9 %
Test CRC 115B0FC5
Copy CRC 115B0FC5
Track not present in AccurateRip database
Copy OK

Track 7

Filename D:\_EAC\Grant Green & Baby Face Willette - Trio-Quartet (2014) [FLAC]\CD2\07 - Something Strange.wav

Peak level 97.9 %
Extraction speed 4.5 X
Track quality 99.9 %
Test CRC 865423F3
Copy CRC 865423F3
Track not present in AccurateRip database
Copy OK

Track 8

Filename D:\_EAC\Grant Green & Baby Face Willette - Trio-Quartet (2014) [FLAC]\CD2\08 - High 'N Low.wav

Peak level 97.9 %
Extraction speed 5.5 X
Track quality 100.0 %
Test CRC 6D82EB53
Copy CRC 6D82EB53
Track not present in AccurateRip database
Copy OK

Track 9

Filename D:\_EAC\Grant Green & Baby Face Willette - Trio-Quartet (2014) [FLAC]\CD2\09 - Face To Face (alternative take).wav

Peak level 97.9 %
Extraction speed 5.7 X
Track quality 100.0 %
Test CRC DF1AAE2F
Copy CRC DF1AAE2F
Track not present in AccurateRip database
Copy OK

Track 10

Filename D:\_EAC\Grant Green & Baby Face Willette - Trio-Quartet (2014) [FLAC]\CD2\10 - Something Strange (alternative take).wav

Peak level 97.9 %
Extraction speed 6.0 X
Track quality 100.0 %
Test CRC B35A4DE0
Copy CRC B35A4DE0
Track not present in AccurateRip database
Copy OK

Track 11

Filename D:\_EAC\Grant Green & Baby Face Willette - Trio-Quartet (2014) [FLAC]\CD2\11 - Here 'Tis.wav

Peak level 97.9 %
Extraction speed 6.4 X
Track quality 100.0 %
Test CRC 667BD458
Copy CRC 667BD458
Track not present in AccurateRip database
Copy OK


None of the tracks are present in the AccurateRip database

No errors occurred

End of status report

==== Log checksum CFFB66DAFF4F14540243C98D629BBA630DEFF898043754FF7A055DAB3A97AA46 ====


Grant Green & Baby Face Willette - Trio/Quartet - Complete Recordings (2014) {2CD American Jazz Classics 99103 rec 1961-62}



===