Subcategories

Gregg Allman - The Gregg Allman Tour (1974) {2008 SHM-CD Japan Mini LP Edition}

Posted By: ruskaval
Gregg Allman - The Gregg Allman Tour (1974) {2008 SHM-CD Japan Mini LP Edition}

Gregg Allman - The Gregg Allman Tour (1974) {2008 SHM-CD Japan Mini LP Edition}
EAC rip (secure mode) | FLAC+CUE+LOG -> 456 Mb | MP3 @320 -> 170 Mb
Full Artwork @ 300 dpi (jpg) -> 19 Mb
© 2008 Universal / Capricorn | UICY-93512 | 24-bit remaster
Rock / Blues Rock / Southern Rock / Blues


Gregg Allman - The Gregg Allman Tour (1974) {2008 SHM-CD Japan Mini LP Edition}

Gregg Allman's tour in support of his debut solo LP, Laid Back, led to the recording of this album (originally two LPs) at Carnegie Hall in New York and the Capitol Theatre in Passaic, NJ. It's a match for Laid Back in musical value and then some, with a good, wide range of repertory and great performances throughout by all concerned, plunging head-first and deep into blues, R&B, honky tonk, and gospel. Strangely enough, the album contains only three of Laid Back's songs – "Don't Mess Up a Good Thing" opens the show in a properly spirited, earthy manner, but it's the second song, "Queen of Hearts," in a soaring rendition, with gorgeous backing by Annie Sutton, Erin Dickins, and Lynn Rubin, and superb sax work by Randall Bramblett and David Brown, that shows Allman in his glory as a singer and bandleader. Allman gives a lively, raucous, honky tonk-style rendition of the Elvis Presley hit "I Feel So Bad," complete with a killer guitar solo by Tommy Talton, and "Turn on Your Lovelight" gets an extended treatment worthy of the Allman Brothers Band. One would expect that, with Chuck Leavell and Jaimoe present in the band, there were be more similarity to the Allmans' sound, and that they'd be prominently featured, but Tommy Talton and bassist Kenny Tibbetts get more of a spotlight. Several Allman Brothers songs are present here, in more laid-back and lyrical versions, and the Capricorn Records band Cowboy – essentially serving as the core of Allman's touring band – gets a featured spot with two songs, "Time Will Take Us" and "Where Can You Go," that leave one wanting to hear a lot more concert material from them, and from Talton as a singer. The Gregg Allman Tour was reissued on CD in late 2001 by Polydor in a clearer, sharper remastered edition that contains Martin Mull's complete introduction of the band.
tracklist:
01. Don't Mess Up A Good Thing 5:06
02. Queen Of Hearts 7:43
03. I Feel So Bad 4:47
04. Stand Back 3:32
05. Time Will Take Us - Cowboy 5:51
06. Where Can You Go? - Cowboy 8:10
07. Double Cross 4:41
08. Dreams 7:29
09. Are You Lonely For Me Baby 4:27
10. Turn On Your Love Light 10:45
11. Oncoming Traffic 5:56
12. Will The Circle Be Unbroken

Gregg Allman - The Gregg Allman Tour (1974) {2008 SHM-CD Japan Mini LP Edition}

Exact Audio Copy V0.99 prebeta 5 from 4. May 2009

EAC extraction logfile from 28. December 2009, 17:48

Gregg Allman / The Gregg Allman Tour

Used drive : TSSTcorpCD/DVDW TS-H552L Adapter: 3 ID: 0

Read mode : Secure
Utilize accurate stream : Yes
Defeat audio cache : Yes
Make use of C2 pointers : No

Read offset correction : 6
Overread into Lead-In and Lead-Out : No
Fill up missing offset samples with silence : Yes
Delete leading and trailing silent blocks : No
Null samples used in CRC calculations : Yes
Used interface : Native Win32 interface for Win NT & 2000
Gap handling : Appended to previous track

Used output format : User Defined Encoder
Selected bitrate : 1024 kBit/s
Quality : High
Add ID3 tag : No
Command line compressor : C:\Program Files\FLAC\flac.exe
Additional command line options : -6 -V -T "ARTIST=%a" -T "TITLE=%t" -T "ALBUM=%g" -T "DATE=%y" -T "TRACKNUMBER=%n" -T "GENRE=%m" -T "COMMENT=EAC FLAC -6" %s


TOC of the extracted CD

Track | Start | Length | Start sector | End sector
––––––––––––––––––––––––––––-
1 | 0:00.00 | 5:06.62 | 0 | 23011
2 | 5:06.62 | 7:43.05 | 23012 | 57741
3 | 12:49.67 | 4:47.65 | 57742 | 79331
4 | 17:37.57 | 3:32.63 | 79332 | 95294
5 | 21:10.45 | 5:51.25 | 95295 | 121644
6 | 27:01.70 | 8:10.22 | 121645 | 158416
7 | 35:12.17 | 4:41.25 | 158417 | 179516
8 | 39:53.42 | 7:29.40 | 179517 | 213231
9 | 47:23.07 | 4:27.63 | 213232 | 233319
10 | 51:50.70 | 10:45.15 | 233320 | 281709
11 | 62:36.10 | 5:56.30 | 281710 | 308439
12 | 68:32.40 | 7:21.57 | 308440 | 341571


Track 1

Filename C:\Gregg Allman - The Gregg Allman Tour (1974) {2008 SHM-CD Japan Mini LP Edition}\01 - Don't Mess Up A Good Thing.wav

Pre-gap length 0:00:02.00

Peak level 99.9 %
Track quality 99.9 %
Test CRC 0C62FF30
Copy CRC 0C62FF30
Cannot be verified as accurate (confidence 3) [C1E39BB3], AccurateRip returned [8E0814FE]
Copy OK

Track 2

Filename C:\Gregg Allman - The Gregg Allman Tour (1974) {2008 SHM-CD Japan Mini LP Edition}\02 - Queen Of Hearts.wav

Peak level 100.0 %
Track quality 100.0 %
Test CRC 014BBEAD
Copy CRC 014BBEAD
Cannot be verified as accurate (confidence 3) [6F416E0B], AccurateRip returned [89AC35AB]
Copy OK

Track 3

Filename C:\Gregg Allman - The Gregg Allman Tour (1974) {2008 SHM-CD Japan Mini LP Edition}\03 - Feel So Bad.wav

Peak level 100.0 %
Track quality 99.9 %
Test CRC 23B21FB8
Copy CRC 23B21FB8
Cannot be verified as accurate (confidence 3) [49D10E93], AccurateRip returned [70FACF0E]
Copy OK

Track 4

Filename C:\Gregg Allman - The Gregg Allman Tour (1974) {2008 SHM-CD Japan Mini LP Edition}\04 - Stand Back.wav

Peak level 94.4 %
Track quality 99.9 %
Test CRC A315370A
Copy CRC A315370A
Cannot be verified as accurate (confidence 3) [01811D10], AccurateRip returned [7700F445]
Copy OK

Track 5

Filename C:\Gregg Allman - The Gregg Allman Tour (1974) {2008 SHM-CD Japan Mini LP Edition}\05 - Time Will Take Us.wav

Peak level 100.0 %
Track quality 99.9 %
Test CRC DC5BF444
Copy CRC DC5BF444
Cannot be verified as accurate (confidence 3) [3E57558F], AccurateRip returned [70FFC74D]
Copy OK

Track 6

Filename C:\Gregg Allman - The Gregg Allman Tour (1974) {2008 SHM-CD Japan Mini LP Edition}\06 - Where Can You Go .wav

Peak level 100.0 %
Track quality 100.0 %
Test CRC 1DB690A8
Copy CRC 1DB690A8
Cannot be verified as accurate (confidence 3) [59D37A82], AccurateRip returned [ADB2ED9A]
Copy OK

Track 7

Filename C:\Gregg Allman - The Gregg Allman Tour (1974) {2008 SHM-CD Japan Mini LP Edition}\07 - Double Cross.wav

Peak level 79.4 %
Track quality 100.0 %
Test CRC 8C37F762
Copy CRC 8C37F762
Cannot be verified as accurate (confidence 3) [DA8D05A6], AccurateRip returned [D8034516]
Copy OK

Track 8

Filename C:\Gregg Allman - The Gregg Allman Tour (1974) {2008 SHM-CD Japan Mini LP Edition}\08 - Dreams.wav

Pre-gap length 0:00:02.04

Peak level 89.1 %
Track quality 100.0 %
Test CRC 5EB84AC1
Copy CRC 5EB84AC1
Cannot be verified as accurate (confidence 3) [ED1B1881], AccurateRip returned [D692740A]
Copy OK

Track 9

Filename C:\Gregg Allman - The Gregg Allman Tour (1974) {2008 SHM-CD Japan Mini LP Edition}\09 - Are You Lonely For Me.wav

Pre-gap length 0:00:01.11

Peak level 89.1 %
Track quality 100.0 %
Test CRC C4248559
Copy CRC C4248559
Cannot be verified as accurate (confidence 3) [6F76E605], AccurateRip returned [A7DACC7F]
Copy OK

Track 10

Filename C:\Gregg Allman - The Gregg Allman Tour (1974) {2008 SHM-CD Japan Mini LP Edition}\10 - Turn On Your Love Light.wav

Pre-gap length 0:00:01.02

Peak level 76.7 %
Track quality 99.9 %
Test CRC FF3B8BBF
Copy CRC FF3B8BBF
Cannot be verified as accurate (confidence 3) [5C6C9F79], AccurateRip returned [46B251BE]
Copy OK

Track 11

Filename C:\Gregg Allman - The Gregg Allman Tour (1974) {2008 SHM-CD Japan Mini LP Edition}\11 - Oncoming Traffic.wav

Peak level 80.4 %
Track quality 100.0 %
Test CRC 4D1690A8
Copy CRC 4D1690A8
Cannot be verified as accurate (confidence 3) [3058A420], AccurateRip returned [780816A4]
Copy OK

Track 12

Filename C:\Gregg Allman - The Gregg Allman Tour (1974) {2008 SHM-CD Japan Mini LP Edition}\12 - Will The Circle Be Unbroken.wav

Peak level 85.1 %
Track quality 100.0 %
Test CRC 01893059
Copy CRC 01893059
Cannot be verified as accurate (confidence 3) [D1808BE8], AccurateRip returned [49FFDB0E]
Copy OK


No tracks could be verified as accurate
You may have a different pressing from the one(s) in the database

No errors occurred

End of status report

FileSonic Linkz

or

FileServe Linkz

p.s. the files are interchangeable…

pass: ruskaval

No Mirror, plz!