Tags
Language
Tags
February 2023
Su Mo Tu We Th Fr Sa
29 30 31 1 2 3 4
5 6 7 8 9 10 11
12 13 14 15 16 17 18
19 20 21 22 23 24 25
26 27 28 1 2 3 4

Richard "Groove" Holmes - Soul Message (1965) {2006 Prestige RVG Remasters Series}

Posted By: ruskaval
Richard "Groove" Holmes - Soul Message (1965) {2006 Prestige RVG Remasters Series}

Richard "Groove" Holmes - Soul Message (1965) {2006 Prestige RVG Remasters Series}
EAC rip (secure mode) | FLAC (tracks)+CUE+LOG -> 200 Mb | MP3 @320 -> 82 Mb
Full Artwork @ 300 dpi (jpg) -> 36 Mb | 5% repair rar
© 1965, 2006 Concord / Prestige | 00888072300149 | 24-bit remaster
Jazz / Soul Jazz / Organ Hammond B-3

“I was the engineer on the recording sessions and I also made the masters for the original LP issues of these albums. Since the advent of the CD, other people have been making the masters. Mastering is the final step in the process of creating the sound of the finished product. Now, thanks to the folks at the Concord Music Group who have given me the opportunity to remaster these albums, I can present my versions of the music on CD using modern technology. I remember the sessions well, I remember how the musicians wanted to sound, and I remember their reactions to the playbacks. Today, I feel strongly that I am their messenger.” — Rudy Van Gelder.
Richard "Groove" Holmes - Soul Message (1965) {2006 Prestige RVG Remasters Series}

Many Eastern and Midwestern musicians helped sustain the West Coast jazz scene in the ’50s and ’60s, but the only one among them who made an impact in Southern California on Hammond organ was New Jersey native Richard “Groove” Holmes. This was Holmes’s first recording for Prestige, and it both confirmed his status as one of the B-3’s leading practitioners and elevated his profile with the crossover success of “Misty.” Armed with a talented and totally sympathetic rhythm section, a program that emphasized jazz classics (including the first cover version of Horace Silver’s “Song for My Father”) plus two infectious originals, and a unique sound that created excitement without flamboyance and allowed the brilliant bass lines created by his skillful pedal work to shine through with clarity, Holmes turned Soul Message into the signature album of his celebrated career.

AAJ INFO

Personnel:
Richard "Groove" Holmes: organ
Gene Edwards: guitar
Jimmie Smith: drums

tracklist:

01. Groove's Groove
02. Daahoud
03. Misty
04. Song For My Father
05. The Things We Did Last Summer
06. Soul Message

Exact Audio Copy V1.0 beta 3 from 29. August 2011

EAC extraction logfile from 10. November 2012, 0:01

Richard "Groove" Holmes / Soul Message

Used drive : PLEXTOR CD-R PX-W2410A Adapter: 3 ID: 0

Read mode : Secure
Utilize accurate stream : Yes
Defeat audio cache : Yes
Make use of C2 pointers : No

Read offset correction : 98
Overread into Lead-In and Lead-Out : No
Fill up missing offset samples with silence : Yes
Delete leading and trailing silent blocks : No
Null samples used in CRC calculations : Yes
Used interface : Native Win32 interface for Win NT & 2000
Gap handling : Appended to previous track

Used output format : User Defined Encoder
Selected bitrate : 1024 kBit/s
Quality : High
Add ID3 tag : No
Command line compressor : C:\Program Files\Exact Audio Copy\FLAC\FLAC.EXE
Additional command line options : -8 -V -T "ARTIST=%artist%" -T "TITLE=%title%" -T "ALBUM=%albumtitle%" -T "DATE=%year%" -T "TRACKNUMBER=%tracknr%" -T "GENRE=%genre%" -T "PERFORMER=%albuminterpret%" -T "COMPOSER=%composer%" %haslyrics%–tag-from-file=LYRICS="%lyricsfile%"%haslyrics% -T "ALBUMARTIST=%albumartist%" -T "DISCNUMBER=%cdnumber%" -T "TOTALDISCS=%totalcds%" -T "TOTALTRACKS=%numtracks%" -T "COMMENT=%comment%" %source%


TOC of the extracted CD

Track | Start | Length | Start sector | End sector
––––––––––––––––––––––––––––-
1 | 0:00.00 | 7:06.71 | 0 | 32020
2 | 7:06.71 | 5:41.11 | 32021 | 57606
3 | 12:48.07 | 6:03.54 | 57607 | 84885
4 | 18:51.61 | 6:08.44 | 84886 | 112529
5 | 25:00.30 | 6:06.62 | 112530 | 140041
6 | 31:07.17 | 3:29.71 | 140042 | 155787


Track 1

Filename X:\EAC\Richard 'Groove' Holmes - Soul Message (1965 OJC 2006) [FLAC]\01. Groove's Groove.wav

Pre-gap length 0:00:02.00

Peak level 81.3 %
Extraction speed 3.5 X
Track quality 99.9 %
Test CRC 6BF61F34
Copy CRC 6BF61F34
Accurately ripped (confidence 10) [6AA8FCC6] (AR v1)
Copy OK

Track 2

Filename X:\EAC\Richard 'Groove' Holmes - Soul Message (1965 OJC 2006) [FLAC]\02. Dahoud.wav

Pre-gap length 0:00:02.72

Peak level 84.8 %
Extraction speed 3.7 X
Track quality 100.0 %
Test CRC 8831C8A8
Copy CRC 8831C8A8
Accurately ripped (confidence 10) [E1B8AB1E] (AR v1)
Copy OK

Track 3

Filename X:\EAC\Richard 'Groove' Holmes - Soul Message (1965 OJC 2006) [FLAC]\03. Misty.wav

Pre-gap length 0:00:02.26

Peak level 82.2 %
Extraction speed 3.7 X
Track quality 100.0 %
Test CRC EF48F5DF
Copy CRC EF48F5DF
Accurately ripped (confidence 10) [0F761A02] (AR v1)
Copy OK

Track 4

Filename X:\EAC\Richard 'Groove' Holmes - Soul Message (1965 OJC 2006) [FLAC]\04. Song For My Father.wav

Pre-gap length 0:00:02.55

Peak level 77.5 %
Extraction speed 3.7 X
Track quality 100.0 %
Test CRC 69DA358C
Copy CRC 69DA358C
Accurately ripped (confidence 10) [DD13E8A1] (AR v1)
Copy OK

Track 5

Filename X:\EAC\Richard 'Groove' Holmes - Soul Message (1965 OJC 2006) [FLAC]\05. The Things We Did Last Summer.wav

Pre-gap length 0:00:03.62

Peak level 68.3 %
Extraction speed 3.4 X
Track quality 99.9 %
Test CRC 7DDAA302
Copy CRC 7DDAA302
Accurately ripped (confidence 10) [08F8A696] (AR v1)
Copy OK

Track 6

Filename X:\EAC\Richard 'Groove' Holmes - Soul Message (1965 OJC 2006) [FLAC]\06. Soul Message.wav

Pre-gap length 0:00:02.73

Peak level 79.0 %
Extraction speed 3.0 X
Track quality 100.0 %
Test CRC 40A46633
Copy CRC 40A46633
Accurately ripped (confidence 10) [315C52D8] (AR v1)
Copy OK


All tracks accurately ripped

No errors occurred

End of status report

–– CUETools DB Plugin V2.1.3

[CTDB TOCID: hXo.uw4SX_HMRAcYcA_9ZQdS7Pc-] found, Submit result: hXo.uw4SX_HMRAcYcA_9ZQdS7Pc- has been confirmed
[f7b98ad9] (3/3) Accurately ripped


==== Log checksum 730C99B615E49492721D6FE03E9531748D59CC005EDB436F92CC52B5A493038A ====


Richard "Groove" Holmes - Soul Message (1965) {2006 Prestige RVG Remasters Series}

Richard "Groove" Holmes - Soul Message (1965) {2006 Prestige RVG Remasters Series}



===