Subcategories

Augustin Hadelich & Joyce Yang - Franck, Kurtág, Previn & Schumann: Music for Violin & Piano (2016)

Posted By: delpotro
Augustin Hadelich & Joyce Yang - Franck, Kurtág, Previn & Schumann: Music for Violin & Piano (2016)

Augustin Hadelich & Joyce Yang - Franck, Kurtág, Previn & Schumann: Music for Violin & Piano (2016)
EAC Rip | FLAC (tracks+log+.cue) | 01:97:25 | 298 Mb
Classical | Label: Avie Records

Grammy Award-winning violinist Augustin Hadelich is one of the most impressive musicians of his generation. Pianist Joyce Yang, youngest ever medalist of the Van Cliburn Competition, is a consistently electrifying presence on stage. Together these young artists produce a plethora of pyrotechnics and an abundance of musical imagination. This unique recital program pairs two 19th-century repertory staples – Sonatas by Franck and Schumann – with 20th-century fare by Kurtág and Previn, a combination Augustin and Joyce have performed to widespread acclaim in their frequent joint performances.
Tracklist:
Tango Song and Dance By André Previn
I. Tango
II. Song
III. Dance

Violin Sonata No. 1 in A Minor, Op. 105
By Robert Schumann
I. Mit leidenschaftlichem Ausdruck
II. Allegretto
III. Lebhaft

Tre Pezzi, Op. 14e By György Kurtág
I. Öd und traurig
II. Vivo
III. Aus der Ferne

Violin Sonata in A Major, FWV 8 By César Franck
I. Allegretto ben moderato
II. Allegro
III. Recitativo-Fantasia. Ben moderato
IV. Allegretto poco mosso

Exact Audio Copy V1.1 from 23. June 2015

EAC extraction logfile from 6. May 2018, 21:47

Hadelich, Yang / Franck, Kurtag, Previn, Schumann

Used drive : HL-DT-STDVD-RAM GH22LP20 Adapter: 1 ID: 0

Read mode : Secure
Utilize accurate stream : Yes
Defeat audio cache : Yes
Make use of C2 pointers : No

Read offset correction : 102
Overread into Lead-In and Lead-Out : No
Fill up missing offset samples with silence : Yes
Delete leading and trailing silent blocks : No
Null samples used in CRC calculations : Yes
Used interface : Native Win32 interface for Win NT & 2000
Gap handling : Appended to previous track

Used output format : User Defined Encoder
Selected bitrate : 1024 kBit/s
Quality : High
Add ID3 tag : No
Command line compressor : C:\Program Files (x86)\Exact Audio Copy\Flac\flac.exe
Additional command line options : -8 -e -V -T "ARTIST=%artist%" -T "TITLE=%title%" -T "ALBUM=%albumtitle%" -T "DATE=%year%" -T "TRACKNUMBER=%tracknr%" -T "GENRE=%genre%" -T "PERFORMER=%albuminterpret%" -T "COMPOSER=%composer%" %haslyrics%–tag-from-file=LYRICS="%lyricsfile%"%haslyrics% -T "ALBUMARTIST=%albumartist%" -T "DISCNUMBER=%cdnumber%" -T "TOTALDISCS=%totalcds%" -T "TOTALTRACKS=%numtracks%" -T "COMMENT=%comment%" %source% -o %dest%


TOC of the extracted CD

Track | Start | Length | Start sector | End sector
––––––––––––––––––––––––––––-
1 | 0:00.00 | 5:20.05 | 0 | 24004
2 | 5:20.05 | 4:41.50 | 24005 | 45129
3 | 10:01.55 | 5:39.50 | 45130 | 70604
4 | 15:41.30 | 7:35.01 | 70605 | 104730
5 | 23:16.31 | 3:47.53 | 104731 | 121808
6 | 27:04.09 | 5:30.56 | 121809 | 146614
7 | 32:34.65 | 3:12.74 | 146615 | 161088
8 | 35:47.64 | 1:16.20 | 161089 | 166808
9 | 37:04.09 | 2:29.42 | 166809 | 178025
10 | 39:33.51 | 6:01.68 | 178026 | 205168
11 | 45:35.44 | 8:16.39 | 205169 | 242407
12 | 53:52.08 | 7:31.19 | 242408 | 276251
13 | 61:23.27 | 6:01.71 | 276252 | 303397


Track 1

Filename D:\Torrent\Hadelich, Yang - Franck, Kurtag, Previn, Schumann (2016) [FLAC]\01 - Previn. Tango Song and Dance I. Tango.wav

Pre-gap length 0:00:02.00

Peak level 83.2 %
Extraction speed 1.6 X
Track quality 100.0 %
Test CRC 812B88E3
Copy CRC 812B88E3
Accurately ripped (confidence 1) [E916AF67] (AR v2)
Copy OK

Track 2

Filename D:\Torrent\Hadelich, Yang - Franck, Kurtag, Previn, Schumann (2016) [FLAC]\02 - II. Song.wav

Peak level 74.5 %
Extraction speed 1.8 X
Track quality 100.0 %
Test CRC CDB9462C
Copy CRC CDB9462C
Accurately ripped (confidence 1) [25ED13B8] (AR v2)
Copy OK

Track 3

Filename D:\Torrent\Hadelich, Yang - Franck, Kurtag, Previn, Schumann (2016) [FLAC]\03 - III. Dance.wav

Pre-gap length 0:00:00.01

Peak level 95.5 %
Extraction speed 2.1 X
Track quality 100.0 %
Test CRC 21826674
Copy CRC 21826674
Accurately ripped (confidence 1) [0629BD72] (AR v2)
Copy OK

Track 4

Filename D:\Torrent\Hadelich, Yang - Franck, Kurtag, Previn, Schumann (2016) [FLAC]\04 - Schumann. Sonata No.1 I. Mit leidenschaftlichem Ausdruck.wav

Pre-gap length 0:00:06.96

Peak level 84.1 %
Extraction speed 2.4 X
Track quality 100.0 %
Test CRC 3FB3A4FC
Copy CRC 3FB3A4FC
Accurately ripped (confidence 1) [775479FF] (AR v2)
Copy OK

Track 5

Filename D:\Torrent\Hadelich, Yang - Franck, Kurtag, Previn, Schumann (2016) [FLAC]\05 - II. Allegretto.wav

Pre-gap length 0:00:00.01

Peak level 66.7 %
Extraction speed 2.1 X
Track quality 99.9 %
Test CRC FE6556FB
Copy CRC FE6556FB
Accurately ripped (confidence 1) [0B89B349] (AR v2)
Copy OK

Track 6

Filename D:\Torrent\Hadelich, Yang - Franck, Kurtag, Previn, Schumann (2016) [FLAC]\06 - III. Lebhaft.wav

Pre-gap length 0:00:00.01

Peak level 76.8 %
Extraction speed 2.6 X
Track quality 100.0 %
Test CRC D2C4FFBA
Copy CRC D2C4FFBA
Accurately ripped (confidence 1) [553210DB] (AR v2)
Copy OK

Track 7

Filename D:\Torrent\Hadelich, Yang - Franck, Kurtag, Previn, Schumann (2016) [FLAC]\07 - Kurtag. Tre pezzi I. Od und traurig.wav

Pre-gap length 0:00:00.01

Peak level 54.8 %
Extraction speed 2.5 X
Track quality 100.0 %
Test CRC 24100B05
Copy CRC 24100B05
Accurately ripped (confidence 1) [A1FFA94E] (AR v2)
Copy OK

Track 8

Filename D:\Torrent\Hadelich, Yang - Franck, Kurtag, Previn, Schumann (2016) [FLAC]\08 - II. Vivo.wav

Pre-gap length 0:00:00.01

Peak level 95.6 %
Extraction speed 2.0 X
Track quality 100.0 %
Test CRC 60373E13
Copy CRC 60373E13
Accurately ripped (confidence 1) [C1555A6F] (AR v2)
Copy OK

Track 9

Filename D:\Torrent\Hadelich, Yang - Franck, Kurtag, Previn, Schumann (2016) [FLAC]\09 - III. Aus der Ferne.wav

Pre-gap length 0:00:00.01

Peak level 24.7 %
Extraction speed 2.5 X
Track quality 100.0 %
Test CRC 94C23BF2
Copy CRC 94C23BF2
Accurately ripped (confidence 1) [DC7FBD8B] (AR v2)
Copy OK

Track 10

Filename D:\Torrent\Hadelich, Yang - Franck, Kurtag, Previn, Schumann (2016) [FLAC]\10 - Franck. Sonata in A major I. Allegretto moderato.wav

Pre-gap length 0:00:00.01

Peak level 95.5 %
Extraction speed 2.9 X
Track quality 100.0 %
Test CRC 36BAD5D5
Copy CRC 36BAD5D5
Accurately ripped (confidence 1) [25EAFD9D] (AR v2)
Copy OK

Track 11

Filename D:\Torrent\Hadelich, Yang - Franck, Kurtag, Previn, Schumann (2016) [FLAC]\11 - II. Allegro.wav

Pre-gap length 0:00:00.01

Peak level 92.5 %
Extraction speed 3.2 X
Track quality 100.0 %
Test CRC 69F2F7F8
Copy CRC 69F2F7F8
Accurately ripped (confidence 1) [908ED9E5] (AR v2)
Copy OK

Track 12

Filename D:\Torrent\Hadelich, Yang - Franck, Kurtag, Previn, Schumann (2016) [FLAC]\12 - III. Recitativo-Fantasia.wav

Pre-gap length 0:00:00.01

Peak level 88.7 %
Extraction speed 3.4 X
Track quality 100.0 %
Test CRC 0C665A8D
Copy CRC 0C665A8D
Accurately ripped (confidence 1) [EC67F2A0] (AR v2)
Copy OK

Track 13

Filename D:\Torrent\Hadelich, Yang - Franck, Kurtag, Previn, Schumann (2016) [FLAC]\13 - IV. Allegretto poco mosso.wav

Pre-gap length 0:00:00.01

Peak level 95.6 %
Extraction speed 3.5 X
Track quality 100.0 %
Test CRC 58E318AA
Copy CRC 58E318AA
Accurately ripped (confidence 1) [AC343A64] (AR v2)
Copy OK


All tracks accurately ripped

No errors occurred

End of status report

–– CUETools DB Plugin V2.1.6

[CTDB TOCID: khHdR5V4ujXxEg2jovxK06_UFyc-] found
Submit result: khHdR5V4ujXxEg2jovxK06_UFyc- has been confirmed
Track | CTDB Status
1 | (2/2) Accurately ripped
2 | (2/2) Accurately ripped
3 | (2/2) Accurately ripped
4 | (2/2) Accurately ripped
5 | (2/2) Accurately ripped
6 | (2/2) Accurately ripped
7 | (2/2) Accurately ripped
8 | (2/2) Accurately ripped
9 | (2/2) Accurately ripped
10 | (2/2) Accurately ripped
11 | (2/2) Accurately ripped
12 | (2/2) Accurately ripped
13 | (2/2) Accurately ripped


==== Log checksum 6099D5E1A3FD123A06FE99F192FD8CA7EE5D4F29C6D9D851A95E0F599FDF1B0E ====

Thanks to the Original ripper bryars !