Subcategories

Harry Betts - The Jazz Soul of Doctor Kildare (1962) [MFSL Remastered 1987]

Posted By: Bezz
Harry Betts - The Jazz Soul of Doctor Kildare (1962) [MFSL Remastered 1987]

Harry Betts - The Jazz Soul of Doctor Kildare (1962) [MFSL Remastered 1987]
EAC rip | FLAC + CUE + LOG | Full Scans | 240 Mb
Genre ~ Trumpet Jazz | Label ~ Mobile Fidelity Sound Lab/MFSL MFCD-839

I must admit I winced when I read the label information, especially the bit about "The Enchanted Melody From The Shirley Temple Show". My fears were virtually groundless, however. This is a good big band, with plenty of soloists, and an arranger (Harry Betts, late of the Kenton trombone section) who treats these television and film themes with praiseworthy perfunctoriness. After a brief nod in the direction of the 'theme' composer, we are plunged into a series of exciting passages by men such as Bud Shank, Bill Perkins, Jack Sheldon, Frank Rosolino, Russ Freeman and (and this will surprise some readers) Herbie Steward. Steward was one of the original "Four Brothers" of the 1947 Woody Herman band, but, unlike his fellows (Stan Getz, Zoot Sims and the late Serge Chaloff) he has been reluctant to take a prominent part in jazz since the late forties. He has a distinctive tenor tone and creates a subtle aura with his solos which none of the other "brothers" achieve. Bud Shank is responsible for some of the most exhilarating passages and his solos on "Evan's Theme" (from Hong Kong) and "Cain's Hundred" show that his alto style has undergone the kind of change which affected Art Pepper's playing shortly before the latter's incarceration. I have always admired Jack Sheldon's work, and it's good to hear his cloudy-toned solos on "Joanna" and, more particularly, on "Theme From Bus stop" where he is featured prominently in a well-shaded arrangement. ~ Alun Morgan


Tracks List

Theme From "Dr. Kildare"
Theme From "Adventures In Paradise"
The Enchanted Melody From "The Shirley Temple Show"
Theme From "The Asphalt Jungle"
Joanna ~ A Theme From "Hong Kong"
Theme From "Hong Kong" (Evan's Theme)
Theme From "Klondike"
Theme From "Follow The Sun"
Theme From "Moment Of Fear"
Theme From "Bus Stop"
Theme From "National Velvet"
Theme From "Cain's Hundred"


Personel

Conte Candoli/Al Porcino/Don Fagerquist/Jack Sheldon/Ray Tricari/Ollie Mitchell (trumpets), Frank Rosolino/Milt Bernhart/Bob Enovoldsen(trombone), Dick Leith (bass Trombone), Red Callender (tuba), Bud Shank (alto/tenor/baritone sax and flute), Herbie Steward/Bill Perkins (tenor sax/clarinet/flute), Bill Hood (baritone sax/clarinet), Buddy Clark (bass), Larry Bunker (vibes/tympani), Russ Freeman (piano/celeste), Al Hendrickson (guitar/banjo), Mel Lewis/Frankie Capp (drums), Jackie Mills (timbales), Don Raffeil (chinese gong), Chino Pozo/Luis Miranda (bongos), and Francisco Aguabella (conga drum).



Exact Audio Copy V0.99 prebeta 5 from 4. May 2009

EAC extraction logfile from 22. April 2011, 8:09

Harry Betts / The Jazz Soul of Dr. Kildare {Sittin'In}[MFSL]

Used drive : ASUS DRW-1608P3S Adapter: 0 ID: 1

Read mode : Secure
Utilize accurate stream : Yes
Defeat audio cache : Yes
Make use of C2 pointers : No

Read offset correction : 48
Overread into Lead-In and Lead-Out : No
Fill up missing offset samples with silence : Yes
Delete leading and trailing silent blocks : No
Null samples used in CRC calculations : Yes
Used interface : Native Win32 interface for Win NT & 2000

Used output format : Internal WAV Routines
Sample format : 44.100 Hz; 16 Bit; Stereo


TOC of the extracted CD

Track | Start | Length | Start sector | End sector
––––––––––––––––––––––––––––-
1 | 0:00.32 | 2:35.33 | 32 | 11689
2 | 2:35.65 | 3:17.12 | 11690 | 26476
3 | 5:53.02 | 4:40.00 | 26477 | 47476
4 | 10:33.02 | 3:00.00 | 47477 | 60976
5 | 13:33.02 | 3:37.00 | 60977 | 77251
6 | 17:10.02 | 2:39.00 | 77252 | 89176
7 | 19:49.02 | 2:06.63 | 89177 | 98689
8 | 21:55.65 | 2:50.00 | 98690 | 111439
9 | 24:45.65 | 3:31.00 | 111440 | 127264
10 | 28:16.65 | 3:00.37 | 127265 | 140801
11 | 31:17.27 | 2:56.25 | 140802 | 154026
12 | 34:13.52 | 4:29.13 | 154027 | 174214


Range status and errors

Selected range

Filename D:\Harry Betts - The Jazz Soul of Dr. Kildare {Sittin'In}[MFSL].wav

Peak level 100.0 %
Range quality 100.0 %
Test CRC FC650256
Copy CRC FC650256
Copy OK

No errors occurred


AccurateRip summary

Track 1 accurately ripped (confidence 3) [EE9F7619]
Track 2 accurately ripped (confidence 3) [0338D5CC]
Track 3 accurately ripped (confidence 3) [53F3E877]
Track 4 accurately ripped (confidence 3) [A661EDAC]
Track 5 accurately ripped (confidence 3) [F492C2E9]
Track 6 accurately ripped (confidence 3) [D017BD67]
Track 7 accurately ripped (confidence 3) [A1A7E4A5]
Track 8 accurately ripped (confidence 3) [53AC3ED6]
Track 9 accurately ripped (confidence 3) [A7D09A68]
Track 10 accurately ripped (confidence 3) [AB2BACAC]
Track 11 accurately ripped (confidence 3) [5F39CB79]
Track 12 accurately ripped (confidence 3) [EA32435A]

All tracks accurately ripped

End of status report



Harry Betts - The Jazz Soul of Doctor Kildare (1962) [MFSL Remastered 1987]


Harry Betts - The Jazz Soul of Doctor Kildare (1962) [MFSL Remastered 1987]



Special thanks to my friend, OD!


FILESONIC links

Part 1 | Part 2 | Part 3


FILESERVE links

Part 1 | Part 2 | Part 3


HOTFILE links

Part 1 | Part 2 | Part 3


BITSHARE links

Part 1 | Part 2 | Part 3



Welcome to my blog for more wonderful music


PLEASE DO NOT PROVIDE MIRROR LINKS!