Tags
Language
Tags

H.E.A.T - Into The Great Unknown (2017)

Posted By: delpotro
H.E.A.T - Into The Great Unknown (2017)

H.E.A.T - Into The Great Unknown (2017)
EAC Rip | FLAC (tracks+log+.cue) - 358 Mb | MP3 CBR 320 kbps - 116 Mb | Scans included | 00:44:47
Melodic Hard Rock | Label: GAIN Music

GAIN Music has announced the forthcoming release of Swedish rockers H.e.a.t‘s latest album, to be titled Into the Great Unknown. It will be the band’s 5th studio album and will be available from September 21, 2017.

The band was signed to Peter Stormare‘s record label Storm Vox and in 2008 the debut album H.E.A.T was released. The second album, titled Freedom Rock, came in 2010 on the same record label.

In 2011 they signed with GAIN Music (Sony) and they also signed a new management, Hagenburg Management.

In 2007, they were an opening act to Toto, and the following year they were the opening act to Sabaton and Alice Cooper, as well as performed at the Sweden Rock Festival that year. They were also awarded the Årets nykomlingar award, an award given out by the Swedish radio station P4 Dist for the best new artist of the year, as voted by the listeners.

In 2009, the band played at the Melodifestivalen 2009, the Swedish qualifier to the annual Eurovision Song Contest, making it to the final round with the song “1000 Miles”. The band has also toured Europe as an opening act to Edguy in January 2009. Vocalist Kenny Leckremo left the band after playing 27 July at Grona Lund. On 21 August, H.E.A.T stated that the new singer is Erik Gronwall, and on August 21 Freedom Rock was ranked in the top 10 AOR/Melodic Rock albums of 2010 by Classic Rock Magazine.

H.E.A.T released their third studio album Address The Nation 28 March 2012. The first single from the album was “Living On The Run”. It was the first album with new singer Grönwall.

2014 saw the band’s return with the much anticipated new album Tearing Down the Walls and in October 2014 the band headlined the last ever Firefest concert at Rock City in Nottingham, UK.

In early October 2016, guitar player Eric Rivers announced his departure from the band, and almost 2 weeks later it was announced that former guitar player Dave Dalone was replacing him – and therefore returning to the band since departing in 2013.

The band’s current line-up is:

Vocals: Erik Grönwall
Guitars: Dave Dalone
Keyboards: Jona Tee
Bass: Jimmy Jay
Drums: Crash
Tracklist:
1. Bastard Of Society
2. Redefined
3. Shit City
4. Time On Our Side
5. Best Of The Broken
6. Eye Of The Storm
7. Blind Leads The Blind
8. We Rule
9. Do You Want It
10. Into The Great Unknown

Exact Audio Copy V1.1 from 23. June 2015

EAC extraction logfile from 31. October 2017, 10:05

H.E.A.T / Into The Great Unknown

Used drive : TSSTcorpCDDVDW SH-224DB Adapter: 1 ID: 0

Read mode : Secure
Utilize accurate stream : Yes
Defeat audio cache : Yes
Make use of C2 pointers : No

Read offset correction : 6
Overread into Lead-In and Lead-Out : No
Fill up missing offset samples with silence : Yes
Delete leading and trailing silent blocks : No
Null samples used in CRC calculations : Yes
Used interface : Native Win32 interface for Win NT & 2000
Gap handling : Appended to previous track

Used output format : User Defined Encoder
Selected bitrate : 1024 kBit/s
Quality : High
Add ID3 tag : No
Command line compressor : C:\Program Files (x86)\Exact Audio Copy\win64\flac.exe
Additional command line options : -8 -V -T "ARTIST=%artist%" -T "TITLE=%title%" -T "ALBUM=%albumtitle%" -T "DATE=%year%" -T "TRACKNUMBER=%tracknr%" -T "GENRE=%genre%" -T "COMMENT=%comment%" %source% -o %dest%


TOC of the extracted CD

Track | Start | Length | Start sector | End sector
––––––––––––––––––––––––––––-
1 | 0:00.00 | 3:50.33 | 0 | 17282
2 | 3:50.33 | 4:19.18 | 17283 | 36725
3 | 8:09.51 | 3:51.46 | 36726 | 54096
4 | 12:01.22 | 3:53.38 | 54097 | 71609
5 | 15:54.60 | 4:32.59 | 71610 | 92068
6 | 20:27.44 | 3:41.61 | 92069 | 108704
7 | 24:09.30 | 3:22.67 | 108705 | 123921
8 | 27:32.22 | 5:45.41 | 123922 | 149837
9 | 33:17.63 | 4:05.28 | 149838 | 168240
10 | 37:23.16 | 7:24.24 | 168241 | 201564


Track 1

Filename F:\Sket4er\H.E.A.T – Into The Great Unknown 2017\01 Bastard Of Society.wav

Pre-gap length 0:00:02.00

Peak level 100.0 %
Extraction speed 1.9 X
Track quality 100.0 %
Test CRC D81917BE
Copy CRC D81917BE
Cannot be verified as accurate (confidence 3) [B7749B80], AccurateRip returned [03F98E0D] (AR v2)
Copy OK

Track 2

Filename F:\Sket4er\H.E.A.T – Into The Great Unknown 2017\02 Redefined.wav

Peak level 100.0 %
Extraction speed 2.1 X
Track quality 100.0 %
Test CRC 3D1C97B8
Copy CRC 3D1C97B8
Cannot be verified as accurate (confidence 3) [281D9F6D], AccurateRip returned [24EAE3C3] (AR v2)
Copy OK

Track 3

Filename F:\Sket4er\H.E.A.T – Into The Great Unknown 2017\03 Shit City.wav

Peak level 100.0 %
Extraction speed 2.3 X
Track quality 100.0 %
Test CRC 64EC1C40
Copy CRC 64EC1C40
Cannot be verified as accurate (confidence 3) [3E0C788F], AccurateRip returned [A3EF845C] (AR v2)
Copy OK

Track 4

Filename F:\Sket4er\H.E.A.T – Into The Great Unknown 2017\04 Time On Our Side.wav

Peak level 100.0 %
Extraction speed 2.4 X
Track quality 100.0 %
Test CRC F4663C7D
Copy CRC F4663C7D
Cannot be verified as accurate (confidence 3) [BF730D3F], AccurateRip returned [6DF0111F] (AR v2)
Copy OK

Track 5

Filename F:\Sket4er\H.E.A.T – Into The Great Unknown 2017\05 Best Of The Broken.wav

Peak level 100.0 %
Extraction speed 2.6 X
Track quality 100.0 %
Test CRC E802077A
Copy CRC E802077A
Cannot be verified as accurate (confidence 3) [45142203], AccurateRip returned [0825F8B9] (AR v2)
Copy OK

Track 6

Filename F:\Sket4er\H.E.A.T – Into The Great Unknown 2017\06 Eye Of The Storm.wav

Peak level 100.0 %
Extraction speed 2.7 X
Track quality 100.0 %
Test CRC 5C46C502
Copy CRC 5C46C502
Cannot be verified as accurate (confidence 3) [DAA5F934], AccurateRip returned [8F221B29] (AR v2)
Copy OK

Track 7

Filename F:\Sket4er\H.E.A.T – Into The Great Unknown 2017\07 Blind Leads The Blind.wav

Peak level 100.0 %
Extraction speed 2.7 X
Track quality 100.0 %
Test CRC 62BA26DD
Copy CRC 62BA26DD
Cannot be verified as accurate (confidence 3) [4AED4CE9], AccurateRip returned [E1DEA536] (AR v2)
Copy OK

Track 8

Filename F:\Sket4er\H.E.A.T – Into The Great Unknown 2017\08 We Rule.wav

Peak level 100.0 %
Extraction speed 3.1 X
Track quality 100.0 %
Test CRC 1FA5C0ED
Copy CRC 1FA5C0ED
Cannot be verified as accurate (confidence 3) [1112AC83], AccurateRip returned [E485A651] (AR v2)
Copy OK

Track 9

Filename F:\Sket4er\H.E.A.T – Into The Great Unknown 2017\09 Do You Want It.wav

Peak level 100.0 %
Extraction speed 2.4 X
Track quality 99.9 %
Test CRC 07BAD6D1
Copy CRC 07BAD6D1
Cannot be verified as accurate (confidence 3) [433956ED], AccurateRip returned [A39B9E12] (AR v2)
Copy OK

Track 10

Filename F:\Sket4er\H.E.A.T – Into The Great Unknown 2017\10 Into The Great Unknown.wav

Peak level 100.0 %
Extraction speed 3.5 X
Track quality 100.0 %
Test CRC F5BF441D
Copy CRC F5BF441D
Cannot be verified as accurate (confidence 3) [5A1A3B45], AccurateRip returned [C34BE659] (AR v2)
Copy OK


No tracks could be verified as accurate
You may have a different pressing from the one(s) in the database

No errors occurred

End of status report

–– CUETools DB Plugin V2.1.6

[CTDB TOCID: tUeJSBPXhJ.Kz.d1Qm3v5LgsN1s-] found
Submit result: tUeJSBPXhJ.Kz.d1Qm3v5LgsN1s- has been confirmed
Track | CTDB Status
1 | (18/18) Accurately ripped
2 | (18/18) Accurately ripped
3 | (18/18) Accurately ripped
4 | (18/18) Accurately ripped
5 | (18/18) Accurately ripped
6 | (18/18) Accurately ripped
7 | (18/18) Accurately ripped
8 | (18/18) Accurately ripped
9 | (18/18) Accurately ripped
10 | (18/18) Accurately ripped


==== Log checksum EE81FE46399F94C85675852375767B7D0B0F7A569EB231760AE972007C5D8814 ====



H.E.A.T - Into The Great Unknown (2017)

Thanks to the Original ripper markav10 !