Tags
Language
Tags
May 2024
Su Mo Tu We Th Fr Sa
28 29 30 1 2 3 4
5 6 7 8 9 10 11
12 13 14 15 16 17 18
19 20 21 22 23 24 25
26 27 28 29 30 31 1

Hendrik Braeckman Group - 'Til Now (2005)

Posted By: Domestos
Hendrik Braeckman Group - 'Til Now (2005)

Hendrik Braeckman Group - 'Til Now (2005)
XLD Rip | FLAC (tracks+.cue, log) ~ 351.74 Mb | 01:04:07 | Covers
Post-Bop, Contemporary Jazz | Country: Belgium | Label: W.E.R.F. - 048

During the tour in New York of the Brussels Jazz Orchestra guitarist Hendrik Braeckman came with the suggestions to release a CD with his own music and under his name.



Track List:
01. Colours (Opening) (Braeckman) - 1:03
02. Santa Margerita (Braeckman) - 6:51
03. Fluit (Braeckman) - 8:23
04. Felix (Braeckman) - 5:01
05. Nemo (Braeckman) - 5:32
06. Indisch (Braeckman) - 6:31
07. Nathalie (Braeckman) - 6:43
08. Cecilia (Braeckman) - 4:16
09. Karl (Braeckman) - 10:05
10. Clara (Braeckman) - 5:04
11. Colours (Braeckman) - 4:38

Hendrik Braeckman - guitar
Bert Joris - trumpet, flugelhorn
Kurt Van Herck - saxophones
Piet Verbist - bass
Jan de Haas - drums

Recorded at VRT Studio Toots on December 8-10, 2004.

Hendrik Braeckman Group - 'Til Now (2005)

X Lossless Decoder version 20210101 (153.1)

XLD extraction logfile from 2021-06-26 14:37:50 +0200

Hendrik Braeckman Group / 'til now

Used drive : LENOVO USB_SATA_Burner3 (revision 3J48)
Media type : Pressed CD

Ripper mode : XLD Secure Ripper
Disable audio cache : OK for the drive with a cache less than 1375KiB
Make use of C2 pointers : NO
Read offset correction : 6
Max retry count : 100
Gap status : Analyzed, Appended (except HTOA)

TOC of the extracted CD
Track | Start | Length | Start sector | End sector
––––––––––––––––––––––––––––-
1 | 00:00:00 | 01:02:60 | 0 | 4709
2 | 01:02:60 | 06:50:48 | 4710 | 35507
3 | 07:53:33 | 08:23:00 | 35508 | 73232
4 | 16:16:33 | 05:01:08 | 73233 | 95815
5 | 21:17:41 | 05:31:61 | 95816 | 120701
6 | 26:49:27 | 06:30:63 | 120702 | 150014
7 | 33:20:15 | 06:42:53 | 150015 | 180217
8 | 40:02:68 | 04:15:69 | 180218 | 199411
9 | 44:18:62 | 10:04:44 | 199412 | 244755
10 | 54:23:31 | 05:04:16 | 244756 | 267571
11 | 59:27:47 | 04:37:68 | 267572 | 288414

AccurateRip Summary (DiscID: 001955c5-00e1135e-930f050b)
Track 01 : OK (v1+v2, confidence 2/2)
Track 02 : OK (v1+v2, confidence 2/2)
Track 03 : OK (v1+v2, confidence 2/2)
Track 04 : OK (v1+v2, confidence 2/2)
Track 05 : OK (v1+v2, confidence 2/2)
Track 06 : OK (v1+v2, confidence 2/2)
Track 07 : OK (v1+v2, confidence 2/2)
Track 08 : OK (v1+v2, confidence 2/2)
Track 09 : OK (v1+v2, confidence 2/2)
Track 10 : OK (v1+v2, confidence 2/2)
Track 11 : OK (v1+v2, confidence 2/2)
->All tracks accurately ripped.

All Tracks
Album gain : -1.89 dB
Peak : 0.999969
Statistics
Read error : 0
Jitter error (maybe fixed) : 0
Retry sector count : 1
Damaged sector count : 0

Track 01
Filename : /xld/Hendrik Braeckman Group - 'til now (2005) [FLAC]/01 - Hendrik Braeckman Group - Colours (opening).flac
Pre-gap length : 00:02:00

Track gain : 3.40 dB
Peak : 0.801361
CRC32 hash (test run) : 6EE34CA0
CRC32 hash : 6EE34CA0
CRC32 hash (skip zero) : 588533FA
AccurateRip v1 signature : 5CB67190
AccurateRip v2 signature : 9D37CBF2
->Accurately ripped (v1+v2, confidence 1+1/2)
Statistics
Read error : 0
Jitter error (maybe fixed) : 0
Retry sector count : 0
Damaged sector count : 0

Track 02
Filename : /xld/Hendrik Braeckman Group - 'til now (2005) [FLAC]/02 - Hendrik Braeckman Group - Santa Margerita.flac
Pre-gap length : 00:01:19

Track gain : -1.62 dB
Peak : 0.984589
CRC32 hash (test run) : 7B9AA229
CRC32 hash : 7B9AA229
CRC32 hash (skip zero) : 8AADCB22
AccurateRip v1 signature : 7469DC76
AccurateRip v2 signature : E89E5DF6
->Accurately ripped (v1+v2, confidence 1+1/2)
Statistics
Read error : 0
Jitter error (maybe fixed) : 0
Retry sector count : 0
Damaged sector count : 0

Track 03
Filename : /xld/Hendrik Braeckman Group - 'til now (2005) [FLAC]/03 - Hendrik Braeckman Group - Fluit.flac
Pre-gap length : 00:01:45

Track gain : 0.57 dB
Peak : 0.988525
CRC32 hash (test run) : 9BAD1984
CRC32 hash : 9BAD1984
CRC32 hash (skip zero) : BE1257B1
AccurateRip v1 signature : 05AFEC5B
AccurateRip v2 signature : 688520C7
->Accurately ripped (v1+v2, confidence 1+1/2)
Statistics
Read error : 0
Jitter error (maybe fixed) : 0
Retry sector count : 0
Damaged sector count : 0

Track 04
Filename : /xld/Hendrik Braeckman Group - 'til now (2005) [FLAC]/04 - Hendrik Braeckman Group - Felix.flac
Pre-gap length : 00:00:44

Track gain : -3.86 dB
Peak : 0.994385
CRC32 hash (test run) : 487592F1
CRC32 hash : 487592F1
CRC32 hash (skip zero) : F20793FF
AccurateRip v1 signature : 6A11E92D
AccurateRip v2 signature : 75BACB39
->Accurately ripped (v1+v2, confidence 1+1/2)
Statistics
Read error : 0
Jitter error (maybe fixed) : 0
Retry sector count : 0
Damaged sector count : 0

Track 05
Filename : /xld/Hendrik Braeckman Group - 'til now (2005) [FLAC]/05 - Hendrik Braeckman Group - Nemo.flac
Pre-gap length : 00:02:45

Track gain : -1.62 dB
Peak : 0.988037
CRC32 hash (test run) : 41DD67A2
CRC32 hash : 41DD67A2
CRC32 hash (skip zero) : 1914701A
AccurateRip v1 signature : 4160EF13
AccurateRip v2 signature : 24FE62D8
->Accurately ripped (v1+v2, confidence 1+1/2)
Statistics
Read error : 0
Jitter error (maybe fixed) : 0
Retry sector count : 0
Damaged sector count : 0

Track 06
Filename : /xld/Hendrik Braeckman Group - 'til now (2005) [FLAC]/06 - Hendrik Braeckman Group - Indisch.flac
Pre-gap length : 00:01:44

Track gain : -1.67 dB
Peak : 0.985352
CRC32 hash (test run) : F82AADFA
CRC32 hash : F82AADFA
CRC32 hash (skip zero) : B1D3EBD3
AccurateRip v1 signature : 9AB591AB
AccurateRip v2 signature : CF4F35D3
->Accurately ripped (v1+v2, confidence 1+1/2)
Statistics
Read error : 0
Jitter error (maybe fixed) : 0
Retry sector count : 0
Damaged sector count : 0

Track 07
Filename : /xld/Hendrik Braeckman Group - 'til now (2005) [FLAC]/07 - Hendrik Braeckman Group - Nathalie.flac
Pre-gap length : 00:01:20

Track gain : -3.22 dB
Peak : 0.993347
CRC32 hash (test run) : 572DC170
CRC32 hash : 572DC170
CRC32 hash (skip zero) : 335D3CC5
AccurateRip v1 signature : 9CB0D224
AccurateRip v2 signature : 31D2257E
->Accurately ripped (v1+v2, confidence 1+1/2)
Statistics
Read error : 0
Jitter error (maybe fixed) : 0
Retry sector count : 0
Damaged sector count : 0

Track 08
Filename : /xld/Hendrik Braeckman Group - 'til now (2005) [FLAC]/08 - Hendrik Braeckman Group - Cecilia.flac
Pre-gap length : 00:01:44

Track gain : -0.82 dB
Peak : 0.991669
CRC32 hash (test run) : 94FFD6C6
CRC32 hash : 94FFD6C6
CRC32 hash (skip zero) : 6529CCED
AccurateRip v1 signature : 026CB367
AccurateRip v2 signature : 50FB4FD4
->Accurately ripped (v1+v2, confidence 1+1/2)
Statistics
Read error : 0
Jitter error (maybe fixed) : 0
Retry sector count : 0
Damaged sector count : 0

Track 09
Filename : /xld/Hendrik Braeckman Group - 'til now (2005) [FLAC]/09 - Hendrik Braeckman Group - Karl.flac
Pre-gap length : 00:00:44

Track gain : -3.17 dB
Peak : 0.999969
CRC32 hash (test run) : 32F50D30
CRC32 hash : 32F50D30
CRC32 hash (skip zero) : E94DD822
AccurateRip v1 signature : 7DFEA3AF
AccurateRip v2 signature : 083C79B7
->Accurately ripped (v1+v2, confidence 1+1/2)
Statistics
Read error : 0
Jitter error (maybe fixed) : 0
Retry sector count : 0
Damaged sector count : 0

Track 10
Filename : /xld/Hendrik Braeckman Group - 'til now (2005) [FLAC]/10 - Hendrik Braeckman Group - Clara.flac
Pre-gap length : 00:00:45

Track gain : 0.03 dB
Peak : 0.990173
CRC32 hash (test run) : DDE6AE3F
CRC32 hash : DDE6AE3F
CRC32 hash (skip zero) : 057042BE
AccurateRip v1 signature : 56854CBA
AccurateRip v2 signature : 3989A146
->Accurately ripped (v1+v2, confidence 1+1/2)
Statistics
Read error : 0
Jitter error (maybe fixed) : 0
Retry sector count : 0
Damaged sector count : 0

Track 11
Filename : /xld/Hendrik Braeckman Group - 'til now (2005) [FLAC]/11 - Hendrik Braeckman Group - Colours.flac
Pre-gap length : 00:00:45

Track gain : 4.06 dB
Peak : 0.801392
CRC32 hash (test run) : 2A6C7B02
CRC32 hash : 2A6C7B02
CRC32 hash (skip zero) : 07609E2F
AccurateRip v1 signature : EC419CD3
AccurateRip v2 signature : E3B95FA6
->Accurately ripped (v1+v2, confidence 1+1/2)
Statistics
Read error : 0
Jitter error (maybe fixed) : 0
Retry sector count : 1
Damaged sector count : 0

No errors occurred

End of status report

––-BEGIN XLD SIGNATURE––-
lTnSL0soAkC1M1_CyAeEmRskb3uLKorGgdMdNXl7QA92lYoCmvCul6bM103hr5zNbtMrwLYIG1w5CUyUF7fJXsp6fDWP8Xp6lGczyhK
––-END XLD SIGNATURE––-

All thanks go to the TcpIp

More Music in My Blog
Follow My RSS Channel