Subcategories

Herbie Hancock Trio with Ron Carter + Tony Williams - Herbie Hancock Trio '81 (1981) {Sony Music Japan SRCS 9172 rel 1996}

Posted By: ruskaval
Herbie Hancock Trio with Ron Carter + Tony Williams - Herbie Hancock Trio '81 (1981) {Sony Music Japan SRCS 9172 rel 1996}

Herbie Hancock Trio with Ron Carter + Tony Williams - Herbie Hancock Trio '81 (1981) {Sony Music Japan SRCS 9172 rel 1996}
EAC rip (secure mode) | FLAC (tracks)+CUE+LOG -> 261 Mb | MP3 @320 -> 108 Mb
Full Artwork @ 300 dpi (jpg) -> 13 Mb | 5% repair rar
© 1981, 1996 Columbia / Sony Music Japan | SRCS 9172 | Master Sound
Jazz / Post Bop / Piano Trio

Herbie Hancock's second album released under this title, 1982's The Herbie Hancock Trio features the pianist backed by his fellow former Miles Davis alum, bassist Ron Carter and drummer Tony Williams. As with the trio's 1977 debut, the 1982 outing finds the group reuniting for a set of standards and originals. This is swinging, sophisticated jazz done in a straight-ahead style. Recorded at CBS/Sony Shinanomachi Studio, Tokyo, Japan on July 27, 1981 by Sony PCM-1600 Digital Recording System.
Herbie Hancock Trio with Ron Carter + Tony Williams - Herbie Hancock Trio '81 (1981) {Sony Music Japan SRCS 9172 rel 1996}

I must agree with another reviwer who called this a hidden gem. As a fan of acoustic Herbie, I had been searching for some time for a trio recording with Carter and Williams. No one should doubt the sheer intensity of recordings such as MAIDEN VOYAGE and EMPYREAN ISLES, but if you're searching for a pleasant divergence from Freddie Hubbard or George Coleman, then you've come to the right place.

The most startling difference between this and past Herbie records is the magnificent bass sound. It sounds as if the studio engineers by 1981 had figured out how to properly mic an acoustic bass with little to no 'clunkiness'. What you get instead is an acoustic bass sound as smooth as you're ever going to hear. The highlight of this recording is the Hancock original, 'Dolphin Dance,' which grows from its soft, elegant melody into an absolute barn burner. 'A Slight Smile' is a nice deviation with a foot in the classical realm. All five tracks are superb, and well worth the price of this import. It will be a vital piece of your Herbie collection.
Herbie Hancock Trio with Ron Carter + Tony Williams - Herbie Hancock Trio '81 (1981) {Sony Music Japan SRCS 9172 rel 1996}


Personnel:
Herbie Hancock - piano
Ron Carter - bass
Tony Williams - drums

tracklist:
01 - Stablemates
02 - Dolphin Dance
03 - A Slight Smile
04 - That Old Black Magic
05 - La Maison Goree

Exact Audio Copy V1.0 beta 3 from 29. August 2011

EAC extraction logfile from 14. December 2013, 10:30

Herbie Hancock / Trio 81

Used drive : SONY DVD RW DRU-810A Adapter: 1 ID: 0

Read mode : Secure
Utilize accurate stream : Yes
Defeat audio cache : Yes
Make use of C2 pointers : No

Read offset correction : 618
Overread into Lead-In and Lead-Out : No
Fill up missing offset samples with silence : Yes
Delete leading and trailing silent blocks : No
Null samples used in CRC calculations : Yes
Used interface : Native Win32 interface for Win NT & 2000
Gap handling : Appended to previous track

Used output format : User Defined Encoder
Selected bitrate : 128 kBit/s
Quality : High
Add ID3 tag : No
Command line compressor : C:\Program Files (x86)\Exact Audio Copy\Flac\flac.exe
Additional command line options : -8 -V -T "ARTIST=%artist%" -T "TITLE=%title%" -T "ALBUM=%albumtitle%" -T "DATE=%year%" -T "TRACKNUMBER=%tracknr%" -T "TOTALTRACKS=%numtracks%" -T "GENRE=%genre%" -T "ALBUMARTIST=%albumartist%" -T "ALBUM ARTIST=%albumartist%" -T "COMMENT=EAC Secure Mode, Test & Copy, AccurateRip, FLAC -8" %source%


TOC of the extracted CD

Track | Start | Length | Start sector | End sector
––––––––––––––––––––––––––––-
1 | 0:00.00 | 11:05.30 | 0 | 49904
2 | 11:05.30 | 10:18.57 | 49905 | 96311
3 | 21:24.12 | 9:03.55 | 96312 | 137091
4 | 30:27.67 | 8:33.53 | 137092 | 175619
5 | 39:01.45 | 6:41.07 | 175620 | 205701


Track 1

Filename F:\New Rips\Herbie Hancock - Trio 81 (1981) [FLAC]\01 - Stablemates.wav

Pre-gap length 0:00:02.00

Peak level 100.0 %
Extraction speed 5.2 X
Track quality 100.0 %
Test CRC 0C4B5A5E
Copy CRC 0C4B5A5E
Accurately ripped (confidence 3) [39F49157] (AR v2)
Copy OK

Track 2

Filename F:\New Rips\Herbie Hancock - Trio 81 (1981) [FLAC]\02 - Dolphin Dance.wav

Pre-gap length 0:00:01.10

Peak level 100.0 %
Extraction speed 6.3 X
Track quality 100.0 %
Test CRC F8E8EE8E
Copy CRC F8E8EE8E
Accurately ripped (confidence 3) [0F9D686A] (AR v2)
Copy OK

Track 3

Filename F:\New Rips\Herbie Hancock - Trio 81 (1981) [FLAC]\03 - A Slight Smile.wav

Pre-gap length 0:00:01.17

Peak level 100.0 %
Extraction speed 7.1 X
Track quality 100.0 %
Test CRC 0DE76D83
Copy CRC 0DE76D83
Accurately ripped (confidence 3) [CE54C93C] (AR v2)
Copy OK

Track 4

Filename F:\New Rips\Herbie Hancock - Trio 81 (1981) [FLAC]\04 - That Old Black Magic.wav

Peak level 100.0 %
Extraction speed 7.7 X
Track quality 100.0 %
Test CRC 8DBAF122
Copy CRC 8DBAF122
Accurately ripped (confidence 3) [2746D0AA] (AR v2)
Copy OK

Track 5

Filename F:\New Rips\Herbie Hancock - Trio 81 (1981) [FLAC]\05 - La Maison Goree.wav

Peak level 100.0 %
Extraction speed 7.2 X
Track quality 99.9 %
Test CRC 3C7897EA
Copy CRC 3C7897EA
Accurately ripped (confidence 3) [43A3DC7B] (AR v2)
Copy OK


All tracks accurately ripped

No errors occurred

End of status report

–– CUETools DB Plugin V2.1.3

[CTDB TOCID: QgdAg.qszdW8zbV8TqMc43MgcdA-] found, Submit result: QgdAg.qszdW8zbV8TqMc43MgcdA- has been confirmed
[a9be597a] (1/1) Accurately ripped


==== Log checksum 3CCDB51FA7D1F7F9547F4B70DF26CF274B091FCDE9F00D77A46C5031D1437A16 ====


Herbie Hancock Trio with Ron Carter + Tony Williams - Herbie Hancock Trio '81 (1981) {Sony Music Japan SRCS 9172 rel 1996}

Herbie Hancock Trio with Ron Carter + Tony Williams - Herbie Hancock Trio '81 (1981) {Sony Music Japan SRCS 9172 rel 1996}



===