Subcategories

Steve Hogarth & Richard Barbieri - Not The Weapon But The Hand (2012)

Posted By: Hungry Mind
Steve Hogarth & Richard Barbieri - Not The Weapon But The Hand (2012)

Steve Hogarth & Richard Barbieri - Not The Weapon But The Hand (2012)
EAC Rip | FLAC (image+.cue+log) - 289 MB | Scans JPG | MP3 CBR 320 kbps (LAME 3.98) - 120 MB
Genre: rock, experimental | RAR 5% Rec. | Label: Kscope | CAT #KSCOPE 204

Kscope is pleased to announce the release of Not The Weapon But The Hand, the new album from Steve Hogarth and Richard Barbieri. Hogarth is best known as the frontman of Marillion, the progressive rock legends that he joined in 1989, following spells in The Europeans and How We Live. In addition to the 12 studio albums Marillion have released in this time, he has also recorded and toured as a solo artist, under the moniker H. In recent years Richard Barbieri has been a core member of Porcupine Tree playing keyboards on all the band’s albums since 1993 as well as releasing two solo albums, Things Buried and Stranger Inside. Prior to this, it was in the new-wave pioneers Japan that he originally came to prominence, helping to create the groundbreaking synthesiser sound that defined the band and influenced the likes of The Human League, Duran Duran, Gary Numan, Talk Talk, Kate Bush and a whole raft of other artists, including Hogarth.

Steve Hogarth & Richard Barbieri - Not The Weapon But The Hand (2012)

The band also influenced Hogarth, at that point playing keyboards in The Europeans; 'when I was in my mid-twenties Japan's 'Tin Drum' album was a firm favourite and truly a groundbreaking work… Japan were one of those rare bands where each musician seemed to have reinvented his instrument overnight. Central to this sound was the unmistakable synthesiser programming/playing of my, now, chum Mr B.'

Many years later, Porcupine Tree played some shows with Marillion and Steve invited Richard to be part of The H Band on his 'Ice Cream Genius' album and subsequent tour ('I asked him "Can you make me a sound which starts off like a gong and turns into a jet engine?" - it took him roughly 2 minutes…') and this association developed into what Hogarth describes as 'an easy working relationship which rapidly became an understanding beyond music.'

It wasn't surprising then that the duo decided to collaborate on a joint project, a venture initiated by Barbieri as Hogarth recalls; 'I remember where I was when the email from Richard arrived airing the possibility of a collaboration. I was in Starbucks in Leeds on tour a few years back. From that day forward it was on my mind fairly constantly. The only problem was finding the time to collaborate in between my Marillion schedule and his Porcupine Tree schedule. This year - a week here and a week there - we have managed to do it. Richard has sent me a number of beautiful and unusual instrumentals and I have found lyric ideas to create sometimes songs, sometimes narratives against his musical landscapes.

‘It also goes beyond what you might expect from the two of us… The album consists of music which is at times moving, complex, multi-layered (both instrumentally and vocally) spooky, goofy and of course, very personal to me.'

'I am now as excited about this album as I was at the prospect of the collaboration in the first-place. Ain't it great when a plan comes together?!…'

Not The Weapon But The Hand was completed in late 2011 and features occasional appearances from Danny Thompson on double bass, Arran Ahmun (John Martyn) and Chris Maitland (ex-Porcupine Tree, No-Man, Blackfield) on drums and guitar and string arrangement contributions from Dave Gregory (XTC).

Kscope info

TRACKLIST
01. Red kite (7:25)
02. A cat with seven souls (5:49)
03. Naked (6:14)
04. Crack (4:47)
05. your beautiful face (6:47)
06. Only love will make you free (8:10)
07. Lifting the lio (6:01)
08. No the weapon but the hand (1:25)

Exact Audio Copy V0.99 prebeta 5 from 4. May 2009

EAC extraction logfile from 14. February 2012, 6:37

Steve Hogarth & Richard Barbieri / Not The Weapon But The Hand

Used drive : SONY CD-RW CRX230EE Adapter: 1 ID: 0

Read mode : Secure
Utilize accurate stream : Yes
Defeat audio cache : Yes
Make use of C2 pointers : No

Read offset correction : 6
Overread into Lead-In and Lead-Out : No
Fill up missing offset samples with silence : Yes
Delete leading and trailing silent blocks : No
Null samples used in CRC calculations : Yes
Used interface : Installed external ASPI interface

Used output format : Internal WAV Routines
Sample format : 44.100 Hz; 16 Bit; Stereo


TOC of the extracted CD

Track | Start | Length | Start sector | End sector
––––––––––––––––––––––––––––-
1 | 0:00.00 | 7:25.27 | 0 | 33401
2 | 7:25.27 | 5:49.70 | 33402 | 59646
3 | 13:15.22 | 6:14.03 | 59647 | 87699
4 | 19:29.25 | 4:47.54 | 87700 | 109278
5 | 24:17.04 | 6:47.28 | 109279 | 139831
6 | 31:04.32 | 8:10.41 | 139832 | 176622
7 | 39:14.73 | 6:01.36 | 176623 | 203733
8 | 45:16.34 | 1:25.13 | 203734 | 210121


Range status and errors

Selected range

Filename G:\Steve Hogarth & Richard Barbieri - Not the weapon but the hand (2012)\Steve Hogarth & Richard Barbieri - Not The Weapon But The Hand.wav

Peak level 100.0 %
Range quality 99.9 %
Copy CRC 083FE319
Copy OK

No errors occurred


AccurateRip summary

Track 1 not present in database
Track 2 not present in database
Track 3 not present in database
Track 4 not present in database
Track 5 not present in database
Track 6 not present in database
Track 7 not present in database
Track 8 not present in database

None of the tracks are present in the AccurateRip database

End of status report



Steve Hogarth & Richard Barbieri - Not The Weapon But The Hand (2012)

Thanks to erro