Subcategories

Hugo Wolf - Lieder (Daniel Barenboim & Dietrich Fischer-Dieskau) (1995) (6CD Box Set) {Deutsche Grammophon}

Posted By: shamanicus
Hugo Wolf - Lieder (Daniel Barenboim & Dietrich Fischer-Dieskau) (1995) (6CD Box Set) {Deutsche Grammophon}

Hugo Wolf - Lieder (Daniel Barenboim & Dietrich Fischer-Dieskau) (1995) (6CD Box Set)
EAC Rip | FLAC (tracks+.cue, log) | Artwork | 1.66 Gb | MP3 CBR 320kbps | RAR | 1.11 Gb
Classical | Label: Deutsche Grammophon - 477 8707

This 6-CD set captures Dietrich Fischer-Dieskau and Daniel Barenboim in some of their most significant recordings together and features the astonishingly beautiful and highly regarded lieder of Hugo Wolf.

Hugo Wolf - Lieder (Daniel Barenboim & Dietrich Fischer-Dieskau) (1995) (6CD Box Set) {Deutsche Grammophon}


Tracklist:

Hugo Wolf - Lieder (Daniel Barenboim & Dietrich Fischer-Dieskau) (1995) (6CD Box Set) {Deutsche Grammophon}


Disc 1 (21 / 1:05:10)

01. Mörike-Lieder: No. 1. Der Genesene an die Hoffnung "Tödlich graute mir der Morgen"
02. Mörike-Lieder: No. 2. Der Knabe und das Immlein "Im Weinberg auf der Höhe"
03. Mörike-Lieder: No. 4. Jägerlied "Zierlich ist des Vogels Tritt im Schnee"
04. Mörike-Lieder: No. 5. Der Tambour "Wenn meine Mutter hexen könnt'"
05. Mörike-Lieder: No. 6. Er ist's "Frühling läßt sein blaues Band"
06. Mörike-Lieder: No. 8. Begegnung "Was doch heut Nacht"
07. Mörike-Lieder: No. 9. Nimmersatte Liebe "So ist die Lieb'!"
08. Mörike-Lieder: No. 10. Fußreise "Am frisch geschnittnen Wanderstab"
09. Mörike-Lieder: No. 11. An eine Äolsharfe "Angelehnt an die Epheuwand"
10. Mörike-Lieder: No. 12. Verborgenheit "Laß, o Welt, o laß mich sein"
11. Mörike-Lieder: No. 13. Im Frühling "Hier lieg' ich auf dem Frühlingshügel"
12. Mörike-Lieder: No. 15. Auf einer Wanderung "In ein freundliches Städtchen"
13. Mörike-Lieder: No. 17. Der Gärtner "Auf ihrem Leibrößlein"
14. Mörike-Lieder: No. 18. Zitronenfalter im April "Grausame Frühlingssonne"
15. Mörike-Lieder: No. 19. Um Mitternacht "Gelassen stieg die Nacht ans Land"
16. Mörike-Lieder: No. 20. Auf eine Christblume I "Tochter des Wald's"
17. Mörike-Lieder: No. 21. Auf eine Christblume II "Im Winterboden schläft"
18. Mörike-Lieder: No. 22. Seufzer "Dein Liebesfeuer"
19. Mörike-Lieder: No. 23. Auf ein altes Bild "In grüner Landschaft Sommerflor"
20. Mörike-Lieder: No. 24. In der Frühe "Kein Schlaf noch kühlt"
21. Mörike-Lieder: No. 25. Schlafendes Jesuskind "Sohn der Jungfrau"


Disc 2 (26 / 1:14:51)

01. Mörike-Lieder: No. 26. Karwoche "O Woche! Zeugin heiliger Beschwerde!"
02. Mörike-Lieder: No. 27. Zum neuen Jahr "Wie heimlicher Weise"
03. Mörike-Lieder: No. 28. Gebet "Herr! schicke was du willt"
04. Mörike-Lieder: No. 29. An den Schlaf "Schlaf! Süßer Schlaf!"
05. Mörike-Lieder: No. 30. Neue Liebe "Kann auch ein Mensch"
06. Mörike-Lieder: No. 31. Wo find' ich Trost? "Eine Liebe kenn' ich"
07. Mörike-Lieder: No. 32. An die Geliebte "Wenn ich, von deinem Anschaun"
08. Mörike-Lieder: No. 33. Peregrina I "Der Spiegel dieser treuen, braunen Augen"
09. Mörike-Lieder: No. 34. Peregrina II "Warum, Geliebte, denk' ich dein"
10. Mörike-Lieder: No. 35. Frage und Antwort "Fragst du mich"
11. Mörike-Lieder: No. 36. Lebewohl "Lebe wohl! - Du fühlest nicht"
12. Mörike-Lieder: No. 37. Heimweh "Anders wird die Welt"
13. Mörike-Lieder: No. 38. Lied vom Winde "Sausewind, Brausewind"
14. Mörike-Lieder: No. 39. Denk es, o Seele! "Ein Tännlein grünet wo"
15. Mörike-Lieder: No. 40. Der Jäger "Drei Tage Regen"
16. Mörike-Lieder: No. 43. Lied eines Verliebten "In aller Früh"
17. Mörike-Lieder: No. 44. Der Feuerreiter "Sehet ihr am Fensterlein"
18. Mörike-Lieder: No. 46. Gesang Weylas "Du bist Orplid, mein Land!"
19. Mörike-Lieder: No. 47. Die Geister am Mummelsse "Vom Berge was kommt dort"
20. Mörike-Lieder: No. 48. Storchenbotschaft "Des Schäfers sein Haus"
21. Mörike-Lieder: No. 49. Zur Warnung "Einmal, nach einer lustigen Nacht"
22. Mörike-Lieder: No. 50. Auftrag "In poetischer Epistel"
23. Mörike-Lieder: No. 51. Bei einer Trauung "Vor lauter hochadligen Zeugen"
24. Mörike-Lieder: No. 52. Selbstgeständnis "Ich bin meiner Mutter einzig Kind"
25. Mörike-Lieder: No. 53. Abschied "Unangeklopft ein Herr tritt abends bei mir ein"
26. Gedichte von Scheffel, Mörike, Goethe und Kerner: No. 2. Der König bei der Krönung


Disc 3 (21 / 1:17:00)

01. Goethe-Lieder: No. 1. Harfenspieler I "Wer sich der Einsamkeit ergibt"
02. Goethe-Lieder: No. 2. Harfenspieler II "An die Türen will ich schleichen"
03. Goethe-Lieder: No. 3. Harfenspieler III "Wer nie sein Brot mit Tränen aß"
04. Goethe-Lieder: No. 4. Spottlied aus "Wilhelm Meister' "Ich armer Teufel""
05. Goethe-Lieder: No. 10. Der Sänger "Was hör' ich draußen vor dem Tor"
06. Goethe-Lieder: No. 11. Der Rattenfänger "Ich bin der wohlbekannte Sänger"
07. Goethe-Lieder: No. 12. Ritter Kurts Brautfahrt "Mit des Bräutigams Behagen"
08. Goethe-Lieder: No. 13. Gutmann und Gutweib "Und morgen fällt Sankt Martins Fest"
09. Goethe-Lieder: No. 14. Cophtisches Lied I "Lasset Gelehrte sich zanken und streiten"
10. Goethe-Lieder: No. 15. Cophtisches Lied II "Geh! Gehorche meinen Winken"
11. Goethe-Lieder: No. 16. Frech und froh I "Mit Mädchen sich vertragen"
12. Goethe-Lieder: No. 17. Frech und froh II "Liebesqual verschmäht mein Herz"
13. Goethe-Lieder: No. 18. Beherzigung "Ach, was soll der Mensch verlangen?"
14. Goethe-Lieder: No. 49. Prometheus "Bedecke deinen Himmel, Zeus"
15. Goethe-Lieder: No. 50. Ganymed "Wie im Morgenglanze"
16. Goethe-Lieder: No. 51. Grenzen der Menschheit "Wenn der uralte heilige Vater"
17. Goethe-Lieder: No. 19. Epiphanias "Die heiligen drei König'"
18. Goethe-Lieder: No. 20. St. Nepomuks Vorabend "Lichtlein schwimmen"
19. Goethe-Lieder: No. 21. Genialisch Treiben "So wälz' ich ohne Unterlaß"
20. Goethe-Lieder: No. 22. Der Schäfer "Es war ein fauler Schäfer"
21. Goethe-Lieder: No. 23. Der neue Amadis "Als ich noch ein Knabe war"


Disc 4 (32 / 1:15:56)

01. Goethe-Lieder: No. 24. Blumengruß "Der Strauß, den ich gepflücket"
02. Goethe-Lieder: No. 25. Gleich und Gleich "Ein Blumenglöckchen vom Boden"
03. Goethe-Lieder: No. 28. Frühling über's Jahr "Das Beet, schon lockert sich's in die Höh'!"
04. Goethe-Lieder: No. 29. Anakreons Grab "Wo die Rose hier blüht"
05. Goethe-Lieder: No. 30. Dank der Paria "Großer Brahma!"
06. Goethe-Lieder: No. 31. Königlich Gebet "Ha, ich bin der Herr der Welt"
07. Goethe-Lieder: No. 32. Phänomen "Wenn zu der Regenwand"
08. Goethe-Lieder: No. 33. Erschaffen und Beleben "Hans Adam war"
09. Goethe-Lieder: No. 34. Ob der Koran von Ewigkeit sei?
10. Goethe-Lieder: No. 35. Trunken müssen wir alle sein!
11. Goethe-Lieder: No. 36. So lang man nüchtern ist
12. Goethe-Lieder: No. 38. Was in der Schenke waren heute
13. Goethe-Lieder: No. 39. Nicht Gelegenheit macht Diebe
14. Goethe-Lieder: No. 42. Dies zu deuten, bin erbötig!
15. Goethe-Lieder: No. 43. Hätt' ich irgend wohl Bedenken
16. Goethe-Lieder: No. 44. Komm, Liebchen, komm!
17. Goethe-Lieder: No. 45. Wie sollt' ich heiter bleiben
18. Goethe-Lieder: No. 46. Wenn ich dein gedenke
19. Goethe-Lieder: No. 47. Locken, haltet mich gefangen
20. Gedichte von Scheffel, Mörike, Goethe und Kerner: No. 4. Beherzigung "Feiger Gedanken"
21. Gedichte von Scheffel, Mörike, Goethe und Kerner: No. 5. Wandrers Nachtlied
22. Nachgelassene Lieder II: No. 11. Mädchen mit dem roten Mündchen
23. Nachgelassene Lieder II: No. 12. Du bist wie eine Blume
24. Gedichte nach Heine, Shakespeare und Lord Byron: No. 1. Wo wird einst
25. Nachgelassene Lieder II: No. 13. Wenn ich in deine Augen seh'
26. Nachgelassene Lieder II: No. 14. Spätherbstnebel
27. Nachgelassene Lieder II: No. 15. Mit schwarzen Segeln
28. Nachgelassene Lieder II: No. 17. Wie des Mondes Abbild zittert
29. Nachgelassene Lieder II: No. 20. Frage nicht "Wie sehr ich Dein, soll ich Dir sagen?"
30. Nachgelassene Lieder II: No. 21. Herbst "Nun ist es Herbst"
31. Nachgelassene Lieder II: No. 18. Abendbilder
32. Nachgelassene Lieder II: No. 19. Herbstentschluß "Trübe Wolken, Herbstesluft"


Disc 5 (28 / 58:01)

01. Eichendorff-Lieder: No. 1. Der Freund "Wer auf den Wogen schliefe"
02. Eichendorff-Lieder: No. 2. Der Musikant "Wandern lieb' ich für mein Leben"
03. Eichendorff-Lieder: No. 3. Verschwiegene Liebe "Über Wipfel und Saaten"
04. Eichendorff-Lieder: No. 4. Das Ständchen "Auf die Dächer zwischen blassen Wolken"
05. Eichendorff-Lieder: No. 5. Der Soldat I "Ist auch schmuck nicht mein Rößlein"
06. Eichendorff-Lieder: No. 6. Der Soldat II "Wagen mußt du"
07. Eichendorff-Lieder: No. 8. Nachtzauber "Hörst du nicht die Quellen gehen"
08. Eichendorff-Lieder: No. 9. Der Schreckenberger "Aufs Wohlsein meiner Dame"
09. Eichendorff-Lieder: No. 10. Der Glücksritter "Wenn Fortuna spröde tut"
10. Eichendorff-Lieder: No. 11. Lieber Alles "Soldat sein, ist gefährlich"
11. Eichendorff-Lieder: No. 12. Heimweh "Wer in die Fremde will wandern"
12. Eichendorff-Lieder: No. 13. Der Scholar "Bei dem angenehmsten Wetter"
13. Eichendorff-Lieder: No. 14. Der verzweifelte Liebhaber "Studieren will nichts bringen"
14. Eichendorff-Lieder: No. 15. Unfall "Ich ging bei Nacht einst über Land"
15. Eichendorff-Lieder: No. 16. Liebesglück "Ich hab' ein Liebchen lieb"
16. Eichendorff-Lieder: No. 17. Seemanns Abschied "Ade, mein Schatz"
17. Eichendorff-Lieder: No. 18. Erwartung "Grüß' euch aus Herzensgrund"
18. Eichendorff-Lieder: No. 19. Die Nacht "Nacht ist wie ein stilles Meer"
19. Nachgelassene Lieder II: No. 1. Ein Grab "Wenn des Mondes bleiches Licht"
20. Nachgelassene Lieder II: No. 2. Andenken "Ich denke dein"
21. Nachgelassene Lieder II: No. 3. Ständchen "Alles wiegt die stille Nacht"
22. Nachgelassene Lieder II: No. 4. Der Schwalben Heimkehr "Wenn die Schwalben heimwärts ziehn"
23. Nachgelassene Lieder II: No. 5. Knabentod "Vom Berg der Knab"
24. Nachgelassene Lieder II: No. 6. Liebesfrühling "Wie oft schon ward es Frühling"
25. Nachgelassene Lieder II: No. 7. Auf der Wanderung "Über die Hügel"
26. Nachgelassene Lieder II: No. 8. Ja, die Schönst'! Ich sagt' es offen
27. Nachgelassene Lieder II: No. 9. Nach dem Abschiede "Dunkel sind nun alle Gassen"
28. Nachgelassene Lieder I: No. 13. Über Nacht


Disc 6 (24 / 1:09:36)

01. Nachgelassene Lieder II: No. 24. Nachruf "Du liebe, treue Laute"
02. Nachgelassene Lieder II: No. 25. In der Fremde I "Da fahr' ich still im Wagen"
03. Nachgelassene Lieder II: No. 26. In der Fremde II "Ich geh' durch die dunklen Gassen"
04. Nachgelassene Lieder II: No. 27. In der Fremde IV "Wolken, wälderwärts gegangen"
05. Nachgelassene Lieder II: No. 28. Rückkehr "Mit meinem Saitenspiele"
06. Gedichte von Scheffel, Mörike, Goethe und Kerner: No. 6. Zur Ruh', zur Ruh'
07. Gedichte von Scheffel, Mörike, Goethe und Kerner: No. 3. Biterolf "Kampfmüd' und sonnverbrannt"
08. Gedichte von Scheffel, Mörike, Goethe und Kerner: No. 1. Wächterlied auf der Wartburg "Schwingt Euch auf, Posaunenchöre"
09. Nachgelassene Lieder II: No. 30a. Wohin mit der Freud? "Ach du klar blauer Himmel"
10. Nachgelassene Lieder II: No. 30b. Liebchen, wo bist du? "Zaubrer bin ich"
11. Nachgelassene Lieder II: No. 30c. Nachtgruß "In dem Himmel ruht die Erde"
12. Nachgelassene Lieder II: No. 30d. Frühlingsglocken "Schneeglöckchen tut läuten!"
13. Nachgelassene Lieder II: No. 30d. Ständchen "Komm in die stille Nacht!"
14. Nachgelassene Lieder II: No. 30e. Liebesbotschaft "Wolken, die ihr nach Osten eilt"
15. Gedichte von Robert Reinick: No. 1. Gesellenlied "Kein Meister fällt vom Himmel!"
16. Gedichte von Robert Reinick: No. 3. Skolie "Reich den Pokal mir schäumenden Weines voll"
17. Nachgelassene Lieder II: No. 31. Frohe Botschaft "Hielt die allerschönste Herrin"
18. Gedichte nach Heine, Shakespeare und Lord Byron: No. 2. Lied des transferierten Zettel "Die Schwalbe, die den Sommer bringt"
19. Gedichte von Robert Reinick: No. 2. Morgenstimmung "Bald ist der Nacht ein End' gemacht"
20. Gedichte nach Heine, Shakespeare und Lord Byron: No. 4. Keine gleicht von allen Schönen
21. Gedichte nach Heine, Shakespeare und Lord Byron: No. 3. Sonne der Schlummerlosen
22. Gedichte von Michelangelo: No. 1. Wohl denk' ich oft an mein vergangnes Leben
23. Gedichte von Michelangelo: No. 2. Alles endet, was entstehet
24. Gedichte von Michelangelo: No. 3. Fühlt meine Seele das ersehnte Licht

Exact Audio Copy V0.99 prebeta 5 from 4. May 2009

EAC extraction logfile from 27. July 2011, 14:48

Dietrich Fischer-Dieskau/Daniel Barenboim / Hugo Wolf - Lieder vol.1

Used drive : TSSTcorpCDDVDW TS-L633C Adapter: 2 ID: 0

Read mode : Secure
Utilize accurate stream : Yes
Defeat audio cache : Yes
Make use of C2 pointers : No

Read offset correction : 6
Overread into Lead-In and Lead-Out : No
Fill up missing offset samples with silence : Yes
Delete leading and trailing silent blocks : No
Null samples used in CRC calculations : Yes
Used interface : Installed external ASPI interface
Gap handling : Appended to previous track

Used output format : User Defined Encoder
Selected bitrate : 768 kBit/s
Quality : High
Add ID3 tag : No
Command line compressor : C:\Program Files\Exact Audio Copy\FLAC\FLAC.EXE
Additional command line options : -6 -V -T "ARTIST=%a" -T "TITLE=%t" -T "ALBUM=%g" -T "DATE=%y" -T "TRACKNUMBER=%n" -T "GENRE=%m" -T "COMMENT=%e" %s -o %d


TOC of the extracted CD

Track | Start | Length | Start sector | End sector
––––––––––––––––––––––––––––-
1 | 0:00.33 | 4:36.00 | 33 | 20732
2 | 4:36.33 | 3:25.00 | 20733 | 36107
3 | 8:01.33 | 0:57.00 | 36108 | 40382
4 | 8:58.33 | 2:42.00 | 40383 | 52532
5 | 11:40.33 | 1:21.00 | 52533 | 58607
6 | 13:01.33 | 1:21.00 | 58608 | 64682
7 | 14:22.33 | 2:25.00 | 64683 | 75557
8 | 16:47.33 | 2:48.00 | 75558 | 88157
9 | 19:35.33 | 6:58.00 | 88158 | 119507
10 | 26:33.33 | 2:59.00 | 119508 | 132932
11 | 29:32.33 | 5:05.00 | 132933 | 155807
12 | 34:37.33 | 3:12.00 | 155808 | 170207
13 | 37:49.33 | 1:30.00 | 170208 | 176957
14 | 39:19.33 | 2:00.00 | 176958 | 185957
15 | 41:19.33 | 3:32.00 | 185958 | 201857
16 | 44:51.33 | 6:17.00 | 201858 | 230132
17 | 51:08.33 | 2:03.00 | 230133 | 239357
18 | 53:11.33 | 3:00.00 | 239358 | 252857
19 | 56:11.33 | 2:29.00 | 252858 | 264032
20 | 58:40.33 | 2:24.00 | 264033 | 274832
21 | 61:04.33 | 4:06.00 | 274833 | 293282


Track 1

Filename C:\ista\Dietrich Fischer-Dieskau,Daniel Barenboim\Hugo Wolf - Lieder vol.1\01-Der Genesene an die Hoffnung.wav

Pre-gap length 0:00:02.33

Peak level 66.1 %
Track quality 100.0 %
Test CRC D7E171B9
Copy CRC D7E171B9
Cannot be verified as accurate (confidence 4) [61834A3B], AccurateRip returned [3EFEBA7E]
Copy OK

Track 2

Filename C:\ista\Dietrich Fischer-Dieskau,Daniel Barenboim\Hugo Wolf - Lieder vol.1\02-Der knabe und das Immlein.wav

Peak level 55.8 %
Track quality 100.0 %
Test CRC 41249851
Copy CRC 41249851
Cannot be verified as accurate (confidence 4) [D24C5D16], AccurateRip returned [1771C940]
Copy OK

Track 3

Filename C:\ista\Dietrich Fischer-Dieskau,Daniel Barenboim\Hugo Wolf - Lieder vol.1\03-Jдgerlied.wav

Peak level 79.0 %
Track quality 100.0 %
Test CRC B6CCDDD3
Copy CRC B6CCDDD3
Cannot be verified as accurate (confidence 4) [F3CE35B8], AccurateRip returned [89934622]
Copy OK

Track 4

Filename C:\ista\Dietrich Fischer-Dieskau,Daniel Barenboim\Hugo Wolf - Lieder vol.1\04-Der tambour.wav

Peak level 68.2 %
Track quality 100.0 %
Test CRC 3BA2B3EA
Copy CRC 3BA2B3EA
Cannot be verified as accurate (confidence 3) [C537FE96], AccurateRip returned [85998854]
Copy OK

Track 5

Filename C:\ista\Dietrich Fischer-Dieskau,Daniel Barenboim\Hugo Wolf - Lieder vol.1\05-Er istґs.wav

Peak level 65.3 %
Track quality 99.8 %
Test CRC 4620B85A
Copy CRC 4620B85A
Cannot be verified as accurate (confidence 4) [71AB75FF], AccurateRip returned [CA1286EB]
Copy OK

Track 6

Filename C:\ista\Dietrich Fischer-Dieskau,Daniel Barenboim\Hugo Wolf - Lieder vol.1\06-Begegnung.wav

Peak level 58.4 %
Track quality 99.8 %
Test CRC 53D76313
Copy CRC 53D76313
Cannot be verified as accurate (confidence 4) [D6B98F7A], AccurateRip returned [C3ECC9B0]
Copy OK

Track 7

Filename C:\ista\Dietrich Fischer-Dieskau,Daniel Barenboim\Hugo Wolf - Lieder vol.1\07-Nimmersatte liebe.wav

Peak level 88.9 %
Track quality 100.0 %
Test CRC 86999A5D
Copy CRC 86999A5D
Cannot be verified as accurate (confidence 4) [9FE51A07], AccurateRip returned [3CF9BA5F]
Copy OK

Track 8

Filename C:\ista\Dietrich Fischer-Dieskau,Daniel Barenboim\Hugo Wolf - Lieder vol.1\08-FuSraise.wav

Peak level 67.6 %
Track quality 99.9 %
Test CRC 7772A2D1
Copy CRC 7772A2D1
Cannot be verified as accurate (confidence 4) [296030CA], AccurateRip returned [53D008C3]
Copy OK

Track 9

Filename C:\ista\Dietrich Fischer-Dieskau,Daniel Barenboim\Hugo Wolf - Lieder vol.1\09-An eine Дolsharfe.wav

Peak level 66.4 %
Track quality 100.0 %
Test CRC 0EE0597F
Copy CRC 0EE0597F
Cannot be verified as accurate (confidence 4) [7C64EC98], AccurateRip returned [845431E1]
Copy OK

Track 10

Filename C:\ista\Dietrich Fischer-Dieskau,Daniel Barenboim\Hugo Wolf - Lieder vol.1\10-Verborgenheit.wav

Peak level 72.9 %
Track quality 99.9 %
Test CRC BC23FB36
Copy CRC BC23FB36
Cannot be verified as accurate (confidence 4) [D7748A8A], AccurateRip returned [CA1DEFE4]
Copy OK

Track 11

Filename C:\ista\Dietrich Fischer-Dieskau,Daniel Barenboim\Hugo Wolf - Lieder vol.1\11-Im Frьhling.wav

Peak level 61.8 %
Track quality 100.0 %
Test CRC C10F2C53
Copy CRC C10F2C53
Cannot be verified as accurate (confidence 4) [97BBC8F8], AccurateRip returned [31B2C216]
Copy OK

Track 12

Filename C:\ista\Dietrich Fischer-Dieskau,Daniel Barenboim\Hugo Wolf - Lieder vol.1\12-Auf einer Wanderung.wav

Peak level 77.3 %
Track quality 100.0 %
Test CRC 411EC57E
Copy CRC 411EC57E
Cannot be verified as accurate (confidence 4) [4107C2DD], AccurateRip returned [D60DA75E]
Copy OK

Track 13

Filename C:\ista\Dietrich Fischer-Dieskau,Daniel Barenboim\Hugo Wolf - Lieder vol.1\13-Der Gдrtner.wav

Peak level 60.1 %
Track quality 99.8 %
Test CRC 5F246E66
Copy CRC 5F246E66
Cannot be verified as accurate (confidence 4) [B4F7A9DF], AccurateRip returned [1DCFA517]
Copy OK

Track 14

Filename C:\ista\Dietrich Fischer-Dieskau,Daniel Barenboim\Hugo Wolf - Lieder vol.1\14-Zitronenfalter im April.wav

Peak level 33.1 %
Track quality 100.0 %
Test CRC 6301E678
Copy CRC 6301E678
Cannot be verified as accurate (confidence 4) [0DC4FF34], AccurateRip returned [08D37864]
Copy OK

Track 15

Filename C:\ista\Dietrich Fischer-Dieskau,Daniel Barenboim\Hugo Wolf - Lieder vol.1\15-Um Mitternacht.wav

Peak level 32.3 %
Track quality 100.0 %
Test CRC E85F89EB
Copy CRC E85F89EB
Cannot be verified as accurate (confidence 4) [179A63DF], AccurateRip returned [5D807B1C]
Copy OK

Track 16

Filename C:\ista\Dietrich Fischer-Dieskau,Daniel Barenboim\Hugo Wolf - Lieder vol.1\16-Auf eine Christblume I.wav

Peak level 56.5 %
Track quality 100.0 %
Test CRC 44E26015
Copy CRC 44E26015
Cannot be verified as accurate (confidence 4) [2DECA54C], AccurateRip returned [4402E201]
Copy OK

Track 17

Filename C:\ista\Dietrich Fischer-Dieskau,Daniel Barenboim\Hugo Wolf - Lieder vol.1\17-Auf eine Christblume II.wav

Peak level 22.9 %
Track quality 100.0 %
Test CRC ED848410
Copy CRC ED848410
Cannot be verified as accurate (confidence 4) [E500A7A9], AccurateRip returned [0AD936CE]
Copy OK

Track 18

Filename C:\ista\Dietrich Fischer-Dieskau,Daniel Barenboim\Hugo Wolf - Lieder vol.1\18-Seufzer.wav

Peak level 73.4 %
Track quality 99.9 %
Test CRC 3B4D854B
Copy CRC 3B4D854B
Cannot be verified as accurate (confidence 4) [B0AE1172], AccurateRip returned [38A7F1C7]
Copy OK

Track 19

Filename C:\ista\Dietrich Fischer-Dieskau,Daniel Barenboim\Hugo Wolf - Lieder vol.1\19-Auf ein altes Bild.wav

Peak level 26.9 %
Track quality 100.0 %
Test CRC CC432533
Copy CRC CC432533
Cannot be verified as accurate (confidence 4) [5BF05FA7], AccurateRip returned [63647701]
Copy OK

Track 20

Filename C:\ista\Dietrich Fischer-Dieskau,Daniel Barenboim\Hugo Wolf - Lieder vol.1\20-In der Frьhe.wav

Peak level 59.7 %
Track quality 100.0 %
Test CRC EF8A9227
Copy CRC EF8A9227
Cannot be verified as accurate (confidence 4) [9055FE24], AccurateRip returned [94D7A0C1]
Copy OK

Track 21

Filename C:\ista\Dietrich Fischer-Dieskau,Daniel Barenboim\Hugo Wolf - Lieder vol.1\21-Schlafendes Jesuskind.wav

Peak level 48.9 %
Track quality 100.0 %
Test CRC 61BA5E08
Copy CRC 61BA5E08
Cannot be verified as accurate (confidence 4) [E5FF804A], AccurateRip returned [EEA5D2A1]
Copy OK


No tracks could be verified as accurate
You may have a different pressing from the one(s) in the database

No errors occurred

End of status report

Exact Audio Copy V0.99 prebeta 5 from 4. May 2009

EAC extraction logfile from 27. July 2011, 15:50

Dietrich Fischer-Dieskau/Daniel Barenboim / Hugo Wolf - Lieder Vol.2

Used drive : TSSTcorpCDDVDW TS-L633C Adapter: 2 ID: 0

Read mode : Secure
Utilize accurate stream : Yes
Defeat audio cache : Yes
Make use of C2 pointers : No

Read offset correction : 6
Overread into Lead-In and Lead-Out : No
Fill up missing offset samples with silence : Yes
Delete leading and trailing silent blocks : No
Null samples used in CRC calculations : Yes
Used interface : Installed external ASPI interface
Gap handling : Appended to previous track

Used output format : User Defined Encoder
Selected bitrate : 768 kBit/s
Quality : High
Add ID3 tag : No
Command line compressor : C:\Program Files\Exact Audio Copy\FLAC\FLAC.EXE
Additional command line options : -6 -V -T "ARTIST=%a" -T "TITLE=%t" -T "ALBUM=%g" -T "DATE=%y" -T "TRACKNUMBER=%n" -T "GENRE=%m" -T "COMMENT=%e" %s -o %d


TOC of the extracted CD

Track | Start | Length | Start sector | End sector
––––––––––––––––––––––––––––-
1 | 0:00.33 | 3:48.00 | 33 | 17132
2 | 3:48.33 | 1:42.00 | 17133 | 24782
3 | 5:30.33 | 3:05.00 | 24783 | 38657
4 | 8:35.33 | 2:53.00 | 38658 | 51632
5 | 11:28.33 | 3:30.00 | 51633 | 67382
6 | 14:58.33 | 5:27.00 | 67383 | 91907
7 | 20:25.33 | 3:44.00 | 91908 | 108707
8 | 24:09.33 | 2:05.00 | 108708 | 118082
9 | 26:14.33 | 3:22.00 | 118083 | 133232
10 | 29:36.33 | 2:13.00 | 133233 | 143207
11 | 31:49.33 | 2:36.00 | 143208 | 154907
12 | 34:25.33 | 2:30.00 | 154908 | 166157
13 | 36:55.33 | 2:18.00 | 166158 | 176507
14 | 39:13.33 | 2:59.00 | 176508 | 189932
15 | 42:12.33 | 3:26.00 | 189933 | 205382
16 | 45:38.33 | 1:44.00 | 205383 | 213182
17 | 47:22.33 | 4:54.00 | 213183 | 235232
18 | 52:16.33 | 2:06.00 | 235233 | 244682
19 | 54:22.33 | 3:27.00 | 244683 | 260207
20 | 57:49.33 | 3:43.00 | 260208 | 276932
21 | 61:32.33 | 3:16.00 | 276933 | 291632
22 | 64:48.33 | 1:23.00 | 291633 | 297857
23 | 66:11.33 | 2:12.00 | 297858 | 307757
24 | 68:23.33 | 1:17.00 | 307758 | 313532
25 | 69:40.33 | 2:56.00 | 313533 | 326732
26 | 72:36.33 | 2:15.00 | 326733 | 336857


Track 1

Filename C:\ista\Dietrich Fischer-Dieskau,Daniel Barenboim\Hugo Wolf - Lieder Vol.2\01-Karwoche.wav

Pre-gap length 0:00:02.33

Peak level 30.8 %
Track quality 100.0 %
Test CRC DDCCCBF7
Copy CRC DDCCCBF7
Accurately ripped (confidence 1) [546347F5]
Copy OK

Track 2

Filename C:\ista\Dietrich Fischer-Dieskau,Daniel Barenboim\Hugo Wolf - Lieder Vol.2\02-Zum neuen Jahr.wav

Peak level 83.7 %
Track quality 100.0 %
Test CRC 124B16A2
Copy CRC 124B16A2
Accurately ripped (confidence 1) [D47A1D64]
Copy OK

Track 3

Filename C:\ista\Dietrich Fischer-Dieskau,Daniel Barenboim\Hugo Wolf - Lieder Vol.2\03-Gebet.wav

Peak level 40.6 %
Track quality 100.0 %
Test CRC 3F37CA4C
Copy CRC 3F37CA4C
Accurately ripped (confidence 1) [1463F28B]
Copy OK

Track 4

Filename C:\ista\Dietrich Fischer-Dieskau,Daniel Barenboim\Hugo Wolf - Lieder Vol.2\04-An den Schlaf.wav

Peak level 61.0 %
Track quality 99.9 %
Test CRC 2E2346C5
Copy CRC 2E2346C5
Accurately ripped (confidence 1) [9055971E]
Copy OK

Track 5

Filename C:\ista\Dietrich Fischer-Dieskau,Daniel Barenboim\Hugo Wolf - Lieder Vol.2\05-Neue liebe.wav

Peak level 69.8 %
Track quality 100.0 %
Test CRC 66AB5FF6
Copy CRC 66AB5FF6
Accurately ripped (confidence 1) [14579234]
Copy OK

Track 6

Filename C:\ista\Dietrich Fischer-Dieskau,Daniel Barenboim\Hugo Wolf - Lieder Vol.2\06-Wo findґich Trost .wav

Peak level 95.1 %
Track quality 100.0 %
Test CRC C3458029
Copy CRC C3458029
Accurately ripped (confidence 1) [F626C355]
Copy OK

Track 7

Filename C:\ista\Dietrich Fischer-Dieskau,Daniel Barenboim\Hugo Wolf - Lieder Vol.2\07-An die Geliebte.wav

Peak level 97.6 %
Track quality 100.0 %
Test CRC 57136201
Copy CRC 57136201
Accurately ripped (confidence 1) [BA3D6DA0]
Copy OK

Track 8

Filename C:\ista\Dietrich Fischer-Dieskau,Daniel Barenboim\Hugo Wolf - Lieder Vol.2\08-Peregrina I.wav

Peak level 64.3 %
Track quality 100.0 %
Test CRC EE7415D4
Copy CRC EE7415D4
Accurately ripped (confidence 1) [14DD471C]
Copy OK

Track 9

Filename C:\ista\Dietrich Fischer-Dieskau,Daniel Barenboim\Hugo Wolf - Lieder Vol.2\09-Peregrina II.wav

Peak level 73.4 %
Track quality 100.0 %
Test CRC 7E7C3F28
Copy CRC 7E7C3F28
Accurately ripped (confidence 1) [F2D1DC59]
Copy OK

Track 10

Filename C:\ista\Dietrich Fischer-Dieskau,Daniel Barenboim\Hugo Wolf - Lieder Vol.2\10-Frage und Antwort.wav

Peak level 78.7 %
Track quality 100.0 %
Test CRC 877250B3
Copy CRC 877250B3
Accurately ripped (confidence 1) [C1B9903F]
Copy OK

Track 11

Filename C:\ista\Dietrich Fischer-Dieskau,Daniel Barenboim\Hugo Wolf - Lieder Vol.2\11-Lebewohl.wav

Peak level 93.5 %
Track quality 100.0 %
Test CRC 333031A9
Copy CRC 333031A9
Accurately ripped (confidence 1) [26308350]
Copy OK

Track 12

Filename C:\ista\Dietrich Fischer-Dieskau,Daniel Barenboim\Hugo Wolf - Lieder Vol.2\12-Heimweh.wav

Peak level 40.5 %
Track quality 100.0 %
Test CRC 007EFF38
Copy CRC 007EFF38
Accurately ripped (confidence 1) [0F819473]
Copy OK

Track 13

Filename C:\ista\Dietrich Fischer-Dieskau,Daniel Barenboim\Hugo Wolf - Lieder Vol.2\13-Lied vom Winde.wav

Peak level 99.7 %
Track quality 100.0 %
Test CRC E4362223
Copy CRC E4362223
Accurately ripped (confidence 1) [8D86F048]
Copy OK

Track 14

Filename C:\ista\Dietrich Fischer-Dieskau,Daniel Barenboim\Hugo Wolf - Lieder Vol.2\14-Denk es,o Seele!.wav

Peak level 95.6 %
Track quality 99.9 %
Test CRC A62A2AEA
Copy CRC A62A2AEA
Accurately ripped (confidence 1) [22C3144F]
Copy OK

Track 15

Filename C:\ista\Dietrich Fischer-Dieskau,Daniel Barenboim\Hugo Wolf - Lieder Vol.2\15-Der jдger.wav

Peak level 95.8 %
Track quality 100.0 %
Test CRC 6901F853
Copy CRC 6901F853
Accurately ripped (confidence 1) [BC5880E1]
Copy OK

Track 16

Filename C:\ista\Dietrich Fischer-Dieskau,Daniel Barenboim\Hugo Wolf - Lieder Vol.2\16-Lied eines Verliebten.wav

Peak level 57.6 %
Track quality 100.0 %
Test CRC EE4895FE
Copy CRC EE4895FE
Accurately ripped (confidence 1) [388882DF]
Copy OK

Track 17

Filename C:\ista\Dietrich Fischer-Dieskau,Daniel Barenboim\Hugo Wolf - Lieder Vol.2\17-Der Feuerreiter.wav

Peak level 80.0 %
Track quality 100.0 %
Test CRC AC3B94A3
Copy CRC AC3B94A3
Accurately ripped (confidence 1) [C4A497D5]
Copy OK

Track 18

Filename C:\ista\Dietrich Fischer-Dieskau,Daniel Barenboim\Hugo Wolf - Lieder Vol.2\18-Gesang Weylas.wav

Peak level 47.9 %
Track quality 100.0 %
Test CRC 6E65B15A
Copy CRC 6E65B15A
Accurately ripped (confidence 1) [C6CCDB90]
Copy OK

Track 19

Filename C:\ista\Dietrich Fischer-Dieskau,Daniel Barenboim\Hugo Wolf - Lieder Vol.2\19-Die Geister am Mummelsse.wav

Peak level 90.1 %
Track quality 100.0 %
Test CRC 1942D4B7
Copy CRC 1942D4B7
Accurately ripped (confidence 1) [74267382]
Copy OK

Track 20

Filename C:\ista\Dietrich Fischer-Dieskau,Daniel Barenboim\Hugo Wolf - Lieder Vol.2\20-Storchenbotschaft.wav

Peak level 96.2 %
Track quality 100.0 %
Test CRC 51A1E8D7
Copy CRC 51A1E8D7
Accurately ripped (confidence 1) [3F928F88]
Copy OK

Track 21

Filename C:\ista\Dietrich Fischer-Dieskau,Daniel Barenboim\Hugo Wolf - Lieder Vol.2\21-Zur Warnung.wav

Peak level 74.0 %
Track quality 100.0 %
Test CRC 2FEADC13
Copy CRC 2FEADC13
Accurately ripped (confidence 1) [1E2C1F91]
Copy OK

Track 22

Filename C:\ista\Dietrich Fischer-Dieskau,Daniel Barenboim\Hugo Wolf - Lieder Vol.2\22-Auftrag.wav

Peak level 76.2 %
Track quality 99.8 %
Test CRC E8C3CC13
Copy CRC E8C3CC13
Accurately ripped (confidence 1) [1910E819]
Copy OK

Track 23

Filename C:\ista\Dietrich Fischer-Dieskau,Daniel Barenboim\Hugo Wolf - Lieder Vol.2\23-Bei einer Trauung.wav

Peak level 61.3 %
Track quality 100.0 %
Test CRC 0448BF32
Copy CRC 0448BF32
Accurately ripped (confidence 1) [89D45828]
Copy OK

Track 24

Filename C:\ista\Dietrich Fischer-Dieskau,Daniel Barenboim\Hugo Wolf - Lieder Vol.2\24-Selbstgestдndnis.wav

Peak level 94.7 %
Track quality 100.0 %
Test CRC CE468DF8
Copy CRC CE468DF8
Accurately ripped (confidence 1) [56729471]
Copy OK

Track 25

Filename C:\ista\Dietrich Fischer-Dieskau,Daniel Barenboim\Hugo Wolf - Lieder Vol.2\25-Abschied.wav

Peak level 90.6 %
Track quality 99.9 %
Test CRC 693148B7
Copy CRC 693148B7
Accurately ripped (confidence 1) [7FAA954F]
Copy OK

Track 26

Filename C:\ista\Dietrich Fischer-Dieskau,Daniel Barenboim\Hugo Wolf - Lieder Vol.2\26-Der kцnig bei der krцnung.wav

Peak level 72.6 %
Track quality 100.0 %
Test CRC F72C70B5
Copy CRC F72C70B5
Accurately ripped (confidence 1) [3FABC678]
Copy OK


All tracks accurately ripped

No errors occurred

End of status report

Exact Audio Copy V0.99 prebeta 5 from 4. May 2009

EAC extraction logfile from 27. July 2011, 16:49

Dietrich Fischer-Dieskau/Daniel Barenboim / Hugo Wolf - Lieder Vol.3

Used drive : TSSTcorpCDDVDW TS-L633C Adapter: 2 ID: 0

Read mode : Secure
Utilize accurate stream : Yes
Defeat audio cache : Yes
Make use of C2 pointers : No

Read offset correction : 6
Overread into Lead-In and Lead-Out : No
Fill up missing offset samples with silence : Yes
Delete leading and trailing silent blocks : No
Null samples used in CRC calculations : Yes
Used interface : Installed external ASPI interface
Gap handling : Appended to previous track

Used output format : User Defined Encoder
Selected bitrate : 768 kBit/s
Quality : High
Add ID3 tag : No
Command line compressor : C:\Program Files\Exact Audio Copy\FLAC\FLAC.EXE
Additional command line options : -6 -V -T "ARTIST=%a" -T "TITLE=%t" -T "ALBUM=%g" -T "DATE=%y" -T "TRACKNUMBER=%n" -T "GENRE=%m" -T "COMMENT=%e" %s -o %d


TOC of the extracted CD

Track | Start | Length | Start sector | End sector
––––––––––––––––––––––––––––-
1 | 0:00.33 | 4:40.00 | 33 | 21032
2 | 4:40.33 | 2:23.00 | 21033 | 31757
3 | 7:03.33 | 3:13.00 | 31758 | 46232
4 | 10:16.33 | 2:05.00 | 46233 | 55607
5 | 12:21.33 | 7:20.00 | 55608 | 88607
6 | 19:41.33 | 2:32.00 | 88608 | 100007
7 | 22:13.33 | 5:57.00 | 100008 | 126782
8 | 28:10.33 | 5:27.00 | 126783 | 151307
9 | 33:37.33 | 3:03.00 | 151308 | 165032
10 | 36:40.33 | 2:05.00 | 165033 | 174407
11 | 38:45.33 | 1:18.00 | 174408 | 180257
12 | 40:03.33 | 1:04.00 | 180258 | 185057
13 | 41:07.33 | 2:47.00 | 185058 | 197582
14 | 43:54.33 | 8:13.00 | 197583 | 234557
15 | 52:07.33 | 5:03.00 | 234558 | 257282
16 | 57:10.33 | 7:25.00 | 257283 | 290657
17 | 64:35.33 | 4:07.00 | 290658 | 309182
18 | 68:42.33 | 2:28.00 | 309183 | 320282
19 | 71:10.33 | 1:09.00 | 320283 | 325457
20 | 72:19.33 | 2:23.00 | 325458 | 336182
21 | 74:42.33 | 2:18.00 | 336183 | 346532


Track 1

Filename C:\ista\Dietrich Fischer-Dieskau,Daniel Barenboim\Hugo Wolf - Lieder Vol.3\01-Harfenspieler I.wav

Pre-gap length 0:00:02.33

Peak level 71.3 %
Track quality 100.0 %
Test CRC 2321ED35
Copy CRC 2321ED35
Accurately ripped (confidence 1) [E11410B9]
Copy OK

Track 2

Filename C:\ista\Dietrich Fischer-Dieskau,Daniel Barenboim\Hugo Wolf - Lieder Vol.3\02-Harfenspielen II.wav

Peak level 37.8 %
Track quality 100.0 %
Test CRC C3F77F71
Copy CRC C3F77F71
Accurately ripped (confidence 1) [7D430D47]
Copy OK

Track 3

Filename C:\ista\Dietrich Fischer-Dieskau,Daniel Barenboim\Hugo Wolf - Lieder Vol.3\03-Harfenspielen III.wav

Peak level 87.5 %
Track quality 100.0 %
Test CRC 65F02CF4
Copy CRC 65F02CF4
Accurately ripped (confidence 1) [F79CEC71]
Copy OK

Track 4

Filename C:\ista\Dietrich Fischer-Dieskau,Daniel Barenboim\Hugo Wolf - Lieder Vol.3\04-Spottlied.wav

Peak level 80.8 %
Track quality 100.0 %
Test CRC 5ABF4E24
Copy CRC 5ABF4E24
Accurately ripped (confidence 1) [89186C44]
Copy OK

Track 5

Filename C:\ista\Dietrich Fischer-Dieskau,Daniel Barenboim\Hugo Wolf - Lieder Vol.3\05-Der Sдnger.wav

Peak level 83.1 %
Track quality 100.0 %
Test CRC E0EBFADC
Copy CRC E0EBFADC
Accurately ripped (confidence 1) [85A4F9FD]
Copy OK

Track 6

Filename C:\ista\Dietrich Fischer-Dieskau,Daniel Barenboim\Hugo Wolf - Lieder Vol.3\06-Der Rattenfдnger.wav

Peak level 75.7 %
Track quality 100.0 %
Test CRC 6C7A4523
Copy CRC 6C7A4523
Accurately ripped (confidence 1) [6348088D]
Copy OK

Track 7

Filename C:\ista\Dietrich Fischer-Dieskau,Daniel Barenboim\Hugo Wolf - Lieder Vol.3\07-Ritter Kurts Brautfahrt.wav

Peak level 95.8 %
Track quality 100.0 %
Test CRC 7D2A8296
Copy CRC 7D2A8296
Accurately ripped (confidence 1) [5E2B8382]
Copy OK

Track 8

Filename C:\ista\Dietrich Fischer-Dieskau,Daniel Barenboim\Hugo Wolf - Lieder Vol.3\08-Gutmann und Gutweib.wav

Peak level 83.2 %
Track quality 100.0 %
Test CRC 52656A1D
Copy CRC 52656A1D
Accurately ripped (confidence 1) [69B1B22E]
Copy OK

Track 9

Filename C:\ista\Dietrich Fischer-Dieskau,Daniel Barenboim\Hugo Wolf - Lieder Vol.3\09-Cophtisches lied I.wav

Peak level 75.5 %
Track quality 100.0 %
Test CRC C46865B1
Copy CRC C46865B1
Accurately ripped (confidence 1) [9D554427]
Copy OK

Track 10

Filename C:\ista\Dietrich Fischer-Dieskau,Daniel Barenboim\Hugo Wolf - Lieder Vol.3\10-Cophtisches lied II.wav

Peak level 72.2 %
Track quality 100.0 %
Test CRC D895ADAB
Copy CRC D895ADAB
Accurately ripped (confidence 1) [2F1F4B09]
Copy OK

Track 11

Filename C:\ista\Dietrich Fischer-Dieskau,Daniel Barenboim\Hugo Wolf - Lieder Vol.3\11-Frech und froh I.wav

Peak level 76.1 %
Track quality 99.8 %
Test CRC 127F29D4
Copy CRC 127F29D4
Accurately ripped (confidence 1) [3C7945A5]
Copy OK

Track 12

Filename C:\ista\Dietrich Fischer-Dieskau,Daniel Barenboim\Hugo Wolf - Lieder Vol.3\12-Frech und froh II.wav

Peak level 65.4 %
Track quality 100.0 %
Test CRC CA3BDA8E
Copy CRC CA3BDA8E
Accurately ripped (confidence 1) [5F5C120E]
Copy OK

Track 13

Filename C:\ista\Dietrich Fischer-Dieskau,Daniel Barenboim\Hugo Wolf - Lieder Vol.3\13-Beherzigung.wav

Peak level 66.9 %
Track quality 100.0 %
Test CRC E126DEB8
Copy CRC E126DEB8
Accurately ripped (confidence 1) [8E08B397]
Copy OK

Track 14

Filename C:\ista\Dietrich Fischer-Dieskau,Daniel Barenboim\Hugo Wolf - Lieder Vol.3\14-Prometheus.wav

Peak level 87.8 %
Track quality 100.0 %
Test CRC 69DF01DB
Copy CRC 69DF01DB
Accurately ripped (confidence 1) [B95E5C01]
Copy OK

Track 15

Filename C:\ista\Dietrich Fischer-Dieskau,Daniel Barenboim\Hugo Wolf - Lieder Vol.3\15-Ganymed.wav

Peak level 67.5 %
Track quality 100.0 %
Test CRC C9BB3AA2
Copy CRC C9BB3AA2
Accurately ripped (confidence 1) [0F6785BF]
Copy OK

Track 16

Filename C:\ista\Dietrich Fischer-Dieskau,Daniel Barenboim\Hugo Wolf - Lieder Vol.3\16-Grenzen der Menschheit.wav

Peak level 84.9 %
Track quality 100.0 %
Test CRC A60DA701
Copy CRC A60DA701
Accurately ripped (confidence 1) [7E77DFA2]
Copy OK

Track 17

Filename C:\ista\Dietrich Fischer-Dieskau,Daniel Barenboim\Hugo Wolf - Lieder Vol.3\17-Epiphanias.wav

Peak level 63.2 %
Track quality 100.0 %
Test CRC C28922AD
Copy CRC C28922AD
Accurately ripped (confidence 1) [ED563284]
Copy OK

Track 18

Filename C:\ista\Dietrich Fischer-Dieskau,Daniel Barenboim\Hugo Wolf - Lieder Vol.3\18-Sankt Nepomuks Vorabend.wav

Peak level 32.3 %
Track quality 100.0 %
Test CRC 7E030AC6
Copy CRC 7E030AC6
Accurately ripped (confidence 1) [522D1BB4]
Copy OK

Track 19

Filename C:\ista\Dietrich Fischer-Dieskau,Daniel Barenboim\Hugo Wolf - Lieder Vol.3\19-Genialisch treiben.wav

Peak level 72.8 %
Track quality 100.0 %
Test CRC 8B121BB8
Copy CRC 8B121BB8
Accurately ripped (confidence 1) [33FD229C]
Copy OK

Track 20

Filename C:\ista\Dietrich Fischer-Dieskau,Daniel Barenboim\Hugo Wolf - Lieder Vol.3\20-Der Schдfer.wav

Peak level 69.4 %
Track quality 100.0 %
Test CRC 9FC8FE85
Copy CRC 9FC8FE85
Accurately ripped (confidence 1) [64A22DF9]
Copy OK

Track 21

Filename C:\ista\Dietrich Fischer-Dieskau,Daniel Barenboim\Hugo Wolf - Lieder Vol.3\21-Der neue Amadis.wav

Peak level 89.2 %
Track quality 100.0 %
Test CRC 92A7BABF
Copy CRC 92A7BABF
Accurately ripped (confidence 1) [6E5D5E13]
Copy OK


All tracks accurately ripped

No errors occurred

End of status report

Exact Audio Copy V0.99 prebeta 5 from 4. May 2009

EAC extraction logfile from 27. July 2011, 17:49

Dietrich Fischer-Dieskau/Daniel Barenboim / Hugo Wolf - Lieder Vol 4

Used drive : TSSTcorpCDDVDW TS-L633C Adapter: 2 ID: 0

Read mode : Secure
Utilize accurate stream : Yes
Defeat audio cache : Yes
Make use of C2 pointers : No

Read offset correction : 6
Overread into Lead-In and Lead-Out : No
Fill up missing offset samples with silence : Yes
Delete leading and trailing silent blocks : No
Null samples used in CRC calculations : Yes
Used interface : Installed external ASPI interface
Gap handling : Appended to previous track

Used output format : User Defined Encoder
Selected bitrate : 768 kBit/s
Quality : High
Add ID3 tag : No
Command line compressor : C:\Program Files\Exact Audio Copy\FLAC\FLAC.EXE
Additional command line options : -6 -V -T "ARTIST=%a" -T "TITLE=%t" -T "ALBUM=%g" -T "DATE=%y" -T "TRACKNUMBER=%n" -T "GENRE=%m" -T "COMMENT=%e" %s -o %d


TOC of the extracted CD

Track | Start | Length | Start sector | End sector
––––––––––––––––––––––––––––-
1 | 0:00.33 | 1:07.00 | 33 | 5057
2 | 1:07.33 | 1:01.00 | 5058 | 9632
3 | 2:08.33 | 1:51.00 | 9633 | 17957
4 | 3:59.33 | 3:13.00 | 17958 | 32432
5 | 7:12.33 | 2:52.00 | 32433 | 45332
6 | 10:04.33 | 2:49.00 | 45333 | 58007
7 | 12:53.33 | 2:07.00 | 58008 | 67532
8 | 15:00.33 | 2:24.00 | 67533 | 78332
9 | 17:24.33 | 1:19.00 | 78333 | 84257
10 | 18:43.33 | 1:13.00 | 84258 | 89732
11 | 19:56.33 | 1:40.00 | 89733 | 97232
12 | 21:36.33 | 1:20.00 | 97233 | 103232
13 | 22:56.33 | 2:09.00 | 103233 | 112907
14 | 25:05.33 | 2:05.00 | 112908 | 122282
15 | 27:10.33 | 1:13.00 | 122283 | 127757
16 | 28:23.33 | 2:40.00 | 127758 | 139757
17 | 31:03.33 | 1:35.00 | 139758 | 146882
18 | 32:38.33 | 1:21.00 | 146883 | 152957
19 | 33:59.33 | 1:48.00 | 152958 | 161057
20 | 35:47.33 | 2:02.00 | 161058 | 170207
21 | 37:49.33 | 3:28.00 | 170208 | 185807
22 | 41:17.33 | 0:47.00 | 185808 | 189332
23 | 42:04.33 | 1:21.00 | 189333 | 195407
24 | 43:25.33 | 2:22.00 | 195408 | 206057
25 | 45:47.33 | 1:24.00 | 206058 | 212357
26 | 47:11.33 | 3:08.00 | 212358 | 226457
27 | 50:19.33 | 0:49.00 | 226458 | 230132
28 | 51:08.33 | 3:11.00 | 230133 | 244457
29 | 54:19.33 | 3:10.00 | 244458 | 258707
30 | 57:29.33 | 3:21.00 | 258708 | 273782
31 | 60:50.33 | 10:11.00 | 273783 | 319607
32 | 71:01.33 | 4:55.00 | 319608 | 341732


Track 1

Filename C:\ista\Dietrich Fischer-Dieskau,Daniel Barenboim\Hugo Wolf - Lieder Vol 4\01-BlumengruS.wav

Pre-gap length 0:00:02.33

Peak level 55.2 %
Track quality 100.0 %
Test CRC 6636D02F
Copy CRC 6636D02F
Accurately ripped (confidence 1) [DD027E78]
Copy OK

Track 2

Filename C:\ista\Dietrich Fischer-Dieskau,Daniel Barenboim\Hugo Wolf - Lieder Vol 4\02-Gleich und gleich.wav

Peak level 21.0 %
Track quality 100.0 %
Test CRC 9C98A50E
Copy CRC 9C98A50E
Accurately ripped (confidence 1) [4304B817]
Copy OK

Track 3

Filename C:\ista\Dietrich Fischer-Dieskau,Daniel Barenboim\Hugo Wolf - Lieder Vol 4\03-Frьhling ьbers jahr.wav

Peak level 97.8 %
Track quality 100.0 %
Test CRC EBA820E7
Copy CRC EBA820E7
Accurately ripped (confidence 1) [FAD6B95F]
Copy OK

Track 4

Filename C:\ista\Dietrich Fischer-Dieskau,Daniel Barenboim\Hugo Wolf - Lieder Vol 4\04-Anakreons grab.wav

Peak level 36.0 %
Track quality 100.0 %
Test CRC 7C02CB7C
Copy CRC 7C02CB7C
Accurately ripped (confidence 1) [1C604CB4]
Copy OK

Track 5

Filename C:\ista\Dietrich Fischer-Dieskau,Daniel Barenboim\Hugo Wolf - Lieder Vol 4\05-Dank der Paria.wav

Peak level 91.0 %
Track quality 99.9 %
Test CRC B37CDBC9
Copy CRC B37CDBC9
Accurately ripped (confidence 1) [318FB103]
Copy OK

Track 6

Filename C:\ista\Dietrich Fischer-Dieskau,Daniel Barenboim\Hugo Wolf - Lieder Vol 4\06-Kцniglich Gebet.wav

Peak level 96.3 %
Track quality 99.9 %
Test CRC 7882F464
Copy CRC 7882F464
Accurately ripped (confidence 1) [90388510]
Copy OK

Track 7

Filename C:\ista\Dietrich Fischer-Dieskau,Daniel Barenboim\Hugo Wolf - Lieder Vol 4\07-Phдnomen.wav

Peak level 37.1 %
Track quality 100.0 %
Test CRC 50055978
Copy CRC 50055978
Accurately ripped (confidence 1) [78A99F78]
Copy OK

Track 8

Filename C:\ista\Dietrich Fischer-Dieskau,Daniel Barenboim\Hugo Wolf - Lieder Vol 4\08-Erschaffen und Beleben.wav

Peak level 79.0 %
Track quality 100.0 %
Test CRC ABFFA86A
Copy CRC ABFFA86A
Accurately ripped (confidence 1) [0E281576]
Copy OK

Track 9

Filename C:\ista\Dietrich Fischer-Dieskau,Daniel Barenboim\Hugo Wolf - Lieder Vol 4\09-Ob der Koran von Ewigkeit sei .wav

Peak level 90.0 %
Track quality 99.8 %
Test CRC 7B0D93FC
Copy CRC 7B0D93FC
Accurately ripped (confidence 1) [DCF0254E]
Copy OK

Track 10

Filename C:\ista\Dietrich Fischer-Dieskau,Daniel Barenboim\Hugo Wolf - Lieder Vol 4\10-Trunken mьssen wir alle sein.wav

Peak level 86.4 %
Track quality 100.0 %
Test CRC 23B3E1AB
Copy CRC 23B3E1AB
Accurately ripped (confidence 1) [0D782DC5]
Copy OK

Track 11

Filename C:\ista\Dietrich Fischer-Dieskau,Daniel Barenboim\Hugo Wolf - Lieder Vol 4\11-Solang man nьchtern ist.wav

Peak level 77.5 %
Track quality 100.0 %
Test CRC 888ED7C7
Copy CRC 888ED7C7
Accurately ripped (confidence 1) [1B158F0C]
Copy OK

Track 12

Filename C:\ista\Dietrich Fischer-Dieskau,Daniel Barenboim\Hugo Wolf - Lieder Vol 4\12-Was in der Schenke waren heute.wav

Peak level 80.7 %
Track quality 99.8 %
Test CRC 95A71C39
Copy CRC 95A71C39
Accurately ripped (confidence 1) [2C7279E0]
Copy OK

Track 13

Filename C:\ista\Dietrich Fischer-Dieskau,Daniel Barenboim\Hugo Wolf - Lieder Vol 4\13-Nicht Gelegenheit macht Diebe.wav

Peak level 71.5 %
Track quality 100.0 %
Test CRC 52DDC453
Copy CRC 52DDC453
Accurately ripped (confidence 1) [C15469D9]
Copy OK

Track 14

Filename C:\ista\Dietrich Fischer-Dieskau,Daniel Barenboim\Hugo Wolf - Lieder Vol 4\14-Dies zu deuten bin erbцtig.wav

Peak level 81.3 %
Track quality 100.0 %
Test CRC 481E6E48
Copy CRC 481E6E48
Accurately ripped (confidence 1) [C6FF38B4]
Copy OK

Track 15

Filename C:\ista\Dietrich Fischer-Dieskau,Daniel Barenboim\Hugo Wolf - Lieder Vol 4\15-Hдttґich irgend wohl Bedenken.wav

Peak level 94.7 %
Track quality 100.0 %
Test CRC AF4C30BD
Copy CRC AF4C30BD
Accurately ripped (confidence 1) [9BD9AD33]
Copy OK

Track 16

Filename C:\ista\Dietrich Fischer-Dieskau,Daniel Barenboim\Hugo Wolf - Lieder Vol 4\16-Komm,Liebchen,Komm!.wav

Peak level 99.1 %
Track quality 100.0 %
Test CRC 532D9D67
Copy CRC 532D9D67
Accurately ripped (confidence 1) [A6C79683]
Copy OK

Track 17

Filename C:\ista\Dietrich Fischer-Dieskau,Daniel Barenboim\Hugo Wolf - Lieder Vol 4\17-Wie solltґich heiter bleiben.wav

Peak level 22.2 %
Track quality 100.0 %
Test CRC C3A7BCCE
Copy CRC C3A7BCCE
Accurately ripped (confidence 1) [CBF73A12]
Copy OK

Track 18

Filename C:\ista\Dietrich Fischer-Dieskau,Daniel Barenboim\Hugo Wolf - Lieder Vol 4\18-Wenn ich dein gedenke.wav

Peak level 32.1 %
Track quality 99.8 %
Test CRC 8F58AC9E
Copy CRC 8F58AC9E
Accurately ripped (confidence 1) [8C58151B]
Copy OK

Track 19

Filename C:\ista\Dietrich Fischer-Dieskau,Daniel Barenboim\Hugo Wolf - Lieder Vol 4\19-Locken,haltet mich gefangen.wav

Peak level 98.5 %
Track quality 100.0 %
Test CRC 87C63445
Copy CRC 87C63445
Accurately ripped (confidence 1) [B516013D]
Copy OK

Track 20

Filename C:\ista\Dietrich Fischer-Dieskau,Daniel Barenboim\Hugo Wolf - Lieder Vol 4\20-Beherzigung.wav

Peak level 96.6 %
Track quality 100.0 %
Test CRC 2EA1CB1D
Copy CRC 2EA1CB1D
Accurately ripped (confidence 1) [426D3484]
Copy OK

Track 21

Filename C:\ista\Dietrich Fischer-Dieskau,Daniel Barenboim\Hugo Wolf - Lieder Vol 4\21-Wandrers Nachtlied.wav

Peak level 46.4 %
Track quality 100.0 %
Test CRC 54D51D45
Copy CRC 54D51D45
Accurately ripped (confidence 1) [9C121753]
Copy OK

Track 22

Filename C:\ista\Dietrich Fischer-Dieskau,Daniel Barenboim\Hugo Wolf - Lieder Vol 4\22-Mдdchen mit dem roten Mьndchen.wav

Peak level 53.3 %
Track quality 100.0 %
Test CRC B303090A
Copy CRC B303090A
Accurately ripped (confidence 1) [30DD2694]
Copy OK

Track 23

Filename C:\ista\Dietrich Fischer-Dieskau,Daniel Barenboim\Hugo Wolf - Lieder Vol 4\23-Du bist wie eine blume.wav

Peak level 50.9 %
Track quality 99.8 %
Test CRC 7A84BEDC
Copy CRC 7A84BEDC
Accurately ripped (confidence 1) [A48D1F6E]
Copy OK

Track 24

Filename C:\ista\Dietrich Fischer-Dieskau,Daniel Barenboim\Hugo Wolf - Lieder Vol 4\24-Wo wird einst.wav

Peak level 60.7 %
Track quality 100.0 %
Test CRC D2E0BD56
Copy CRC D2E0BD56
Accurately ripped (confidence 1) [71A6A42F]
Copy OK

Track 25

Filename C:\ista\Dietrich Fischer-Dieskau,Daniel Barenboim\Hugo Wolf - Lieder Vol 4\25-Wenn ich in deine Augen sehґ.wav

Peak level 57.1 %
Track quality 99.8 %
Test CRC 5FFA08DF
Copy CRC 5FFA08DF
Accurately ripped (confidence 1) [9D04D769]
Copy OK

Track 26

Filename C:\ista\Dietrich Fischer-Dieskau,Daniel Barenboim\Hugo Wolf - Lieder Vol 4\26-Spдtherbstnebel.wav

Peak level 59.1 %
Track quality 100.0 %
Test CRC D1E9FF1B
Copy CRC D1E9FF1B
Accurately ripped (confidence 1) [13E812CC]
Copy OK

Track 27

Filename C:\ista\Dietrich Fischer-Dieskau,Daniel Barenboim\Hugo Wolf - Lieder Vol 4\27-Mit schwarzen Segeln.wav

Peak level 72.4 %
Track quality 100.0 %
Test CRC 80E2AACC
Copy CRC 80E2AACC
Accurately ripped (confidence 1) [C5155C21]
Copy OK

Track 28

Filename C:\ista\Dietrich Fischer-Dieskau,Daniel Barenboim\Hugo Wolf - Lieder Vol 4\28-Wie des Mondes Abbild zittert.wav

Peak level 49.1 %
Track quality 100.0 %
Test CRC 5FBD1A73
Copy CRC 5FBD1A73
Accurately ripped (confidence 1) [1620BA21]
Copy OK

Track 29

Filename C:\ista\Dietrich Fischer-Dieskau,Daniel Barenboim\Hugo Wolf - Lieder Vol 4\29-Frage nicht.wav

Peak level 53.6 %
Track quality 100.0 %
Test CRC FE1904F4
Copy CRC FE1904F4
Accurately ripped (confidence 1) [378B05B5]
Copy OK

Track 30

Filename C:\ista\Dietrich Fischer-Dieskau,Daniel Barenboim\Hugo Wolf - Lieder Vol 4\30-Herbst.wav

Peak level 56.1 %
Track quality 100.0 %
Test CRC 422429FB
Copy CRC 422429FB
Accurately ripped (confidence 1) [D07C06B4]
Copy OK

Track 31

Filename C:\ista\Dietrich Fischer-Dieskau,Daniel Barenboim\Hugo Wolf - Lieder Vol 4\31-Abendbilder.wav

Peak level 80.0 %
Track quality 99.9 %
Test CRC 1AA0FA5A
Copy CRC 1AA0FA5A
Accurately ripped (confidence 1) [77384180]
Copy OK

Track 32

Filename C:\ista\Dietrich Fischer-Dieskau,Daniel Barenboim\Hugo Wolf - Lieder Vol 4\32-HerbstentschluS.wav

Peak level 80.3 %
Track quality 100.0 %
Test CRC 5E21B32E
Copy CRC 5E21B32E
Accurately ripped (confidence 1) [2A7C8C6A]
Copy OK


All tracks accurately ripped

No errors occurred

End of status report

Exact Audio Copy V0.99 prebeta 5 from 4. May 2009

EAC extraction logfile from 27. July 2011, 18:49

Dietrich Fischer-Dieskau/Daniel Barenboim / Hugo Wolf - Lieder Vol 5

Used drive : TSSTcorpCDDVDW TS-L633C Adapter: 2 ID: 0

Read mode : Secure
Utilize accurate stream : Yes
Defeat audio cache : Yes
Make use of C2 pointers : No

Read offset correction : 6
Overread into Lead-In and Lead-Out : No
Fill up missing offset samples with silence : Yes
Delete leading and trailing silent blocks : No
Null samples used in CRC calculations : Yes
Used interface : Installed external ASPI interface
Gap handling : Appended to previous track

Used output format : User Defined Encoder
Selected bitrate : 768 kBit/s
Quality : High
Add ID3 tag : No
Command line compressor : C:\Program Files\Exact Audio Copy\FLAC\FLAC.EXE
Additional command line options : -6 -V -T "ARTIST=%a" -T "TITLE=%t" -T "ALBUM=%g" -T "DATE=%y" -T "TRACKNUMBER=%n" -T "GENRE=%m" -T "COMMENT=%e" %s -o %d


TOC of the extracted CD

Track | Start | Length | Start sector | End sector
––––––––––––––––––––––––––––-
1 | 0:00.33 | 2:02.00 | 33 | 9182
2 | 2:02.33 | 1:43.00 | 9183 | 16907
3 | 3:45.33 | 2:25.00 | 16908 | 27782
4 | 6:10.33 | 2:32.00 | 27783 | 39182
5 | 8:42.33 | 1:15.00 | 39183 | 44807
6 | 9:57.33 | 0:43.00 | 44808 | 48032
7 | 10:40.33 | 4:06.00 | 48033 | 66482
8 | 14:46.33 | 1:44.00 | 66483 | 74282
9 | 16:30.33 | 2:32.00 | 74283 | 85682
10 | 19:02.33 | 1:17.00 | 85683 | 91457
11 | 20:19.33 | 2:01.00 | 91458 | 100532
12 | 22:20.33 | 2:18.00 | 100533 | 110882
13 | 24:38.33 | 0:56.00 | 110883 | 115082
14 | 25:34.33 | 1:12.00 | 115083 | 120482
15 | 26:46.33 | 1:14.00 | 120483 | 126032
16 | 28:00.33 | 2:12.00 | 126033 | 135932
17 | 30:12.33 | 2:10.00 | 135933 | 145682
18 | 32:22.33 | 2:48.00 | 145683 | 158282
19 | 35:10.33 | 2:13.00 | 158283 | 168257
20 | 37:23.33 | 2:25.00 | 168258 | 179132
21 | 39:48.33 | 5:35.00 | 179133 | 204257
22 | 45:23.33 | 1:23.00 | 204258 | 210482
23 | 46:46.33 | 1:17.00 | 210483 | 216257
24 | 48:03.33 | 0:49.00 | 216258 | 219932
25 | 48:52.33 | 1:54.00 | 219933 | 228482
26 | 50:46.33 | 2:27.00 | 228483 | 239507
27 | 53:13.33 | 1:55.00 | 239508 | 248132
28 | 55:08.33 | 2:53.00 | 248133 | 261107


Track 1

Filename C:\ista\Dietrich Fischer-Dieskau,Daniel Barenboim\Hugo Wolf - Lieder Vol 5\01-Der freund.wav

Pre-gap length 0:00:02.33

Peak level 73.0 %
Track quality 100.0 %
Test CRC F1F34389
Copy CRC F1F34389
Cannot be verified as accurate (confidence 4) [839E5A9D], AccurateRip returned [AA87482B]
Copy OK

Track 2

Filename C:\ista\Dietrich Fischer-Dieskau,Daniel Barenboim\Hugo Wolf - Lieder Vol 5\02-Der Musikant.wav

Peak level 40.0 %
Track quality 100.0 %
Test CRC 004192DE
Copy CRC 004192DE
Cannot be verified as accurate (confidence 4) [4B5BD1CF], AccurateRip returned [7B57DED0]
Copy OK

Track 3

Filename C:\ista\Dietrich Fischer-Dieskau,Daniel Barenboim\Hugo Wolf - Lieder Vol 5\03-Verschwiegene liebe.wav

Peak level 43.2 %
Track quality 100.0 %
Test CRC B9602E38
Copy CRC B9602E38
Cannot be verified as accurate (confidence 4) [75C4EAA6], AccurateRip returned [7CE45019]
Copy OK

Track 4

Filename C:\ista\Dietrich Fischer-Dieskau,Daniel Barenboim\Hugo Wolf - Lieder Vol 5\04-Das Stдndchen.wav

Peak level 40.6 %
Track quality 100.0 %
Test CRC 39439C6C
Copy CRC 39439C6C
Cannot be verified as accurate (confidence 4) [ACEF6DDD], AccurateRip returned [8AEE477D]
Copy OK

Track 5

Filename C:\ista\Dietrich Fischer-Dieskau,Daniel Barenboim\Hugo Wolf - Lieder Vol 5\05-Der Soldat I.wav

Peak level 75.1 %
Track quality 100.0 %
Test CRC 761A0291
Copy CRC 761A0291
Cannot be verified as accurate (confidence 4) [5E54A603], AccurateRip returned [93489D98]
Copy OK

Track 6

Filename C:\ista\Dietrich Fischer-Dieskau,Daniel Barenboim\Hugo Wolf - Lieder Vol 5\06-Der Soldat II.wav

Peak level 54.3 %
Track quality 100.0 %
Test CRC D8714018
Copy CRC D8714018
Cannot be verified as accurate (confidence 4) [9EE63B1B], AccurateRip returned [6B516C2E]
Copy OK

Track 7

Filename C:\ista\Dietrich Fischer-Dieskau,Daniel Barenboim\Hugo Wolf - Lieder Vol 5\07-Nachtzauber.wav

Peak level 58.6 %
Track quality 100.0 %
Test CRC ECC79C54
Copy CRC ECC79C54
Cannot be verified as accurate (confidence 4) [750D38CC], AccurateRip returned [FC973EC8]
Copy OK

Track 8

Filename C:\ista\Dietrich Fischer-Dieskau,Daniel Barenboim\Hugo Wolf - Lieder Vol 5\08-Der Schreckenberger.wav

Peak level 66.1 %
Track quality 100.0 %
Test CRC 5E68264A
Copy CRC 5E68264A
Cannot be verified as accurate (confidence 4) [0B907590], AccurateRip returned [4E73A603]
Copy OK

Track 9

Filename C:\ista\Dietrich Fischer-Dieskau,Daniel Barenboim\Hugo Wolf - Lieder Vol 5\09-Der Glьcksritter.wav

Peak level 76.4 %
Track quality 100.0 %
Test CRC 9BFC0BA1
Copy CRC 9BFC0BA1
Cannot be verified as accurate (confidence 4) [25DCD9E0], AccurateRip returned [9F9072F8]
Copy OK

Track 10

Filename C:\ista\Dietrich Fischer-Dieskau,Daniel Barenboim\Hugo Wolf - Lieder Vol 5\10-Lieber alles.wav

Peak level 73.2 %
Track quality 100.0 %
Test CRC 6C320FF9
Copy CRC 6C320FF9
Cannot be verified as accurate (confidence 4) [5B9835CA], AccurateRip returned [18F9A061]
Copy OK

Track 11

Filename C:\ista\Dietrich Fischer-Dieskau,Daniel Barenboim\Hugo Wolf - Lieder Vol 5\11-Heimweh.wav

Peak level 73.2 %
Track quality 100.0 %
Test CRC 44072D94
Copy CRC 44072D94
Cannot be verified as accurate (confidence 4) [8B4A4A4C], AccurateRip returned [45EC6C7C]
Copy OK

Track 12

Filename C:\ista\Dietrich Fischer-Dieskau,Daniel Barenboim\Hugo Wolf - Lieder Vol 5\12-Der Scholar.wav

Peak level 63.5 %
Track quality 100.0 %
Test CRC BE78FEFD
Copy CRC BE78FEFD
Cannot be verified as accurate (confidence 4) [61784823], AccurateRip returned [E0F63F00]
Copy OK

Track 13

Filename C:\ista\Dietrich Fischer-Dieskau,Daniel Barenboim\Hugo Wolf - Lieder Vol 5\13-Der verweifelte Liebhaber.wav

Peak level 70.3 %
Track quality 100.0 %
Test CRC C656B0AB
Copy CRC C656B0AB
Cannot be verified as accurate (confidence 4) [CC55D4D6], AccurateRip returned [4289D77B]
Copy OK

Track 14

Filename C:\ista\Dietrich Fischer-Dieskau,Daniel Barenboim\Hugo Wolf - Lieder Vol 5\14-Unfall.wav

Peak level 57.8 %
Track quality 100.0 %
Test CRC 643258B8
Copy CRC 643258B8
Cannot be verified as accurate (confidence 4) [3D7F962F], AccurateRip returned [6B7FFD46]
Copy OK

Track 15

Filename C:\ista\Dietrich Fischer-Dieskau,Daniel Barenboim\Hugo Wolf - Lieder Vol 5\15-Liebesglьck.wav

Peak level 71.2 %
Track quality 100.0 %
Test CRC AEA804DB
Copy CRC AEA804DB
Cannot be verified as accurate (confidence 4) [77F9318D], AccurateRip returned [91961E88]
Copy OK

Track 16

Filename C:\ista\Dietrich Fischer-Dieskau,Daniel Barenboim\Hugo Wolf - Lieder Vol 5\16-Seemanns Abschied.wav

Peak level 74.3 %
Track quality 100.0 %
Test CRC 133961FD
Copy CRC 133961FD
Cannot be verified as accurate (confidence 4) [0ADEC7B3], AccurateRip returned [1642BA5F]
Copy OK

Track 17

Filename C:\ista\Dietrich Fischer-Dieskau,Daniel Barenboim\Hugo Wolf - Lieder Vol 5\17-Erwartung.wav

Peak level 62.6 %
Track quality 100.0 %
Test CRC 46882BB0
Copy CRC 46882BB0
Cannot be verified as accurate (confidence 4) [8FA1F729], AccurateRip returned [A7C3E59B]
Copy OK

Track 18

Filename C:\ista\Dietrich Fischer-Dieskau,Daniel Barenboim\Hugo Wolf - Lieder Vol 5\18-Die nacht.wav

Peak level 26.6 %
Track quality 99.9 %
Test CRC C17714FE
Copy CRC C17714FE
Cannot be verified as accurate (confidence 4) [1ECB5796], AccurateRip returned [21A29FC2]
Copy OK

Track 19

Filename C:\ista\Dietrich Fischer-Dieskau,Daniel Barenboim\Hugo Wolf - Lieder Vol 5\19-Ein Grab.wav

Peak level 88.2 %
Track quality 100.0 %
Test CRC A777A6BF
Copy CRC A777A6BF
Cannot be verified as accurate (confidence 4) [3E01A59E], AccurateRip returned [3499BED4]
Copy OK

Track 20

Filename C:\ista\Dietrich Fischer-Dieskau,Daniel Barenboim\Hugo Wolf - Lieder Vol 5\20-Andenken.wav

Peak level 63.8 %
Track quality 100.0 %
Test CRC EE535091
Copy CRC EE535091
Cannot be verified as accurate (confidence 4) [BAB58C9A], AccurateRip returned [838FDA60]
Copy OK

Track 21

Filename C:\ista\Dietrich Fischer-Dieskau,Daniel Barenboim\Hugo Wolf - Lieder Vol 5\21-Stдndchen.wav

Peak level 78.2 %
Track quality 100.0 %
Test CRC 323EC284
Copy CRC 323EC284
Cannot be verified as accurate (confidence 4) [B5CE5C4F], AccurateRip returned [4F869A55]
Copy OK

Track 22

Filename C:\ista\Dietrich Fischer-Dieskau,Daniel Barenboim\Hugo Wolf - Lieder Vol 5\22-Der Schwalben Heimkehr.wav

Peak level 71.2 %
Track quality 99.8 %
Test CRC 7603A95C
Copy CRC 7603A95C
Cannot be verified as accurate (confidence 4) [1470F672], AccurateRip returned [1A4740E0]
Copy OK

Track 23

Filename C:\ista\Dietrich Fischer-Dieskau,Daniel Barenboim\Hugo Wolf - Lieder Vol 5\23-Knabentod.wav

Peak level 72.6 %
Track quality 100.0 %
Test CRC FDEDF232
Copy CRC FDEDF232
Cannot be verified as accurate (confidence 4) [58E43323], AccurateRip returned [6C6BF330]
Copy OK

Track 24

Filename C:\ista\Dietrich Fischer-Dieskau,Daniel Barenboim\Hugo Wolf - Lieder Vol 5\24-Liebesfrьhling.wav

Peak level 70.5 %
Track quality 100.0 %
Test CRC 0C2C9776
Copy CRC 0C2C9776
Cannot be verified as accurate (confidence 4) [0BA8413E], AccurateRip returned [0F3EE941]
Copy OK

Track 25

Filename C:\ista\Dietrich Fischer-Dieskau,Daniel Barenboim\Hugo Wolf - Lieder Vol 5\25-Auf der Wanderung.wav

Peak level 73.2 %
Track quality 100.0 %
Test CRC B22FB9D8
Copy CRC B22FB9D8
Cannot be verified as accurate (confidence 4) [7EE0177D], AccurateRip returned [13D7CE85]
Copy OK

Track 26

Filename C:\ista\Dietrich Fischer-Dieskau,Daniel Barenboim\Hugo Wolf - Lieder Vol 5\26-Ja,die Schцnstґ! Ich sagtґ es offen.wav

Peak level 72.4 %
Track quality 100.0 %
Test CRC 03E4CA43
Copy CRC 03E4CA43
Cannot be verified as accurate (confidence 4) [1A8A14D8], AccurateRip returned [F5B791CB]
Copy OK

Track 27

Filename C:\ista\Dietrich Fischer-Dieskau,Daniel Barenboim\Hugo Wolf - Lieder Vol 5\27-Nach dem Abschiede.wav

Peak level 73.2 %
Track quality 100.0 %
Test CRC 27DF660F
Copy CRC 27DF660F
Cannot be verified as accurate (confidence 4) [B54B3BFC], AccurateRip returned [C6F66EB1]
Copy OK

Track 28

Filename C:\ista\Dietrich Fischer-Dieskau,Daniel Barenboim\Hugo Wolf - Lieder Vol 5\28-Ьber Nacht.wav

Peak level 89.3 %
Track quality 99.9 %
Test CRC EE0A8F1B
Copy CRC EE0A8F1B
Cannot be verified as accurate (confidence 4) [B0219D41], AccurateRip returned [A01061A9]
Copy OK


No tracks could be verified as accurate
You may have a different pressing from the one(s) in the database

No errors occurred

End of status report

Exact Audio Copy V0.99 prebeta 5 from 4. May 2009

EAC extraction logfile from 27. July 2011, 23:37

Wolf / Lieder (CD6 - Verschiedene)

Used drive : TSSTcorpCDDVDW TS-L633C Adapter: 2 ID: 0

Read mode : Secure
Utilize accurate stream : Yes
Defeat audio cache : Yes
Make use of C2 pointers : No

Read offset correction : 6
Overread into Lead-In and Lead-Out : No
Fill up missing offset samples with silence : Yes
Delete leading and trailing silent blocks : No
Null samples used in CRC calculations : Yes
Used interface : Installed external ASPI interface
Gap handling : Appended to previous track

Used output format : User Defined Encoder
Selected bitrate : 768 kBit/s
Quality : High
Add ID3 tag : No
Command line compressor : C:\Program Files\Exact Audio Copy\FLAC\FLAC.EXE
Additional command line options : -6 -V -T "ARTIST=%a" -T "TITLE=%t" -T "ALBUM=%g" -T "DATE=%y" -T "TRACKNUMBER=%n" -T "GENRE=%m" -T "COMMENT=%e" %s -o %d


TOC of the extracted CD

Track | Start | Length | Start sector | End sector
––––––––––––––––––––––––––––-
1 | 0:00.33 | 4:02.00 | 33 | 18182
2 | 4:02.33 | 2:13.00 | 18183 | 28157
3 | 6:15.33 | 1:58.00 | 28158 | 37007
4 | 8:13.33 | 2:38.00 | 37008 | 48857
5 | 10:51.33 | 2:45.00 | 48858 | 61232
6 | 13:36.33 | 2:59.00 | 61233 | 74657
7 | 16:35.33 | 2:58.00 | 74658 | 88007
8 | 19:33.33 | 5:25.00 | 88008 | 112382
9 | 24:58.33 | 2:33.00 | 112383 | 123857
10 | 27:31.33 | 2:12.00 | 123858 | 133757
11 | 29:43.33 | 2:53.00 | 133758 | 146732
12 | 32:36.33 | 3:01.00 | 146733 | 160307
13 | 35:37.33 | 3:29.00 | 160308 | 175982
14 | 39:06.33 | 2:47.00 | 175983 | 188507
15 | 41:53.33 | 2:48.00 | 188508 | 201107
16 | 44:41.33 | 1:22.00 | 201108 | 207257
17 | 46:03.33 | 2:11.00 | 207258 | 217082
18 | 48:14.33 | 0:48.00 | 217083 | 220682
19 | 49:02.33 | 3:01.00 | 220683 | 234257
20 | 52:03.33 | 2:28.00 | 234258 | 245357
21 | 54:31.33 | 2:46.00 | 245358 | 257807
22 | 57:17.33 | 2:31.00 | 257808 | 269132
23 | 59:48.33 | 5:09.00 | 269133 | 292307
24 | 64:57.33 | 4:39.00 | 292308 | 313232


Track 1

Filename C:\ista\Wolf\Lieder (CD6 - Verschiedene)\01-Nachruf.wav

Pre-gap length 0:00:02.33

Peak level 45.9 %
Track quality 100.0 %
Test CRC 7EC8879F
Copy CRC 7EC8879F
Cannot be verified as accurate (confidence 5) [3EEB5523], AccurateRip returned [CCCB0AAC]
Copy OK

Track 2

Filename C:\ista\Wolf\Lieder (CD6 - Verschiedene)\02-In der Fremde I.wav

Peak level 78.1 %
Track quality 100.0 %
Test CRC 9FBF0077
Copy CRC 9FBF0077
Cannot be verified as accurate (confidence 5) [AC745F53], AccurateRip returned [3F055EF7]
Copy OK

Track 3

Filename C:\ista\Wolf\Lieder (CD6 - Verschiedene)\03-In der Fremde II.wav

Peak level 82.0 %
Track quality 100.0 %
Test CRC 3B482334
Copy CRC 3B482334
Cannot be verified as accurate (confidence 5) [C0301711], AccurateRip returned [51161F76]
Copy OK

Track 4

Filename C:\ista\Wolf\Lieder (CD6 - Verschiedene)\04-In der Fremde VI.wav

Peak level 77.5 %
Track quality 100.0 %
Test CRC D785AD19
Copy CRC D785AD19
Cannot be verified as accurate (confidence 5) [B49E5063], AccurateRip returned [852CC46A]
Copy OK

Track 5

Filename C:\ista\Wolf\Lieder (CD6 - Verschiedene)\05-Rьckkehr.wav

Peak level 70.5 %
Track quality 100.0 %
Test CRC 2AFC2C86
Copy CRC 2AFC2C86
Cannot be verified as accurate (confidence 4) [041F8427], AccurateRip returned [F48D5689]
Copy OK

Track 6

Filename C:\ista\Wolf\Lieder (CD6 - Verschiedene)\06-Zur Ruh', zur Ruh'.wav

Peak level 79.4 %
Track quality 99.9 %
Test CRC 5DB5BB5D
Copy CRC 5DB5BB5D
Cannot be verified as accurate (confidence 5) [85545717], AccurateRip returned [9B0E83EB]
Copy OK

Track 7

Filename C:\ista\Wolf\Lieder (CD6 - Verschiedene)\07-Biterolf.wav

Peak level 81.0 %
Track quality 99.9 %
Test CRC F6CFC89E
Copy CRC F6CFC89E
Cannot be verified as accurate (confidence 5) [1BD74FAB], AccurateRip returned [B19C769A]
Copy OK

Track 8

Filename C:\ista\Wolf\Lieder (CD6 - Verschiedene)\08-Wдchterlied auf der Wartburg.wav

Peak level 80.4 %
Track quality 100.0 %
Test CRC D44DDA55
Copy CRC D44DDA55
Cannot be verified as accurate (confidence 5) [7D92B301], AccurateRip returned [A11517D0]
Copy OK

Track 9

Filename C:\ista\Wolf\Lieder (CD6 - Verschiedene)\09-Wohin mit der Freud .wav

Peak level 79.2 %
Track quality 100.0 %
Test CRC C0AB4842
Copy CRC C0AB4842
Cannot be verified as accurate (confidence 5) [807D89B3], AccurateRip returned [078EECE8]
Copy OK

Track 10

Filename C:\ista\Wolf\Lieder (CD6 - Verschiedene)\10-Liebchen, wo bist du .wav

Peak level 70.6 %
Track quality 100.0 %
Test CRC 7DC56607
Copy CRC 7DC56607
Cannot be verified as accurate (confidence 5) [4BD335FB], AccurateRip returned [EA53C0E2]
Copy OK

Track 11

Filename C:\ista\Wolf\Lieder (CD6 - Verschiedene)\11-NachtgruЯ.wav

Peak level 25.4 %
Track quality 99.9 %
Test CRC 91279C78
Copy CRC 91279C78
Cannot be verified as accurate (confidence 5) [013F3596], AccurateRip returned [1A0A554F]
Copy OK

Track 12

Filename C:\ista\Wolf\Lieder (CD6 - Verschiedene)\12-Frьhlingsglocken.wav

Peak level 68.2 %
Track quality 99.9 %
Test CRC 17FE46CE
Copy CRC 17FE46CE
Cannot be verified as accurate (confidence 5) [E69EAF08], AccurateRip returned [0E5BC92D]
Copy OK

Track 13

Filename C:\ista\Wolf\Lieder (CD6 - Verschiedene)\13-Stдndchen.wav

Peak level 43.0 %
Track quality 100.0 %
Test CRC 0ED4388E
Copy CRC 0ED4388E
Cannot be verified as accurate (confidence 5) [8B6101FD], AccurateRip returned [0C22ADC3]
Copy OK

Track 14

Filename C:\ista\Wolf\Lieder (CD6 - Verschiedene)\14-Liebesbotschaft.wav

Peak level 60.3 %
Track quality 100.0 %
Test CRC 389B6386
Copy CRC 389B6386
Cannot be verified as accurate (confidence 4) [4B4C643E], AccurateRip returned [C4557321]
Copy OK

Track 15

Filename C:\ista\Wolf\Lieder (CD6 - Verschiedene)\15-Gesellenlied.wav

Peak level 79.5 %
Track quality 99.9 %
Test CRC 7D792B5F
Copy CRC 7D792B5F
Cannot be verified as accurate (confidence 5) [A73D1481], AccurateRip returned [74D02465]
Copy OK

Track 16

Filename C:\ista\Wolf\Lieder (CD6 - Verschiedene)\16-Skolie.wav

Peak level 69.9 %
Track quality 99.8 %
Test CRC 8DB67B8B
Copy CRC 8DB67B8B
Cannot be verified as accurate (confidence 5) [FBC6ADEE], AccurateRip returned [7F8CA8C5]
Copy OK

Track 17

Filename C:\ista\Wolf\Lieder (CD6 - Verschiedene)\17-Frohe Botschaft.wav

Peak level 68.2 %
Track quality 100.0 %
Test CRC BE3FF7F2
Copy CRC BE3FF7F2
Cannot be verified as accurate (confidence 5) [C2084F38], AccurateRip returned [7C0CC94C]
Copy OK

Track 18

Filename C:\ista\Wolf\Lieder (CD6 - Verschiedene)\18-Lied des transferierten Zettel.wav

Peak level 82.5 %
Track quality 100.0 %
Test CRC 973A0DBF
Copy CRC 973A0DBF
Cannot be verified as accurate (confidence 5) [B3D748EE], AccurateRip returned [5DD6672D]
Copy OK

Track 19

Filename C:\ista\Wolf\Lieder (CD6 - Verschiedene)\19-Morgenstimmung.wav

Peak level 84.3 %
Track quality 99.9 %
Test CRC 31241BAB
Copy CRC 31241BAB
Cannot be verified as accurate (confidence 5) [E050FCAC], AccurateRip returned [E676CA89]
Copy OK

Track 20

Filename C:\ista\Wolf\Lieder (CD6 - Verschiedene)\20-Keine gleicht von allen Schцnen.wav

Peak level 75.9 %
Track quality 100.0 %
Test CRC 12DAECC1
Copy CRC 12DAECC1
Cannot be verified as accurate (confidence 5) [2C3FEE41], AccurateRip returned [F83927FC]
Copy OK

Track 21

Filename C:\ista\Wolf\Lieder (CD6 - Verschiedene)\21-Sonne der Schlummerlosen.wav

Peak level 64.9 %
Track quality 100.0 %
Test CRC B31C45BC
Copy CRC B31C45BC
Cannot be verified as accurate (confidence 4) [46289EAB], AccurateRip returned [9D1B415C]
Copy OK

Track 22

Filename C:\ista\Wolf\Lieder (CD6 - Verschiedene)\22-Wohl denkґ ich oft an mein vergangnes Leben.wav

Peak level 81.6 %
Track quality 100.0 %
Test CRC 9167E639
Copy CRC 9167E639
Cannot be verified as accurate (confidence 5) [E4196D6E], AccurateRip returned [0B7CE391]
Copy OK

Track 23

Filename C:\ista\Wolf\Lieder (CD6 - Verschiedene)\23-Alles endet,was entstehet.wav

Peak level 41.0 %
Track quality 100.0 %
Test CRC 81610FB7
Copy CRC 81610FB7
Cannot be verified as accurate (confidence 5) [72D32972], AccurateRip returned [2505D8DF]
Copy OK

Track 24

Filename C:\ista\Wolf\Lieder (CD6 - Verschiedene)\24-Fьhlt meine Seele das ersehnte Licht.wav

Peak level 77.7 %
Track quality 100.0 %
Test CRC A729E412
Copy CRC A729E412
Cannot be verified as accurate (confidence 5) [8C94ADCF], AccurateRip returned [6AA898CF]
Copy OK


No tracks could be verified as accurate
You may have a different pressing from the one(s) in the database

No errors occurred

End of status report


Thanks to the Original customer.