Subcategories

The Huntingtons - Get Lost (1999)

Posted By: Toxxy
The Huntingtons - Get Lost (1999)

Huntingtons - Get Lost (1999)
Year: 1999 Tooth & Nail Records | CD#: TND 1145 | File-host: FP.com
FLAC+CUE+LOG or MP3 @320 CBR | Complete Artwork (600dpi) | WinRAR Recovery 3%
Punk-Rock | CD-length 36.09 | 285 MB (FLAC) | 83 MB (MP3)

I will always recommend this band to anyone. Great, honest punk-rock!

A crew of serious Ramones fanatics from Delaware, Huntingtons have released a couple of all-Ramones cover discs, as well as this album of originals, where every song sounds almost exactly like the Ramones. The singer has his own spin on Joey Ramone's distinctive, '60s pop-inspired vocals, while the band expertly pulls off the ballads, some of which are knockouts like "Hooray for You" and "Samantha Doesn't Want Me." These songs particularly click whenever the Moog kicks in with a groovy lead. But many of the tunes do not distinguish themselves from some of the Ramones later, more forgettable records. Aside from being into leather jackets and pool parties, Huntingtons are also into "Jesus" and the Christian music scene, of which Ramones-flavored, pop-punk bands must be a very small part. [Adam Bregman, All Music Guide]

Recorded throughout the month of January 1999 at Clay Creek Recordering Company
Produced by Holt/Powell
Engineered by Nick Rotundo
Mixed at Clay Creek by Nick Rotundo with Cliffy & Mikey
Mastered at West West Side Music by Alan Douches
Executive Producer: Brandon D. Ebel



Huntingtons:
Mikey Huntington: Vocals/Bass/Moog
Cliffy Huntington: Guitar/Vocals
Mikee Huntington: Drums
C. J. Huntington: Guitar

with:
Ryan Harris: Moog

Amazon user reviews here

Track List:

01. No Pool Party Tonite (3:04)
02. I'm Not Going Downtown (1:32)
03. Hooray for You (3:14)
04. Shut Up (2:02)
05. Joanie's Got Problems (3:23)
06. Poster Kids (3:13)
07. What Would Joey Do? (2:24)
08. I Don't Wanna Save the World (0:59)
09. Samantha Doesn't Want Me (2:59)
10. Guilty (1:56)
11. Annie's Anorexic (3:37)
12. Somebody's Trying to Kill Me (4:03)
13. I Don't Want it to End This Way (3:41)

All songs written by Huntingtons.

Exact Audio Copy V1.0 beta 1 from 15. November 2010

EAC extraction logfile from 25. March 2013, 16:43

Huntingtons / Get Lost

Used drive : ASUS DRW-1814BL Adapter: 2 ID: 0

Read mode : Secure
Utilize accurate stream : Yes
Defeat audio cache : Yes
Make use of C2 pointers : No

Read offset correction : 6
Overread into Lead-In and Lead-Out : No
Fill up missing offset samples with silence : Yes
Delete leading and trailing silent blocks : No
Null samples used in CRC calculations : Yes
Used interface : Installed external ASPI interface

Used output format : Internal WAV Routines
Sample format : 44.100 Hz; 16 Bit; Stereo


TOC of the extracted CD

Track | Start | Length | Start sector | End sector
––––––––––––––––––––––––––––-
1 | 0:00.00 | 3:03.60 | 0 | 13784
2 | 3:03.60 | 1:32.32 | 13785 | 20716
3 | 4:36.17 | 3:14.20 | 20717 | 35286
4 | 7:50.37 | 2:01.63 | 35287 | 44424
5 | 9:52.25 | 3:23.05 | 44425 | 59654
6 | 13:15.30 | 3:13.20 | 59655 | 74149
7 | 16:28.50 | 2:23.70 | 74150 | 84944
8 | 18:52.45 | 0:59.37 | 84945 | 89406
9 | 19:52.07 | 2:58.43 | 89407 | 102799
10 | 22:50.50 | 1:56.20 | 102800 | 111519
11 | 24:46.70 | 3:36.62 | 111520 | 127781
12 | 28:23.57 | 4:03.08 | 127782 | 146014
13 | 32:26.65 | 3:40.70 | 146015 | 162584


Range status and errors

Selected range

Filename C:\_www.AvaxHome.ru\Huntingtons - Get Lost (1999)\Huntingtons - Get Lost (TND 1145-2).wav

Peak level 96.6 %
Extraction speed 0.8 X
Range quality 100.0 %
Test CRC 4B3C64DF
Copy CRC 4B3C64DF
Copy OK

No errors occurred


AccurateRip summary

Track 1 accurately ripped (confidence 2) [414BC5B9]
Track 2 accurately ripped (confidence 2) [B61AE7B0]
Track 3 accurately ripped (confidence 2) [296B09CA]
Track 4 accurately ripped (confidence 2) [8CDF1948]
Track 5 accurately ripped (confidence 2) [289A481F]
Track 6 accurately ripped (confidence 2) [C9DCE887]
Track 7 accurately ripped (confidence 2) [AEDE936F]
Track 8 accurately ripped (confidence 2) [95A044D6]
Track 9 accurately ripped (confidence 2) [F3D59F24]
Track 10 accurately ripped (confidence 2) [77A2B76E]
Track 11 accurately ripped (confidence 2) [EC907521]
Track 12 accurately ripped (confidence 2) [CEB197E6]
Track 13 accurately ripped (confidence 2) [03893B77]

All tracks accurately ripped

End of status report

==== Log checksum 6C359BEE27752BE594B76A1567116794660EA2F8C4795E3B34CB1ECD0989C7E8 ====



This disc has been originally ripped & shared here by TOXXY.
Now, here's the new rip from the Original CD (not CD-R), I just added all artwork created by Toxxy. These scans is OK.
(re-written & re-upped by Rehabilly)

The Right choice*
http://filepost.com/files/4d2am348/HGT199GL70F.part1.rar
http://filepost.com/files/3f84ec45/HGT199GL70F.part2.rar

all covers.jpg (49 MB)
http://filepost.com/files/d34m8a7c/HGT199GL600C.rar

lossy.mp3
http://filepost.com/files/68e6df5d/HGT199GL20G.rar


* Original CD -> EAC image, embedded cuesheet & more, foobar2000 ready, etc.
(all CUEs, LOGs and other technical info includes in the internal "CD_Support" archive)