Subcategories

The Huntingtons / The Retarded - The Soothing Sounds Of... (Split CD, 2003) RESTORED

Posted By: Rehabilly
The Huntingtons / The Retarded - The Soothing Sounds Of... (Split CD, 2003) RESTORED

Huntingtons / Retarded - The Soothing Sounds Of…
FLAC+CUE+LOG or mp3 CBR 320 | 30:09 min | 240 or 69 MB

This is a split album by the Huntingtons and the italian band Retarded released in 2003 on Wynona Records.

The Huntingtons should be no seceret to most people in the U.S with their Ramones 1-2-3-4 sound and countless tours across the U.S. These guys have been at it for a few years now and have gained a large following world wide. While some of their newer material has started to stray from the 3 chord Ramones sound of past recordings the songs are this release seem to stick to the 3 chords and a attitude formula with a few new twist thrown in there. Includes a cover of The Cure's "Boy's Don't Cry" and 5 brand new songs.

Hailing from Italy the RETARDED are cut from the same Ramones cloth as the Huntingtons. Although the Retarded seem to go more for the Dee Dee Ramone inspired 1-2-3-4 songs. These guys rock like the first 4 Ramones albums or the Queers Love Songs. Fans of the Ramones of course as well as Queers, Riverdales, Stardumb Records' bands and crunchy pop punk with some balls will be more then pleased with this release!
Tracklist:

01. Huntingtons – Let's Fight
02. Huntingtons – Rock 'N 'Roll Girl
03. Huntingtons – Potty Mouth
04. Huntingtons – Boy's Don't Cry
05. Huntingtons – Old Number 6
06. Huntingtons – Fade Away
07. Retarded – Leave It Behind
08. Retarded – You Gotta Go
09. Retarded – Restart
10. Retarded – Shake Your Ass
11. Retarded – Day By Day
12. Retarded – You Gave Your Love To Me Softly

all songs written by Huntingtons and Retarded, except track "4" by The Cure and track "12" by R. Cuomo

Exact Audio Copy V1.0 beta 1 from 15. November 2010

EAC extraction logfile from 30. March 2011, 23:30

Various / The Soothing Sounds Of..

Used drive : PIONEER DVD-RW DVR-116D Adapter: 1 ID: 0

Read mode : Secure
Utilize accurate stream : Yes
Defeat audio cache : Yes
Make use of C2 pointers : No

Read offset correction : 96
Overread into Lead-In and Lead-Out : No
Fill up missing offset samples with silence : Yes
Delete leading and trailing silent blocks : No
Null samples used in CRC calculations : Yes
Used interface : Installed external ASPI interface

Used output format : Internal WAV Routines
Sample format : 44.100 Hz; 16 Bit; Stereo


TOC of the extracted CD

Track | Start | Length | Start sector | End sector
––––––––––––––––––––––––––––-
1 | 0:00.00 | 2:32.54 | 0 | 11453
2 | 2:32.54 | 1:33.27 | 11454 | 18455
3 | 4:06.06 | 3:10.46 | 18456 | 32751
4 | 7:16.52 | 2:30.24 | 32752 | 44025
5 | 9:47.01 | 2:59.33 | 44026 | 57483
6 | 12:46.34 | 2:27.66 | 57484 | 68574
7 | 15:14.25 | 3:14.24 | 68575 | 83148
8 | 18:28.49 | 2:33.34 | 83149 | 94657
9 | 21:02.08 | 2:27.30 | 94658 | 105712
10 | 23:29.38 | 1:43.74 | 105713 | 113511
11 | 25:13.37 | 3:09.43 | 113512 | 127729
12 | 28:23.05 | 1:46.20 | 127730 | 135699


Range status and errors

Selected range

Filename C:\AvaxHome.ru\2003- Huntingtons+Retarded - The Soothing Sounds Of (Split)\Huntingtons+Retarded - Split (WR-14).wav

Peak level 100.0 %
Extraction speed 0.3 X
Range quality 100.0 %
Test CRC A4C35AFA
Copy CRC A4C35AFA
Copy OK

No errors occurred


AccurateRip summary

Track 1 accurately ripped (confidence 2) [3FEF2093]
Track 2 accurately ripped (confidence 2) [C38E0710]
Track 3 accurately ripped (confidence 2) [C70551D7]
Track 4 accurately ripped (confidence 2) [08CC3090]
Track 5 accurately ripped (confidence 2) [A71CEF46]
Track 6 accurately ripped (confidence 2) [F10FC9BC]
Track 7 accurately ripped (confidence 2) [B18F9EB8]
Track 8 accurately ripped (confidence 2) [745E05B0]
Track 9 accurately ripped (confidence 2) [4892DFA0]
Track 10 accurately ripped (confidence 2) [C1F2DFC4]
Track 11 accurately ripped (confidence 2) [F4482EB2]
Track 12 accurately ripped (confidence 2) [5D3F3C61]

All tracks accurately ripped

End of status report

==== Log checksum AD877BFB984B062FDF6E18879F8FBA261F49041BAD335764211920EB71CAC1E0 ====


Huntingtons part:
Produced by the Huntingtons. Engineered by Nick Rotundo & Tom Giachero
Recorded at Clay Creek Recording on Nov 11, 2002 and at Ctrl Alt Delete Sound on Nov 24-25, 2002
Mixed by Mikey. Mastered by Tom Giachero at Ctrl Alt Delete Sound.

• Mikey - vocals, bass, keyboard, acoustic guitar
• Josh - guitar
• Andy - guitar
• Rick - drums

Retarded part:
Produced by Retarded and Daniele Mandelli
Recorded and Mixed from Sept to Nov 2002 at Elfo Studios
Engineered by Daniele Mandelli. Mastered by Daniele Mandelli at Tavernago.

• Mera - vocals, guitar
• Dario - guitar, vocals
• Paolo - bass, vocals
• Paco - drums

additional musicians:
- Jenny Smiley - lead vocals on track "12"
- Luca Miccetta - additional (Retarded) backing vocals
- Daniele Mandelli - keyboards on tracks "7 & 12" and tambourine on track "8"

Release Date: March 11, 2003
Format: Split CD, Original Recording
Label: Wynona Records
Catalog No.: WR 14
The Right choice*
http://filepost.com/files/e4cef447/HGT203RET80F.part1.rar
http://filepost.com/files/6f8c6462/HGT203RET80F.part2.rar

all covers.jpg (45 MB)
http://filepost.com/files/2d82e425/HGT203RET390C.rar

lossy.mp3
http://filepost.com/files/93c777ad/HGT203RET20G.rar


* Original CD -> EAC image, embedded cuesheet & more, foobar2000 ready, etc.
(all CUEs, LOGs and other technical info includes in the internal "CD_Support" archive)