Subcategories
Tags
Language
Tags

Ike Quebec - The Complete Blue Note 45 Sessions (2005) {2CD Set, Blue Note Connoisseur CD Series rec 1959-1962}

Posted By: ruskaval
Ike Quebec - The Complete Blue Note 45 Sessions (2005) {2CD Set, Blue Note Connoisseur CD Series rec 1959-1962}

Ike Quebec - The Complete Blue Note 45 Sessions (2005) {2CD Set, Blue Note Connoisseur CD Series rec 1959-1962}
EAC rip (secure mode) | FLAC (tracks)+CUE+LOG -> 810 Mb | MP3 @320 -> 310 Mb
Full Artwork @ 300 dpi (png) -> 42 Mb | 5% repair rar
© 1959-62, 2005 Blue Note / Capitol / EMI | 0946 3 11441 2 7
Jazz / Hard Bop / Soul Jazz / Saxophone

During his comeback years (1959-62) after a decade mostly off the scene, tenor saxophonist Ike Quebec recorded frequently for Blue Note. He started off with a session aimed at the 45 jukebox market and, although he eventually made a few full-length albums for the label, Quebec cut four 45 dates over a two-and-a-half-year period. This double-disc set has all of the jukebox sessions. Most of the 26 selections clock in between four and seven minutes and have long melody statements in addition to concise and soulful solos. Quebec, who was in consistently prime form during his last period, is joined by groups featuring either Skeeter Best or Willie Jones on guitar and Edwin Swanston, Sir Charles Thompson, or Earl Van Dyke on organ. Fun, loose and highly enjoyable music.
Ike Quebec - The Complete Blue Note 45 Sessions (2005) {2CD Set, Blue Note Connoisseur CD Series rec 1959-1962}

Ike Quebec was one of the great tenor saxophonists to emerge from the swing era with a sound and drive that came straight from the early giants of the horn, Coleman Hawkins and Ben Webster. Like Webster, he had a multi-hued sound, with a thousand gradations from honk to gruff aside to breathy sweetness. A featured soloist with Cab Calloway before slipping into obscurity, Quebec renewed an association with Blue Note in 1959, recording extensively with the label until his death in 1963. His singles are elemental music, much like those of Gene Ammons, and they show Quebec in all his glory, bouncing and wailing on jump tunes like "Zonky," "Mardi Gras" and "Me 'n' Mabe." But his finest moments came on soulful ballads and slow blues, songs like "Blue Monday" and "Everything Happens to Me," when he could embrace a melody with all the dimensions of his sound.

AAJ INFO

Personnel:
Ike Quebec: tenor saxophone
Edwin Swanston, Sir Charles Thompson, Earl Van Dyke: organ
Skeeter Best, Willie Jones: guitar
Milt Hinton, Sam Jones, Sonny Wellesley: bass
J.C.Heard, Wilbert Hogan, Les Jenkins: drums

tracklist:

Disc 1

01. A Light Reprieve
02. Buzzard Lope
03. Blue Monday
04. Zonky
05. Later for the Rock
06. Sweet and Lovely
07. Dear John
08. Blue Friday
09. Everything Happens To Me (short version)
10. Mardi Gras
11. What A Diff'rence A Day Makes
12. For All We Know
13. Ill Wind

Disc 2
01. If I Could Be With You
02. I've Got The World On A String
03. Me 'n' Mabe
04. Everything Happens To Me (long version)
05. All Of Me
06. Intermezzo
07. But Not For Me
08. All The Way
09. How Long Has This Been Going On
10. With A Song In My Heart
11. Imagination
12. What Is There To Say
13. There Is No Greater Love

EAC extraction logfile from 15. August 2007, 15:02 for CD
Ike Quebec / The Complete Blue Note 45 Sessions CD 1

Used drive : PLEXTOR CD-R PX-230A Adapter: 1 ID: 0
Read mode : Secure with NO C2, accurate stream, disable cache
Read offset correction : 738
Overread into Lead-In and Lead-Out : No

Used output format : C:\Program Files\EAC\flac.exe (User Defined Encoder)
320 kBit/s
Additional command line options : -8 -V -T "artist=%a" -T "title=%t" -T "album=%g" -T "date=%y" -T "tracknumber=%n" -T "genre=%m" -T "comment=eac Flac 1.1.4 -8" %s

Other options :
Fill up missing offset samples with silence : Yes
Delete leading and trailing silent blocks : No
Installed external ASPI interface


Track 1
Filename D:\Fiamma\Ike Quebec - The Complete Blue Note 45 Sessions (2005) [FLAC] {2 discs Conn}\CD 1\01 - A Light Reprieve.wav

Pre-gap length 0:00:02.00

Peak level 95.5 %
Track quality 100.0 %
Test CRC AFD4BE0B
Copy CRC AFD4BE0B
Copy OK

Track 2
Filename D:\Fiamma\Ike Quebec - The Complete Blue Note 45 Sessions (2005) [FLAC] {2 discs Conn}\CD 1\02 - Buzzard Lope.wav

Pre-gap length 0:00:02.37

Peak level 98.8 %
Track quality 100.0 %
Test CRC A5205F46
Copy CRC A5205F46
Copy OK

Track 3
Filename D:\Fiamma\Ike Quebec - The Complete Blue Note 45 Sessions (2005) [FLAC] {2 discs Conn}\CD 1\03 - Blue Monday.wav

Pre-gap length 0:00:01.49

Peak level 98.8 %
Track quality 100.0 %
Test CRC 591AF2A6
Copy CRC 591AF2A6
Copy OK

Track 4
Filename D:\Fiamma\Ike Quebec - The Complete Blue Note 45 Sessions (2005) [FLAC] {2 discs Conn}\CD 1\04 - Zonky.wav

Pre-gap length 0:00:01.93

Peak level 93.3 %
Track quality 100.0 %
Test CRC 1C92328B
Copy CRC 1C92328B
Copy OK

Track 5
Filename D:\Fiamma\Ike Quebec - The Complete Blue Note 45 Sessions (2005) [FLAC] {2 discs Conn}\CD 1\05 - Later For The Rock.wav

Pre-gap length 0:00:01.72

Peak level 98.8 %
Track quality 99.9 %
Test CRC 4A1D94ED
Copy CRC 4A1D94ED
Copy OK

Track 6
Filename D:\Fiamma\Ike Quebec - The Complete Blue Note 45 Sessions (2005) [FLAC] {2 discs Conn}\CD 1\06 - Sweet And Lovely.wav

Pre-gap length 0:00:01.50

Peak level 98.8 %
Track quality 99.9 %
Test CRC 68C5FF9B
Copy CRC 68C5FF9B
Copy OK

Track 7
Filename D:\Fiamma\Ike Quebec - The Complete Blue Note 45 Sessions (2005) [FLAC] {2 discs Conn}\CD 1\07 - Dear John.wav

Pre-gap length 0:00:02.13

Peak level 92.2 %
Track quality 100.0 %
Test CRC 893A6773
Copy CRC 893A6773
Copy OK

Track 8
Filename D:\Fiamma\Ike Quebec - The Complete Blue Note 45 Sessions (2005) [FLAC] {2 discs Conn}\CD 1\08 - Blue Friday.wav

Pre-gap length 0:00:01.72

Peak level 98.8 %
Track quality 100.0 %
Test CRC 15AD5061
Copy CRC 15AD5061
Copy OK

Track 9
Filename D:\Fiamma\Ike Quebec - The Complete Blue Note 45 Sessions (2005) [FLAC] {2 discs Conn}\CD 1\09 - Everything Happens To Me.wav

Pre-gap length 0:00:02.16

Peak level 98.7 %
Track quality 100.0 %
Test CRC 734506DB
Copy CRC 734506DB
Copy OK

Track 10
Filename D:\Fiamma\Ike Quebec - The Complete Blue Note 45 Sessions (2005) [FLAC] {2 discs Conn}\CD 1\10 - Mardi Gras.wav

Pre-gap length 0:00:01.64

Peak level 93.2 %
Track quality 100.0 %
Test CRC EC73F680
Copy CRC EC73F680
Copy OK

Track 11
Filename D:\Fiamma\Ike Quebec - The Complete Blue Note 45 Sessions (2005) [FLAC] {2 discs Conn}\CD 1\11 - What A Diff'rence A Day Makes.wav

Pre-gap length 0:00:00.94

Peak level 93.3 %
Track quality 100.0 %
Test CRC A2D1C908
Copy CRC A2D1C908
Copy OK

Track 12
Filename D:\Fiamma\Ike Quebec - The Complete Blue Note 45 Sessions (2005) [FLAC] {2 discs Conn}\CD 1\12 - For All We Know.wav

Pre-gap length 0:00:01.54

Peak level 97.8 %
Track quality 100.0 %
Test CRC 74013C95
Copy CRC 74013C95
Copy OK

Track 13
Filename D:\Fiamma\Ike Quebec - The Complete Blue Note 45 Sessions (2005) [FLAC] {2 discs Conn}\CD 1\13 - Ill Wind.wav

Pre-gap length 0:00:01.80

Peak level 89.9 %
Track quality 99.9 %
Test CRC 63B41F65
Copy CRC 63B41F65
Copy OK

No errors occured


End of status report

EAC extraction logfile from 15. August 2007, 15:20 for CD
Ike Quebec / The Complete Blue Note 45 Sessions CD 2

Used drive : PLEXTOR CD-R PX-230A Adapter: 1 ID: 0
Read mode : Secure with NO C2, accurate stream, disable cache
Read offset correction : 738
Overread into Lead-In and Lead-Out : No

Used output format : C:\Program Files\EAC\flac.exe (User Defined Encoder)
320 kBit/s
Additional command line options : -8 -V -T "artist=%a" -T "title=%t" -T "album=%g" -T "date=%y" -T "tracknumber=%n" -T "genre=%m" -T "comment=eac Flac 1.1.4 -8" %s

Other options :
Fill up missing offset samples with silence : Yes
Delete leading and trailing silent blocks : No
Installed external ASPI interface


Track 1
Filename D:\Fiamma\Ike Quebec - The Complete Blue Note 45 Sessions (2005) [FLAC] {2 discs Conn}\CD 2\01 - If I Could Be With You.wav

Pre-gap length 0:00:02.00

Peak level 98.4 %
Track quality 100.0 %
Test CRC C636059A
Copy CRC C636059A
Copy OK

Track 2
Filename D:\Fiamma\Ike Quebec - The Complete Blue Note 45 Sessions (2005) [FLAC] {2 discs Conn}\CD 2\02 - I've Got The World On A String.wav

Pre-gap length 0:00:01.42

Peak level 86.1 %
Track quality 100.0 %
Test CRC E72DD9E9
Copy CRC E72DD9E9
Copy OK

Track 3
Filename D:\Fiamma\Ike Quebec - The Complete Blue Note 45 Sessions (2005) [FLAC] {2 discs Conn}\CD 2\03 - Me 'N' Mabe.wav

Pre-gap length 0:00:01.80

Peak level 92.2 %
Track quality 100.0 %
Test CRC E4AD3D96
Copy CRC E4AD3D96
Copy OK

Track 4
Filename D:\Fiamma\Ike Quebec - The Complete Blue Note 45 Sessions (2005) [FLAC] {2 discs Conn}\CD 2\04 - Everything Happens To Me (long version).wav

Pre-gap length 0:00:01.89

Peak level 98.7 %
Track quality 100.0 %
Test CRC 426E1636
Copy CRC 426E1636
Copy OK

Track 5
Filename D:\Fiamma\Ike Quebec - The Complete Blue Note 45 Sessions (2005) [FLAC] {2 discs Conn}\CD 2\05 - All Of Me.wav

Pre-gap length 0:00:02.29

Peak level 98.7 %
Track quality 99.9 %
Test CRC 930612E1
Copy CRC 930612E1
Copy OK

Track 6
Filename D:\Fiamma\Ike Quebec - The Complete Blue Note 45 Sessions (2005) [FLAC] {2 discs Conn}\CD 2\06 - Intermezzo.wav

Pre-gap length 0:00:01.82

Peak level 95.7 %
Track quality 100.0 %
Test CRC D2C51019
Copy CRC D2C51019
Copy OK

Track 7
Filename D:\Fiamma\Ike Quebec - The Complete Blue Note 45 Sessions (2005) [FLAC] {2 discs Conn}\CD 2\07 - But Not For Me.wav

Pre-gap length 0:00:02.18

Peak level 98.7 %
Track quality 100.0 %
Test CRC 81EE3BEC
Copy CRC 81EE3BEC
Copy OK

Track 8
Filename D:\Fiamma\Ike Quebec - The Complete Blue Note 45 Sessions (2005) [FLAC] {2 discs Conn}\CD 2\08 - All The Way.wav

Pre-gap length 0:00:02.28

Peak level 92.5 %
Track quality 100.0 %
Test CRC 268B5520
Copy CRC 268B5520
Copy OK

Track 9
Filename D:\Fiamma\Ike Quebec - The Complete Blue Note 45 Sessions (2005) [FLAC] {2 discs Conn}\CD 2\09 - How Long Has This Been Going On.wav

Pre-gap length 0:00:01.72

Peak level 95.0 %
Track quality 100.0 %
Test CRC 2D5A963C
Copy CRC 2D5A963C
Copy OK

Track 10
Filename D:\Fiamma\Ike Quebec - The Complete Blue Note 45 Sessions (2005) [FLAC] {2 discs Conn}\CD 2\10 - With A Song In My Heart.wav

Pre-gap length 0:00:01.80

Peak level 88.0 %
Track quality 100.0 %
Test CRC E9D6C938
Copy CRC E9D6C938
Copy OK

Track 11
Filename D:\Fiamma\Ike Quebec - The Complete Blue Note 45 Sessions (2005) [FLAC] {2 discs Conn}\CD 2\11 - Imagination.wav

Pre-gap length 0:00:01.90

Peak level 95.3 %
Track quality 100.0 %
Test CRC 098BDAE0
Copy CRC 098BDAE0
Copy OK

Track 12
Filename D:\Fiamma\Ike Quebec - The Complete Blue Note 45 Sessions (2005) [FLAC] {2 discs Conn}\CD 2\12 - What Is There To Say.wav

Pre-gap length 0:00:01.48

Peak level 98.7 %
Track quality 100.0 %
Test CRC 52485902
Copy CRC 52485902
Copy OK

Track 13
Filename D:\Fiamma\Ike Quebec - The Complete Blue Note 45 Sessions (2005) [FLAC] {2 discs Conn}\CD 2\13 - There Is No Greater Love.wav

Pre-gap length 0:00:01.76

Peak level 93.1 %
Track quality 99.9 %
Test CRC 0B0A450B
Copy CRC 0B0A450B
Copy OK

No errors occured


End of status report


Ike Quebec - The Complete Blue Note 45 Sessions (2005) {2CD Set, Blue Note Connoisseur CD Series rec 1959-1962}

Ike Quebec - The Complete Blue Note 45 Sessions (2005) {2CD Set, Blue Note Connoisseur CD Series rec 1959-1962}

Ike Quebec - The Complete Blue Note 45 Sessions (2005) {2CD Set, Blue Note Connoisseur CD Series rec 1959-1962}



===