Subcategories

Wes Montgomery - The Incredible Jazz Guitar Of Wes Montgomery (1960) {2008 Keepnews Collection Complete Series} (Item #27of27)

Posted By: ruskaval
Wes Montgomery - The Incredible Jazz Guitar Of Wes Montgomery (1960) {2008 Keepnews Collection Complete Series} (Item #27of27)

Wes Montgomery - The Incredible Jazz Guitar Of Wes Montgomery (1960) {2008 Keepnews Collection Complete Series} (Item #27of27)
EAC rip (secure mode) | FLAC (tracks)+CUE+LOG -> 257 Mb | MP3 @320 -> 105 Mb
Full Artwork @ 600 dpi (png) -> 262 Mb | 5% repair rar | 24-bit remastering
© 1960, 2008 Concord / Riverside | 0888072307902
Jazz / Hard Bop / Guitar

Orrin’s commentary (from his new liner notes): “I began constructing the 1960 definitive presentation of [Wes] Montgomery by recognizing the need to keep things as clear-cut and uncomplicated as possible. There were at least three unique aspects to his performing style: he played with his thumb, never using a pick… and his solos almost invariably included two elements routinely referred to as ‘impossible’—his use of octaves and of pianistic block chords. Self-taught (his first ‘lesson’ had involved heavy listening to Charlie Christian records) and never able to read music notation of any kind, he somehow possessed an unfailing command of the blues and of ballad tempo and was an impressive composer.”
Wes Montgomery - The Incredible Jazz Guitar Of Wes Montgomery (1960) {2008 Keepnews Collection Complete Series} (Item #27of27)

Orrin on The Keepnews Collection: This is a series of reissues that can be described as largely centered on my incredibly long (even to me) career as a jazz producer, contributing to the careers of some of the most significant jazz performers of our day. The series follows a specific set of ground rules. In each case the original product is preserved-cover art, the notes, and the entire initial recorded content, in the exact original sequence-and it is now presented with the sonic benefits of 24-bit remastering from the original master tapes. Alternate takes or originally unissued numbers, when available, appear as bonus tracks. In some instances I've added to the total lineup a never-used version that may have been recorded forty or more years ago. When that occasionally allows you to hear for the first time a "new" performance by a long-departed artist, be aware that I join you in considering this a truly wonderful addition. Finally, I have written a complete set of new commentaries, digging back into my memories of those often very good old days to tell a few more stories about this remarkable music and its people. On the whole, I am unreasonably and unshakably proud of the results.
Wes Montgomery - The Incredible Jazz Guitar Of Wes Montgomery (1960) {2008 Keepnews Collection Complete Series} (Item #27of27)


Personnel:
Wes Montgomery- guitar
Tommy Flanagan - piano
Percy Heath - bass
Albert "Tootie" Heath - drums

tracklist:
01 - Airegin
02 - D-Natural Blues
03 - Polka Dots and Moonbeams
04 - Four on Six
05 - West Coast Blues
06 - In Your Own Sweet Way
07 - Mr. Walker
08 - Gone with the Wind

Exact Audio Copy V1.1 from 23. June 2015

EAC extraction logfile from 5. November 2015, 15:40

Wes Montgomery / The Incredible Jazz Guitar of Wes Montgomery

Used drive : TSSTcorpCDDVDW SE-208DB Adapter: 7 ID: 0

Read mode : Secure
Utilize accurate stream : Yes
Defeat audio cache : Yes
Make use of C2 pointers : No

Read offset correction : 6
Overread into Lead-In and Lead-Out : No
Fill up missing offset samples with silence : Yes
Delete leading and trailing silent blocks : No
Null samples used in CRC calculations : Yes
Used interface : Installed external ASPI interface
Gap handling : Appended to previous track

Used output format : User Defined Encoder
Selected bitrate : 1024 kBit/s
Quality : High
Add ID3 tag : No
Command line compressor : C:\Program Files (x86)\FLAC Frontend\tools\flac.exe
Additional command line options : -8 -V -T "ARTIST=%artist%" -T "TITLE=%title%" -T "ALBUM=%albumtitle%" -T "DATE=%year%" -T "TRACKNUMBER=%tracknr%" -T "TOTALTRACKS=%numtracks%" -T "GENRE=%genre%" -T "ALBUMARTIST=%albumartist%" -T "ALBUM ARTIST=%albumartist%" -T "COMMENT=EAC Secure Mode, Test & Copy, AccurateRip, FLAC -8" %source%


TOC of the extracted CD

Track | Start | Length | Start sector | End sector
––––––––––––––––––––––––––––-
1 | 0:00.00 | 4:28.06 | 0 | 20105
2 | 4:28.06 | 5:22.38 | 20106 | 44293
3 | 9:50.44 | 4:42.19 | 44294 | 65462
4 | 14:32.63 | 6:15.20 | 65463 | 93607
5 | 20:48.08 | 7:23.64 | 93608 | 126896
6 | 28:11.72 | 4:53.24 | 126897 | 148895
7 | 33:05.21 | 4:32.46 | 148896 | 169341
8 | 37:37.67 | 6:20.28 | 169342 | 197869


Track 1

Filename M:\_EAC\Wes Montgomery - The Incredible Jazz Guitar Of Wes Montgomery (1960) [FLAC] {Keepnews}\01 - Airegin.wav

Pre-gap length 0:00:02.00

Peak level 99.4 %
Extraction speed 1.0 X
Track quality 100.0 %
Test CRC 8E1A9082
Copy CRC 8E1A9082
Accurately ripped (confidence 56) [FCCE09F4] (AR v2)
Copy OK

Track 2

Filename M:\_EAC\Wes Montgomery - The Incredible Jazz Guitar Of Wes Montgomery (1960) [FLAC] {Keepnews}\02 - D-Natural Blues.wav

Peak level 87.3 %
Extraction speed 1.2 X
Track quality 100.0 %
Test CRC BF7D579F
Copy CRC BF7D579F
Accurately ripped (confidence 57) [83C4FEDF] (AR v2)
Copy OK

Track 3

Filename M:\_EAC\Wes Montgomery - The Incredible Jazz Guitar Of Wes Montgomery (1960) [FLAC] {Keepnews}\03 - Polka Dots and Moonbeams.wav

Peak level 79.8 %
Extraction speed 1.3 X
Track quality 100.0 %
Test CRC 217A3E18
Copy CRC 217A3E18
Accurately ripped (confidence 57) [5447F901] (AR v2)
Copy OK

Track 4

Filename M:\_EAC\Wes Montgomery - The Incredible Jazz Guitar Of Wes Montgomery (1960) [FLAC] {Keepnews}\04 - Four on Six.wav

Peak level 83.1 %
Extraction speed 1.4 X
Track quality 100.0 %
Test CRC BCA08E9E
Copy CRC BCA08E9E
Accurately ripped (confidence 57) [79E6B5FE] (AR v2)
Copy OK

Track 5

Filename M:\_EAC\Wes Montgomery - The Incredible Jazz Guitar Of Wes Montgomery (1960) [FLAC] {Keepnews}\05 - West Coast Blues.wav

Peak level 99.6 %
Extraction speed 1.4 X
Track quality 99.9 %
Test CRC C414C4F5
Copy CRC C414C4F5
Accurately ripped (confidence 57) [AE0D9D17] (AR v2)
Copy OK

Track 6

Filename M:\_EAC\Wes Montgomery - The Incredible Jazz Guitar Of Wes Montgomery (1960) [FLAC] {Keepnews}\06 - In Your Own Sweet Way.wav

Peak level 68.7 %
Extraction speed 1.6 X
Track quality 100.0 %
Test CRC EF85D5B0
Copy CRC EF85D5B0
Accurately ripped (confidence 57) [965551C3] (AR v2)
Copy OK

Track 7

Filename M:\_EAC\Wes Montgomery - The Incredible Jazz Guitar Of Wes Montgomery (1960) [FLAC] {Keepnews}\07 - Mr. Walker.wav

Peak level 99.1 %
Extraction speed 1.6 X
Track quality 100.0 %
Test CRC 71B5B040
Copy CRC 71B5B040
Accurately ripped (confidence 57) [D16BBFB0] (AR v2)
Copy OK

Track 8

Filename M:\_EAC\Wes Montgomery - The Incredible Jazz Guitar Of Wes Montgomery (1960) [FLAC] {Keepnews}\08 - Gone with the Wind.wav

Peak level 98.0 %
Extraction speed 1.7 X
Track quality 100.0 %
Test CRC 5118BE4F
Copy CRC 5118BE4F
Accurately ripped (confidence 57) [E3E31A16] (AR v2)
Copy OK


All tracks accurately ripped

No errors occurred

End of status report

==== Log checksum 3366876C932943BBA7E024D5B7756CAEF961495627C1A729304BB821E4414395 ====


Wes Montgomery - The Incredible Jazz Guitar Of Wes Montgomery (1960) {2008 Keepnews Collection Complete Series} (Item #27of27)

Wes Montgomery - The Incredible Jazz Guitar Of Wes Montgomery (1960) {2008 Keepnews Collection Complete Series} (Item #27of27)


see more Keepnews Collection Complete Series…


===