Tags
Language
Tags

Inspiral Carpets - The Singles (1995) [MUTE 9010-2]

Posted By: Sartre
Inspiral Carpets - The Singles (1995) [MUTE 9010-2]

Inspiral Carpets - The Singles (1995) [MUTE 9010-2]
Rock | EAC Rip | Lossless FLAC (Tracks) with Log+Covers -> 530MB

Inspiral Carpets couldn't really sustain their vision over the course of an entire album, yet they made a number of infectious Madchester singles, which became fairly big hits in England. The Singles collects all of the group's U.K. hits, from the swirling, sunny "Joe" to "I Want You," a duet with the Fall's Mark E. Smith that had previously been unavailable on album. Over the course of 17 tracks, nearly every one of the band's great moments ("This Is How It Feels," "Dragging Me Down," "She Comes in the Fall," "Saturn 5," "Uniform") is featured, making Singles a definitive overview of the laid-back baggy band's career.



01. Joe (3:23)
02. Find Out Why (2:04)
03. Move (3:26)
04. This Is How it Feels [single version] (3:13)
05. She Comes in the Fall [single version] (4:10)
06. Commercial Reign (4:43)
07. Sackville [single version] (4:59)
08. Biggest Mountain (4:29)
09. Weakness (4:18)
10. Caravan [12 version] (5:47)
11. Please be Cruel [single version] (3:38)
12. Dragging Me Down (4:33)
13. Two Worlds Collide (4:41)
14. Generations (2:49)
15. Bitches Brew (3:52)
16. How it Should Be (3:17)
17. Saturn 5 (3:59)
18. I Want You [single version ft. Mark E. Smith] (3:10)
19. Uniform (3:52)



Exact Audio Copy V0.99 prebeta 4 from 23. January 2008

EAC extraction logfile from 28. August 2009, 22:46

Inspiral Carpets / The Singles (US Release)

Used drive : _NEC DVD_RW ND-3550A Adapter: 0 ID: 0

Read mode : Secure
Utilize accurate stream : Yes
Defeat audio cache : Yes
Make use of C2 pointers : No

Read offset correction : 48
Overread into Lead-In and Lead-Out : No
Fill up missing offset samples with silence : Yes
Delete leading and trailing silent blocks : No
Null samples used in CRC calculations : Yes
Used interface : Installed external ASPI interface
Gap handling : Appended to previous track

Used output format : User Defined Encoder
Selected bitrate : 768 kBit/s
Quality : High
Add ID3 tag : No
Command line compressor : C:\Program Files\Exact Audio Copy\FLAC\FLAC.EXE
Additional command line options : -6 -V -T "ARTIST=%a" -T "TITLE=%t" -T "ALBUM=%g" -T "DATE=%y" -T "TRACKNUMBER=%n" -T "GENRE=%m" -T "COMMENT=%e" %s -o %d


TOC of the extracted CD

Track | Start | Length | Start sector | End sector
––––––––––––––––––––––––––––-
1 | 0:00.32 | 3:24.03 | 32 | 15334
2 | 3:24.35 | 2:04.00 | 15335 | 24634
3 | 5:28.35 | 3:26.05 | 24635 | 40089
4 | 8:54.40 | 3:14.07 | 40090 | 54646
5 | 12:08.47 | 4:10.15 | 54647 | 73411
6 | 16:18.62 | 4:43.53 | 73412 | 94689
7 | 21:02.40 | 4:59.07 | 94690 | 117121
8 | 26:01.47 | 4:29.13 | 117122 | 137309
9 | 30:30.60 | 4:18.42 | 137310 | 156701
10 | 34:49.27 | 5:47.60 | 156702 | 182786
11 | 40:37.12 | 3:38.23 | 182787 | 199159
12 | 44:15.35 | 4:33.50 | 199160 | 219684
13 | 48:49.10 | 4:41.10 | 219685 | 240769
14 | 53:30.20 | 2:49.72 | 240770 | 253516
15 | 56:20.17 | 3:52.73 | 253517 | 270989
16 | 60:13.15 | 3:18.05 | 270990 | 285844
17 | 63:31.20 | 3:59.72 | 285845 | 303841
18 | 67:31.17 | 3:10.25 | 303842 | 318116
19 | 70:41.42 | 3:54.65 | 318117 | 335731


Track 1

Filename C:\Documents and Settings\Igor\Ðàáî÷èé ñòîë\Inspiral Carpets - 1995 - The Singles (US Release)\01 - Inspiral Carpets - Joe.wav

Pre-gap length 0:00:02.32

Peak level 98.8 %
Track quality 100.0 %
Test CRC 087F06E0
Copy CRC 087F06E0
Copy OK

Track 2

Filename C:\Documents and Settings\Igor\Ðàáî÷èé ñòîë\Inspiral Carpets - 1995 - The Singles (US Release)\02 - Inspiral Carpets - Find Out Why.wav

Peak level 98.8 %
Track quality 100.0 %
Test CRC A72FFD03
Copy CRC A72FFD03
Copy OK

Track 3

Filename C:\Documents and Settings\Igor\Ðàáî÷èé ñòîë\Inspiral Carpets - 1995 - The Singles (US Release)\03 - Inspiral Carpets - Move.wav

Peak level 98.8 %
Track quality 100.0 %
Test CRC 48F4063D
Copy CRC 48F4063D
Copy OK

Track 4

Filename C:\Documents and Settings\Igor\Ðàáî÷èé ñòîë\Inspiral Carpets - 1995 - The Singles (US Release)\04 - Inspiral Carpets - This Is How It Feels.wav

Peak level 98.8 %
Track quality 100.0 %
Test CRC AEBA453D
Copy CRC AEBA453D
Copy OK

Track 5

Filename C:\Documents and Settings\Igor\Ðàáî÷èé ñòîë\Inspiral Carpets - 1995 - The Singles (US Release)\05 - Inspiral Carpets - She Comes In The Fall.wav

Peak level 98.8 %
Track quality 100.0 %
Test CRC 57DCE06C
Copy CRC 57DCE06C
Copy OK

Track 6

Filename C:\Documents and Settings\Igor\Ðàáî÷èé ñòîë\Inspiral Carpets - 1995 - The Singles (US Release)\06 - Inspiral Carpets - Commercial Reign.wav

Peak level 98.8 %
Track quality 100.0 %
Test CRC F88E0F19
Copy CRC F88E0F19
Copy OK

Track 7

Filename C:\Documents and Settings\Igor\Ðàáî÷èé ñòîë\Inspiral Carpets - 1995 - The Singles (US Release)\07 - Inspiral Carpets - Sackville.wav

Peak level 96.2 %
Track quality 100.0 %
Test CRC AA61A298
Copy CRC AA61A298
Copy OK

Track 8

Filename C:\Documents and Settings\Igor\Ðàáî÷èé ñòîë\Inspiral Carpets - 1995 - The Singles (US Release)\08 - Inspiral Carpets - Biggest Mountain.wav

Peak level 98.8 %
Track quality 100.0 %
Test CRC DC065D2E
Copy CRC DC065D2E
Copy OK

Track 9

Filename C:\Documents and Settings\Igor\Ðàáî÷èé ñòîë\Inspiral Carpets - 1995 - The Singles (US Release)\09 - Inspiral Carpets - Weakness.wav

Peak level 98.8 %
Track quality 100.0 %
Test CRC 983A3C8F
Copy CRC 983A3C8F
Copy OK

Track 10

Filename C:\Documents and Settings\Igor\Ðàáî÷èé ñòîë\Inspiral Carpets - 1995 - The Singles (US Release)\10 - Inspiral Carpets - Caravan.wav

Peak level 98.8 %
Track quality 100.0 %
Test CRC 2CCE3270
Copy CRC 2CCE3270
Copy OK

Track 11

Filename C:\Documents and Settings\Igor\Ðàáî÷èé ñòîë\Inspiral Carpets - 1995 - The Singles (US Release)\11 - Inspiral Carpets - Please Be Cruel.wav

Peak level 98.8 %
Track quality 100.0 %
Test CRC DED35740
Copy CRC DED35740
Copy OK

Track 12

Filename C:\Documents and Settings\Igor\Ðàáî÷èé ñòîë\Inspiral Carpets - 1995 - The Singles (US Release)\12 - Inspiral Carpets - Dragging Me Down.wav

Peak level 93.8 %
Track quality 99.9 %
Test CRC E12B6B25
Copy CRC E12B6B25
Copy OK

Track 13

Filename C:\Documents and Settings\Igor\Ðàáî÷èé ñòîë\Inspiral Carpets - 1995 - The Singles (US Release)\13 - Inspiral Carpets - Two Worlds Collide.wav

Peak level 98.8 %
Track quality 100.0 %
Test CRC 5A99E022
Copy CRC 5A99E022
Copy OK

Track 14

Filename C:\Documents and Settings\Igor\Ðàáî÷èé ñòîë\Inspiral Carpets - 1995 - The Singles (US Release)\14 - Inspiral Carpets - Generations.wav

Peak level 98.7 %
Track quality 100.0 %
Test CRC 80074B81
Copy CRC 80074B81
Copy OK

Track 15

Filename C:\Documents and Settings\Igor\Ðàáî÷èé ñòîë\Inspiral Carpets - 1995 - The Singles (US Release)\15 - Inspiral Carpets - Bitches Brew.wav

Peak level 97.2 %
Track quality 100.0 %
Test CRC 7E8201F9
Copy CRC 7E8201F9
Copy OK

Track 16

Filename C:\Documents and Settings\Igor\Ðàáî÷èé ñòîë\Inspiral Carpets - 1995 - The Singles (US Release)\16 - Inspiral Carpets - How It Should Be.wav

Peak level 98.8 %
Track quality 100.0 %
Test CRC 49CFC506
Copy CRC 49CFC506
Copy OK

Track 17

Filename C:\Documents and Settings\Igor\Ðàáî÷èé ñòîë\Inspiral Carpets - 1995 - The Singles (US Release)\17 - Inspiral Carpets - Saturn 5.wav

Peak level 98.8 %
Track quality 100.0 %
Test CRC 6C8DEF1D
Copy CRC 6C8DEF1D
Copy OK

Track 18

Filename C:\Documents and Settings\Igor\Ðàáî÷èé ñòîë\Inspiral Carpets - 1995 - The Singles (US Release)\18 - Inspiral Carpets - I Want You.wav

Peak level 98.8 %
Track quality 100.0 %
Test CRC 12320B2E
Copy CRC 12320B2E
Copy OK

Track 19

Filename C:\Documents and Settings\Igor\Ðàáî÷èé ñòîë\Inspiral Carpets - 1995 - The Singles (US Release)\19 - Inspiral Carpets - Uniform.wav

Peak level 98.8 %
Track quality 100.0 %
Test CRC 3B961CD9
Copy CRC 3B961CD9
Copy OK

No errors occurred

End of status report



Download