Subcategories

Charlie Parker - Integrale Charlie Parker, Vol. 7, "Just Friends", 1949-1950 (2014) {3CD Set Frémeaux & Associés FA1337}

Posted By: ruskaval
Charlie Parker - Integrale Charlie Parker, Vol. 7, "Just Friends", 1949-1950 (2014) {3CD Set Frémeaux & Associés FA1337}

Charlie Parker - Intégrale Charlie Parker, Vol. 7, "Just Friends", 1949-1950 (2014) {3CD Set Frémeaux & Associés FA1337}
EAC rip (secure mode) | FLAC (tracks)+CUE+LOG -> 896 Mb | MP3 @320 -> 543 Mb
Full Artwork @ 600 dpi (jpg) -> 434 Mb | 5% repair rar
© 1949-50, 2014 Frémeaux & Associés | FA 1337
Jazz / Bebop / Bop / Saxophone

Charlie Parker did all the things I would like to do and more – he really had a genius, see. He could do things and he could do them melodiously so that anybody, the man in the street, could hear – that’s what I haven’t reached, that’s what I’d like to reach. -John COLTRANE. The aim of 'The Complete Charlie Parker', compiled for Frémeaux & Associés by Alain Tercinet, is to present (as far as possible) every studio-recording by Parker, together with titles featured in radio-broadcasts. Private recordings have been deliberately omitted from this selection to preserve a consistency of sound and aesthetic quality equal to the genius of this artist.
Charlie Parker - Integrale Charlie Parker, Vol. 7, "Just Friends", 1949-1950 (2014) {3CD Set Frémeaux & Associés FA1337}

Time has passed, the voices are extinct but this volume VII of the complete Charlie Parker includes, as Alain Tercinet notes in the fascinating booklet that accompanies it, "flashes that, more than half a century later, always surprise by their audacity ". At Carnegie Hall, Birdland, in the studio with strings or in a boxing hall transformed into a dance hall, Bird hangs over, sovereign, almost terrifying of musical imagination in these months from September 1949 to February 1950, surrounded by musicians who have become legends (Fats Navarro, Roy Haynes, Bud Powell, Art Blakey, Lester Young, Buddy Rich), sometimes captured in extravagant conditions by amateurs or musicians fascinated by his genius. Like the previous ones, this new volume is strictly indispensable. By Jean-Pierre JACKSON - CLASSICA.
Charlie Parker - Integrale Charlie Parker, Vol. 7, "Just Friends", 1949-1950 (2014) {3CD Set Frémeaux & Associés FA1337}


fremeaux.com INFO

Track Listing

CD1

01 - The Opener
02 - Lester Leaps In
03 - Embraceable You
04 - The Closer
05 - Just Friends
06 - Everything Happens To Me
07 - April In Paris
08 - Summertime
09 - I Didn't Know What Time It Was
10 - If I Should Lose You
11 - Annonce - Ornithology
12 - Cheryl

Charlie Parker - Integrale Charlie Parker, Vol. 7, "Just Friends", 1949-1950 (2014) {3CD Set Frémeaux & Associés FA1337}


CD2
01 - Koko
02 - Bird Of Paradise
03 - Now's The Time
04 - 52nd Street Theme
05 - Wahoo
06 - 'Round Midnight
07 - This Time The Dreams On Me
08 - Dizzy Athmosphere
09 - A Night In Tunisia
10 - Move - 52nd Street Theme
11 - The Street Beat
12 - Out Of Nowhere
13 - Little Willie Leaps - 52nd Street Theme

Charlie Parker - Integrale Charlie Parker, Vol. 7, "Just Friends", 1949-1950 (2014) {3CD Set Frémeaux & Associés FA1337}


CD3
01 - Ornithology
02 - I'll Remember April - 52nd Street Theme
03 - Embraceable You
04 - Cool Blues
05 - 52nd Street Theme
06 - I Don't Know What Time It Was
07 - Ornithology
08 - Embraceable You
09 - Visa
10 - I Cover The Waterfront
11 - Scrapple From The Apple
12 - Star Eyes
13 - 52nd Street Theme I
14 - Confirmation
15 - Out Of Nowhere
16 - Hot House
17 - What's New_
18 - Now's The Time
19 - Smoke Gets In Your Eyes
20 - 52nd Street Theme II

Charlie Parker - Integrale Charlie Parker, Vol. 7, "Just Friends", 1949-1950 (2014) {3CD Set Frémeaux & Associés FA1337}


Exact Audio Copy V1.3 from 2. September 2016

EAC extraction logfile from 14. January 2019, 16:23

Charlie Parker / Integrale Charlie Parker, Vol. 7, Just Friends (CD1)

Used drive : ATAPI iHAS122 F Adapter: 1 ID: 0

Read mode : Secure
Utilize accurate stream : Yes
Defeat audio cache : Yes
Make use of C2 pointers : No

Read offset correction : 6
Overread into Lead-In and Lead-Out : No
Fill up missing offset samples with silence : Yes
Delete leading and trailing silent blocks : No
Null samples used in CRC calculations : Yes
Used interface : Native Win32 interface for Win NT & 2000
Gap handling : Appended to previous track

Used output format : User Defined Encoder
Selected bitrate : 1024 kBit/s
Quality : High
Add ID3 tag : No
Command line compressor : C:\Program Files (x86)\Exact Audio Copy_v1.3\Flac\flac.exe
Additional command line options : -8 -V -T "ARTIST=%artist%" -T "TITLE=%title%" -T "ALBUM=%albumtitle%" -T "DATE=%year%" -T "TRACKNUMBER=%tracknr%" -T "TOTALTRACKS=%numtracks%" -T "GENRE=%genre%" -T "ALBUMARTIST=%albumartist%" -T "ALBUM ARTIST=%albumartist%" -T "COMMENT=EAC Secure Mode, Test & Copy, AccurateRip, FLAC -8" %source%


TOC of the extracted CD

Track | Start | Length | Start sector | End sector
––––––––––––––––––––––––––––-
1 | 0:00.00 | 12:49.27 | 0 | 57701
2 | 12:49.27 | 12:32.35 | 57702 | 114136
3 | 25:21.62 | 10:44.03 | 114137 | 162439
4 | 36:05.65 | 11:00.14 | 162440 | 211953
5 | 47:06.04 | 3:33.02 | 211954 | 227930
6 | 50:39.06 | 3:18.19 | 227931 | 242799
7 | 53:57.25 | 3:09.22 | 242800 | 256996
8 | 57:06.47 | 2:48.61 | 256997 | 269657
9 | 59:55.33 | 3:15.24 | 269658 | 284306
10 | 63:10.57 | 2:52.03 | 284307 | 297209
11 | 66:02.60 | 5:35.55 | 297210 | 322389
12 | 71:38.40 | 5:00.11 | 322390 | 344900


Track 1

Filename F:\_EAC\Charlie Parker - Integrale Charlie Parker, Vol. 7, Just Friends (2014) [FLAC] {3CD}\CD1\01 - The Opener.wav

Pre-gap length 0:00:02.00

Peak level 85.6 %
Extraction speed 5.8 X
Track quality 100.0 %
Test CRC 042875D4
Copy CRC 042875D4
Accurately ripped (confidence 4) [6882C34C] (AR v2)
Copy OK

Track 2

Filename F:\_EAC\Charlie Parker - Integrale Charlie Parker, Vol. 7, Just Friends (2014) [FLAC] {3CD}\CD1\02 - Lester Leaps In.wav

Peak level 92.9 %
Extraction speed 7.1 X
Track quality 100.0 %
Test CRC 554D263A
Copy CRC 554D263A
Accurately ripped (confidence 4) [1C0AFD0C] (AR v2)
Copy OK

Track 3

Filename F:\_EAC\Charlie Parker - Integrale Charlie Parker, Vol. 7, Just Friends (2014) [FLAC] {3CD}\CD1\03 - Embraceable You.wav

Pre-gap length 0:00:00.25

Peak level 64.3 %
Extraction speed 8.0 X
Track quality 100.0 %
Test CRC 3FE3F4BC
Copy CRC 3FE3F4BC
Accurately ripped (confidence 4) [CC4F3DB4] (AR v2)
Copy OK

Track 4

Filename F:\_EAC\Charlie Parker - Integrale Charlie Parker, Vol. 7, Just Friends (2014) [FLAC] {3CD}\CD1\04 - The Closer.wav

Peak level 81.0 %
Extraction speed 8.8 X
Track quality 100.0 %
Test CRC 6E29951B
Copy CRC 6E29951B
Accurately ripped (confidence 4) [3A7ABC6B] (AR v2)
Copy OK

Track 5

Filename F:\_EAC\Charlie Parker - Integrale Charlie Parker, Vol. 7, Just Friends (2014) [FLAC] {3CD}\CD1\05 - Just Friends.wav

Peak level 68.8 %
Extraction speed 8.2 X
Track quality 100.0 %
Test CRC 0CF54301
Copy CRC 0CF54301
Accurately ripped (confidence 4) [E34776F8] (AR v2)
Copy OK

Track 6

Filename F:\_EAC\Charlie Parker - Integrale Charlie Parker, Vol. 7, Just Friends (2014) [FLAC] {3CD}\CD1\06 - Everything Happens To Me.wav

Peak level 71.7 %
Extraction speed 8.4 X
Track quality 100.0 %
Test CRC 2FAF5C48
Copy CRC 2FAF5C48
Accurately ripped (confidence 4) [6EC6036F] (AR v2)
Copy OK

Track 7

Filename F:\_EAC\Charlie Parker - Integrale Charlie Parker, Vol. 7, Just Friends (2014) [FLAC] {3CD}\CD1\07 - April In Paris.wav

Peak level 77.9 %
Extraction speed 8.5 X
Track quality 100.0 %
Test CRC 830CCCCC
Copy CRC 830CCCCC
Accurately ripped (confidence 4) [A03BFD7E] (AR v2)
Copy OK

Track 8

Filename F:\_EAC\Charlie Parker - Integrale Charlie Parker, Vol. 7, Just Friends (2014) [FLAC] {3CD}\CD1\08 - Summertime.wav

Peak level 65.9 %
Extraction speed 8.4 X
Track quality 100.0 %
Test CRC F7FC96E0
Copy CRC F7FC96E0
Accurately ripped (confidence 4) [F2B9E8AE] (AR v2)
Copy OK

Track 9

Filename F:\_EAC\Charlie Parker - Integrale Charlie Parker, Vol. 7, Just Friends (2014) [FLAC] {3CD}\CD1\09 - I Didn't Know What Time It Was.wav

Peak level 70.6 %
Extraction speed 8.8 X
Track quality 100.0 %
Test CRC B5B494D3
Copy CRC B5B494D3
Accurately ripped (confidence 4) [2E12BB13] (AR v2)
Copy OK

Track 10

Filename F:\_EAC\Charlie Parker - Integrale Charlie Parker, Vol. 7, Just Friends (2014) [FLAC] {3CD}\CD1\10 - If I Should Lose You.wav

Peak level 74.9 %
Extraction speed 8.7 X
Track quality 100.0 %
Test CRC 913C3C00
Copy CRC 913C3C00
Accurately ripped (confidence 4) [5B448135] (AR v2)
Copy OK

Track 11

Filename F:\_EAC\Charlie Parker - Integrale Charlie Parker, Vol. 7, Just Friends (2014) [FLAC] {3CD}\CD1\11 - Annonce - Ornithology.wav

Peak level 88.6 %
Extraction speed 9.9 X
Track quality 100.0 %
Test CRC B4B093C4
Copy CRC B4B093C4
Accurately ripped (confidence 4) [CF97B887] (AR v2)
Copy OK

Track 12

Filename F:\_EAC\Charlie Parker - Integrale Charlie Parker, Vol. 7, Just Friends (2014) [FLAC] {3CD}\CD1\12 - Cheryl.wav

Peak level 96.5 %
Extraction speed 8.4 X
Track quality 99.9 %
Test CRC 9BC4674A
Copy CRC 9BC4674A
Accurately ripped (confidence 4) [55937C68] (AR v2)
Copy OK


All tracks accurately ripped

No errors occurred

End of status report

–– CUETools DB Plugin V2.1.6

[CTDB TOCID: QglTWJLHRZrxJ24iCctwZC.YCY4-] found
Submit result: QglTWJLHRZrxJ24iCctwZC.YCY4- has been confirmed
Track | CTDB Status
1 | (2/2) Accurately ripped
2 | (2/2) Accurately ripped
3 | (2/2) Accurately ripped
4 | (2/2) Accurately ripped
5 | (2/2) Accurately ripped
6 | (2/2) Accurately ripped
7 | (2/2) Accurately ripped
8 | (2/2) Accurately ripped
9 | (2/2) Accurately ripped
10 | (2/2) Accurately ripped
11 | (2/2) Accurately ripped
12 | (2/2) Accurately ripped


==== Log checksum ACE84AFE2CAB915DA8CA442DAA322D5B688711FB6F671C42554B8D79620112B0 ====
Exact Audio Copy V1.3 from 2. September 2016

EAC extraction logfile from 14. January 2019, 17:11

Charlie Parker / Integrale Charlie Parker, Vol. 7, Just Friends (CD2)

Used drive : ATAPI iHAS122 F Adapter: 1 ID: 0

Read mode : Secure
Utilize accurate stream : Yes
Defeat audio cache : Yes
Make use of C2 pointers : No

Read offset correction : 6
Overread into Lead-In and Lead-Out : No
Fill up missing offset samples with silence : Yes
Delete leading and trailing silent blocks : No
Null samples used in CRC calculations : Yes
Used interface : Native Win32 interface for Win NT & 2000
Gap handling : Appended to previous track

Used output format : User Defined Encoder
Selected bitrate : 1024 kBit/s
Quality : High
Add ID3 tag : No
Command line compressor : C:\Program Files (x86)\Exact Audio Copy_v1.3\Flac\flac.exe
Additional command line options : -8 -V -T "ARTIST=%artist%" -T "TITLE=%title%" -T "ALBUM=%albumtitle%" -T "DATE=%year%" -T "TRACKNUMBER=%tracknr%" -T "TOTALTRACKS=%numtracks%" -T "GENRE=%genre%" -T "ALBUMARTIST=%albumartist%" -T "ALBUM ARTIST=%albumartist%" -T "COMMENT=EAC Secure Mode, Test & Copy, AccurateRip, FLAC -8" %source%


TOC of the extracted CD

Track | Start | Length | Start sector | End sector
––––––––––––––––––––––––––––-
1 | 0:00.00 | 5:03.07 | 0 | 22731
2 | 5:03.07 | 6:08.01 | 22732 | 50332
3 | 11:11.08 | 5:14.32 | 50333 | 73914
4 | 16:25.40 | 1:35.58 | 73915 | 81097
5 | 18:01.23 | 6:35.33 | 81098 | 110755
6 | 24:36.56 | 5:14.12 | 110756 | 134317
7 | 29:50.68 | 6:23.02 | 134318 | 163044
8 | 36:13.70 | 7:05.06 | 163045 | 194925
9 | 43:19.01 | 5:38.67 | 194926 | 220342
10 | 48:57.68 | 6:51.03 | 220343 | 251170
11 | 55:48.71 | 9:21.47 | 251171 | 293292
12 | 65:10.43 | 6:13.37 | 293293 | 321304
13 | 71:24.05 | 5:54.01 | 321305 | 347855


Track 1

Filename F:\_EAC\Charlie Parker - Integrale Charlie Parker, Vol. 7, Just Friends (2014) [FLAC] {3CD}\CD2\01 - Koko.wav

Pre-gap length 0:00:02.00

Peak level 84.2 %
Extraction speed 4.3 X
Track quality 99.9 %
Test CRC 87EF8552
Copy CRC 87EF8552
Accurately ripped (confidence 3) [BBDB2DFF] (AR v2)
Copy OK

Track 2

Filename F:\_EAC\Charlie Parker - Integrale Charlie Parker, Vol. 7, Just Friends (2014) [FLAC] {3CD}\CD2\02 - Bird Of Paradise.wav

Peak level 75.8 %
Extraction speed 5.7 X
Track quality 100.0 %
Test CRC 049B8A65
Copy CRC 049B8A65
Accurately ripped (confidence 3) [46DA9148] (AR v2)
Copy OK

Track 3

Filename F:\_EAC\Charlie Parker - Integrale Charlie Parker, Vol. 7, Just Friends (2014) [FLAC] {3CD}\CD2\03 - Now's The Time.wav

Peak level 84.3 %
Extraction speed 6.1 X
Track quality 100.0 %
Test CRC 77C5FBEF
Copy CRC 77C5FBEF
Accurately ripped (confidence 3) [A7B7FF21] (AR v2)
Copy OK

Track 4

Filename F:\_EAC\Charlie Parker - Integrale Charlie Parker, Vol. 7, Just Friends (2014) [FLAC] {3CD}\CD2\04 - 52nd Street Theme.wav

Peak level 87.0 %
Extraction speed 5.2 X
Track quality 100.0 %
Test CRC 0322F1F1
Copy CRC 0322F1F1
Accurately ripped (confidence 3) [289CD2B9] (AR v2)
Copy OK

Track 5

Filename F:\_EAC\Charlie Parker - Integrale Charlie Parker, Vol. 7, Just Friends (2014) [FLAC] {3CD}\CD2\05 - Wahoo.wav

Peak level 86.0 %
Extraction speed 6.9 X
Track quality 100.0 %
Test CRC D690A4A3
Copy CRC D690A4A3
Accurately ripped (confidence 3) [DADBB48E] (AR v2)
Copy OK

Track 6

Filename F:\_EAC\Charlie Parker - Integrale Charlie Parker, Vol. 7, Just Friends (2014) [FLAC] {3CD}\CD2\06 - 'Round Midnight.wav

Peak level 78.8 %
Extraction speed 7.3 X
Track quality 100.0 %
Test CRC 9DC8210F
Copy CRC 9DC8210F
Accurately ripped (confidence 3) [86146855] (AR v2)
Copy OK

Track 7

Filename F:\_EAC\Charlie Parker - Integrale Charlie Parker, Vol. 7, Just Friends (2014) [FLAC] {3CD}\CD2\07 - This Time The Dreams On Me.wav

Peak level 91.1 %
Extraction speed 7.7 X
Track quality 100.0 %
Test CRC 123AFAE9
Copy CRC 123AFAE9
Accurately ripped (confidence 3) [EE025B45] (AR v2)
Copy OK

Track 8

Filename F:\_EAC\Charlie Parker - Integrale Charlie Parker, Vol. 7, Just Friends (2014) [FLAC] {3CD}\CD2\08 - Dizzy Athmosphere.wav

Peak level 72.0 %
Extraction speed 8.4 X
Track quality 100.0 %
Test CRC 97EEA58A
Copy CRC 97EEA58A
Accurately ripped (confidence 3) [9EA1C10D] (AR v2)
Copy OK

Track 9

Filename F:\_EAC\Charlie Parker - Integrale Charlie Parker, Vol. 7, Just Friends (2014) [FLAC] {3CD}\CD2\09 - A Night In Tunisia.wav

Peak level 82.6 %
Extraction speed 8.1 X
Track quality 100.0 %
Test CRC A83A7681
Copy CRC A83A7681
Accurately ripped (confidence 3) [154100F2] (AR v2)
Copy OK

Track 10

Filename F:\_EAC\Charlie Parker - Integrale Charlie Parker, Vol. 7, Just Friends (2014) [FLAC] {3CD}\CD2\10 - Move - 52nd Street Theme.wav

Peak level 88.8 %
Extraction speed 8.1 X
Track quality 99.9 %
Test CRC FE4723F3
Copy CRC FE4723F3
Accurately ripped (confidence 3) [EA2317FF] (AR v2)
Copy OK

Track 11

Filename F:\_EAC\Charlie Parker - Integrale Charlie Parker, Vol. 7, Just Friends (2014) [FLAC] {3CD}\CD2\11 - The Street Beat.wav

Peak level 91.9 %
Extraction speed 9.7 X
Track quality 100.0 %
Test CRC F4817DF3
Copy CRC F4817DF3
Accurately ripped (confidence 3) [CC59E43D] (AR v2)
Copy OK

Track 12

Filename F:\_EAC\Charlie Parker - Integrale Charlie Parker, Vol. 7, Just Friends (2014) [FLAC] {3CD}\CD2\12 - Out Of Nowhere.wav

Peak level 86.8 %
Extraction speed 8.6 X
Track quality 99.9 %
Test CRC 48EDDE25
Copy CRC 48EDDE25
Accurately ripped (confidence 3) [C8E8CFDA] (AR v2)
Copy OK

Track 13

Filename F:\_EAC\Charlie Parker - Integrale Charlie Parker, Vol. 7, Just Friends (2014) [FLAC] {3CD}\CD2\13 - Little Willie Leaps - 52nd Street Theme.wav

Pre-gap length 0:00:00.25

Peak level 91.9 %
Extraction speed 10.1 X
Track quality 100.0 %
Test CRC 8BD67417
Copy CRC 8BD67417
Accurately ripped (confidence 3) [19371C99] (AR v2)
Copy OK


All tracks accurately ripped

No errors occurred

End of status report

–– CUETools DB Plugin V2.1.6

[CTDB TOCID: Whny_lId6XbjLftgwknt1tqychc-] found
Submit result: Whny_lId6XbjLftgwknt1tqychc- has been confirmed
Track | CTDB Status
1 | (1/1) Accurately ripped
2 | (1/1) Accurately ripped
3 | (1/1) Accurately ripped
4 | (1/1) Accurately ripped
5 | (1/1) Accurately ripped
6 | (1/1) Accurately ripped
7 | (1/1) Accurately ripped
8 | (1/1) Accurately ripped
9 | (1/1) Accurately ripped
10 | (1/1) Accurately ripped
11 | (1/1) Accurately ripped
12 | (1/1) Accurately ripped
13 | (1/1) Accurately ripped


==== Log checksum 5A40ED04541ECA54041B29148205A2D4B8FB23CEFC4D492110E3A52CBD1A15BF ====
Exact Audio Copy V1.3 from 2. September 2016

EAC extraction logfile from 14. January 2019, 18:02

Charlie Parker / Integrale Charlie Parker, Vol. 7, Just Friends (CD3)

Used drive : ATAPI iHAS122 F Adapter: 1 ID: 0

Read mode : Secure
Utilize accurate stream : Yes
Defeat audio cache : Yes
Make use of C2 pointers : No

Read offset correction : 6
Overread into Lead-In and Lead-Out : No
Fill up missing offset samples with silence : Yes
Delete leading and trailing silent blocks : No
Null samples used in CRC calculations : Yes
Used interface : Native Win32 interface for Win NT & 2000
Gap handling : Appended to previous track

Used output format : User Defined Encoder
Selected bitrate : 1024 kBit/s
Quality : High
Add ID3 tag : No
Command line compressor : C:\Program Files (x86)\Exact Audio Copy_v1.3\Flac\flac.exe
Additional command line options : -8 -V -T "ARTIST=%artist%" -T "TITLE=%title%" -T "ALBUM=%albumtitle%" -T "DATE=%year%" -T "TRACKNUMBER=%tracknr%" -T "TOTALTRACKS=%numtracks%" -T "GENRE=%genre%" -T "ALBUMARTIST=%albumartist%" -T "ALBUM ARTIST=%albumartist%" -T "COMMENT=EAC Secure Mode, Test & Copy, AccurateRip, FLAC -8" %source%


TOC of the extracted CD

Track | Start | Length | Start sector | End sector
––––––––––––––––––––––––––––-
1 | 0:00.00 | 7:57.37 | 0 | 35811
2 | 7:57.37 | 9:39.61 | 35812 | 79297
3 | 17:37.23 | 6:07.35 | 79298 | 106857
4 | 23:44.58 | 6:53.40 | 106858 | 137872
5 | 30:38.23 | 2:12.42 | 137873 | 147814
6 | 32:50.65 | 2:38.17 | 147815 | 159681
7 | 35:29.07 | 3:30.29 | 159682 | 175460
8 | 38:59.36 | 2:20.12 | 175461 | 185972
9 | 41:19.48 | 3:00.40 | 185973 | 199512
10 | 44:20.13 | 1:47.02 | 199513 | 207539
11 | 46:07.15 | 4:40.31 | 207540 | 228570
12 | 50:47.46 | 2:54.40 | 228571 | 241660
13 | 53:42.11 | 0:14.62 | 241661 | 242772
14 | 53:56.73 | 3:16.48 | 242773 | 257520
15 | 57:13.46 | 2:20.14 | 257521 | 268034
16 | 59:33.60 | 3:48.70 | 268035 | 285204
17 | 63:22.55 | 2:46.13 | 285205 | 297667
18 | 66:08.68 | 4:18.42 | 297668 | 317059
19 | 70:27.35 | 3:34.50 | 317060 | 333159
20 | 74:02.10 | 1:13.19 | 333160 | 338653


Track 1

Filename F:\_EAC\Charlie Parker - Integrale Charlie Parker, Vol. 7, Just Friends (2014) [FLAC] {3CD}\CD3\01 - Ornithology.wav

Pre-gap length 0:00:02.00

Peak level 96.2 %
Extraction speed 5.4 X
Track quality 100.0 %
Test CRC EE175EDD
Copy CRC EE175EDD
Accurately ripped (confidence 3) [60D330C7] (AR v2)
Copy OK

Track 2

Filename F:\_EAC\Charlie Parker - Integrale Charlie Parker, Vol. 7, Just Friends (2014) [FLAC] {3CD}\CD3\02 - I'll Remember April - 52nd Street Theme.wav

Peak level 76.8 %
Extraction speed 6.4 X
Track quality 100.0 %
Test CRC 9AC3AACE
Copy CRC 9AC3AACE
Accurately ripped (confidence 3) [B72AD92B] (AR v2)
Copy OK

Track 3

Filename F:\_EAC\Charlie Parker - Integrale Charlie Parker, Vol. 7, Just Friends (2014) [FLAC] {3CD}\CD3\03 - Embraceable You.wav

Peak level 91.5 %
Extraction speed 6.8 X
Track quality 100.0 %
Test CRC 6776CAEA
Copy CRC 6776CAEA
Accurately ripped (confidence 3) [365F3C18] (AR v2)
Copy OK

Track 4

Filename F:\_EAC\Charlie Parker - Integrale Charlie Parker, Vol. 7, Just Friends (2014) [FLAC] {3CD}\CD3\04 - Cool Blues.wav

Peak level 93.5 %
Extraction speed 7.5 X
Track quality 100.0 %
Test CRC D4CDD9AF
Copy CRC D4CDD9AF
Accurately ripped (confidence 3) [64E89AE4] (AR v2)
Copy OK

Track 5

Filename F:\_EAC\Charlie Parker - Integrale Charlie Parker, Vol. 7, Just Friends (2014) [FLAC] {3CD}\CD3\05 - 52nd Street Theme.wav

Peak level 77.8 %
Extraction speed 6.7 X
Track quality 100.0 %
Test CRC 20D77B63
Copy CRC 20D77B63
Accurately ripped (confidence 3) [BE71EFA7] (AR v2)
Copy OK

Track 6

Filename F:\_EAC\Charlie Parker - Integrale Charlie Parker, Vol. 7, Just Friends (2014) [FLAC] {3CD}\CD3\06 - I Don't Know What Time It Was.wav

Peak level 62.2 %
Extraction speed 7.0 X
Track quality 100.0 %
Test CRC FD916489
Copy CRC FD916489
Accurately ripped (confidence 3) [DBCAE4BA] (AR v2)
Copy OK

Track 7

Filename F:\_EAC\Charlie Parker - Integrale Charlie Parker, Vol. 7, Just Friends (2014) [FLAC] {3CD}\CD3\07 - Ornithology.wav

Peak level 82.4 %
Extraction speed 7.5 X
Track quality 100.0 %
Test CRC 18CDBB32
Copy CRC 18CDBB32
Accurately ripped (confidence 3) [76AC7158] (AR v2)
Copy OK

Track 8

Filename F:\_EAC\Charlie Parker - Integrale Charlie Parker, Vol. 7, Just Friends (2014) [FLAC] {3CD}\CD3\08 - Embraceable You.wav

Peak level 52.9 %
Extraction speed 7.2 X
Track quality 100.0 %
Test CRC 96BB69F2
Copy CRC 96BB69F2
Accurately ripped (confidence 3) [C189D41B] (AR v2)
Copy OK

Track 9

Filename F:\_EAC\Charlie Parker - Integrale Charlie Parker, Vol. 7, Just Friends (2014) [FLAC] {3CD}\CD3\09 - Visa.wav

Peak level 83.5 %
Extraction speed 7.7 X
Track quality 100.0 %
Test CRC A7A60C2E
Copy CRC A7A60C2E
Accurately ripped (confidence 3) [2F2167DB] (AR v2)
Copy OK

Track 10

Filename F:\_EAC\Charlie Parker - Integrale Charlie Parker, Vol. 7, Just Friends (2014) [FLAC] {3CD}\CD3\10 - I Cover The Waterfront.wav

Peak level 76.5 %
Extraction speed 7.0 X
Track quality 100.0 %
Test CRC DB6DC64B
Copy CRC DB6DC64B
Accurately ripped (confidence 3) [16382896] (AR v2)
Copy OK

Track 11

Filename F:\_EAC\Charlie Parker - Integrale Charlie Parker, Vol. 7, Just Friends (2014) [FLAC] {3CD}\CD3\11 - Scrapple From The Apple.wav

Peak level 84.1 %
Extraction speed 8.5 X
Track quality 100.0 %
Test CRC 412E69E9
Copy CRC 412E69E9
Accurately ripped (confidence 3) [23DCC1B5] (AR v2)
Copy OK

Track 12

Filename F:\_EAC\Charlie Parker - Integrale Charlie Parker, Vol. 7, Just Friends (2014) [FLAC] {3CD}\CD3\12 - Star Eyes.wav

Peak level 67.0 %
Extraction speed 7.9 X
Track quality 100.0 %
Test CRC 65768FBA
Copy CRC 65768FBA
Accurately ripped (confidence 3) [2BDC09E6] (AR v2)
Copy OK

Track 13

Filename F:\_EAC\Charlie Parker - Integrale Charlie Parker, Vol. 7, Just Friends (2014) [FLAC] {3CD}\CD3\13 - 52nd Street Theme I.wav

Peak level 56.3 %
Extraction speed 2.5 X
Track quality 100.0 %
Test CRC 7FB00865
Copy CRC 7FB00865
Accurately ripped (confidence 3) [1AD6F032] (AR v2)
Copy OK

Track 14

Filename F:\_EAC\Charlie Parker - Integrale Charlie Parker, Vol. 7, Just Friends (2014) [FLAC] {3CD}\CD3\14 - Confirmation.wav

Peak level 80.3 %
Extraction speed 8.5 X
Track quality 100.0 %
Test CRC 76E5573C
Copy CRC 76E5573C
Accurately ripped (confidence 3) [127B2C0F] (AR v2)
Copy OK

Track 15

Filename F:\_EAC\Charlie Parker - Integrale Charlie Parker, Vol. 7, Just Friends (2014) [FLAC] {3CD}\CD3\15 - Out Of Nowhere.wav

Peak level 69.2 %
Extraction speed 8.0 X
Track quality 100.0 %
Test CRC 7406E7F7
Copy CRC 7406E7F7
Accurately ripped (confidence 3) [02299451] (AR v2)
Copy OK

Track 16

Filename F:\_EAC\Charlie Parker - Integrale Charlie Parker, Vol. 7, Just Friends (2014) [FLAC] {3CD}\CD3\16 - Hot House.wav

Peak level 65.0 %
Extraction speed 9.0 X
Track quality 100.0 %
Test CRC 05345069
Copy CRC 05345069
Accurately ripped (confidence 3) [48D153AE] (AR v2)
Copy OK

Track 17

Filename F:\_EAC\Charlie Parker - Integrale Charlie Parker, Vol. 7, Just Friends (2014) [FLAC] {3CD}\CD3\17 - What's New_.wav

Peak level 69.6 %
Extraction speed 8.8 X
Track quality 100.0 %
Test CRC 3D65FF1D
Copy CRC 3D65FF1D
Accurately ripped (confidence 3) [D34BBC5C] (AR v2)
Copy OK

Track 18

Filename F:\_EAC\Charlie Parker - Integrale Charlie Parker, Vol. 7, Just Friends (2014) [FLAC] {3CD}\CD3\18 - Now's The Time.wav

Peak level 61.6 %
Extraction speed 9.5 X
Track quality 100.0 %
Test CRC 3CA2FD0A
Copy CRC 3CA2FD0A
Accurately ripped (confidence 3) [AF024D3F] (AR v2)
Copy OK

Track 19

Filename F:\_EAC\Charlie Parker - Integrale Charlie Parker, Vol. 7, Just Friends (2014) [FLAC] {3CD}\CD3\19 - Smoke Gets In Your Eyes.wav

Peak level 65.6 %
Extraction speed 9.3 X
Track quality 100.0 %
Test CRC 683CA63D
Copy CRC 683CA63D
Accurately ripped (confidence 3) [32084B0F] (AR v2)
Copy OK

Track 20

Filename F:\_EAC\Charlie Parker - Integrale Charlie Parker, Vol. 7, Just Friends (2014) [FLAC] {3CD}\CD3\20 - 52nd Street Theme II.wav

Peak level 58.7 %
Extraction speed 7.4 X
Track quality 100.0 %
Test CRC 08CCE5BB
Copy CRC 08CCE5BB
Accurately ripped (confidence 3) [62D9BA58] (AR v2)
Copy OK


All tracks accurately ripped

No errors occurred

End of status report

–– CUETools DB Plugin V2.1.6

[CTDB TOCID: lCL0Zq_oMW0Tj.eZSQC8prU.rNU-] found
Submit result: lCL0Zq_oMW0Tj.eZSQC8prU.rNU- has been confirmed
Track | CTDB Status
1 | (1/1) Accurately ripped
2 | (1/1) Accurately ripped
3 | (1/1) Accurately ripped
4 | (1/1) Accurately ripped
5 | (1/1) Accurately ripped
6 | (1/1) Accurately ripped
7 | (1/1) Accurately ripped
8 | (1/1) Accurately ripped
9 | (1/1) Accurately ripped
10 | (1/1) Accurately ripped
11 | (1/1) Accurately ripped
12 | (1/1) Accurately ripped
13 | (1/1) Accurately ripped
14 | (1/1) Accurately ripped
15 | (1/1) Accurately ripped
16 | (1/1) Accurately ripped
17 | (1/1) Accurately ripped
18 | (1/1) Accurately ripped
19 | (1/1) Accurately ripped
20 | (1/1) Accurately ripped


==== Log checksum 4C3B3203359701C8E78A32750D5D32EB837DBF220BAD6624E0552E252E344670 ====


Charlie Parker - Integrale Charlie Parker, Vol. 7, "Just Friends", 1949-1950 (2014) {3CD Set Frémeaux & Associés FA1337}


Thanks to SavoyFun for CDs…

NEXT -> Charlie Parker - Intégrale Charlie Parker, Vol. 8, "Laura", 1950 (2014) {3CD Set Frémeaux & Associés FA1338}

see more Charlie Parker…


===