Tags
Language
Tags
May 2024
Su Mo Tu We Th Fr Sa
28 29 30 1 2 3 4
5 6 7 8 9 10 11
12 13 14 15 16 17 18
19 20 21 22 23 24 25
26 27 28 29 30 31 1

Ivan Paduart - Alone (2005)

Posted By: Domestos
Ivan Paduart - Alone (2005)

Ivan Paduart - Alone (2005)
EAC Rip | FLAC (tracks+.cue, log) ~ 191.43 Mb | 01:00:21 | Covers
Post-Bop | Label: Alone Blue Records - @002

Ivan began conventional piano lessons at the age of 10, made his first attempts at improvisation on trumpet a little later, and discovered jazz when he was 17. A masterclass with Michel Herr (then pianist with Toots Thielemans) convinced him to pursue jazz full-time and, in 1988, after six months at Antwerp’s jazz studio, and one year at Rotterdam’s Royal Conservatory (where he studied with Rob Van Kreeveld), he joined the groups of American guitarist John Thomas, Italian trumpet player Gino Lattuca and Belgian trombone player Phil Abraham.

Work with Abraham earned him 2nd prize at 1989’s “International Jazz Competition at La Défense” in Paris, and he took 1st prize at “Brussels’s Jazz-Rallye” the same year with Lattuca’s band. That same year, with friends Vincent Mardens on saxophone, Patrick Deltenre on guitar, Benoît Vanderstraeten on bass and Mimi Verderame on drums, Ivan formed the quintet Aftertouch, to play original fusion music.

The album “Aftertouch” (B-Sharp Records) was released in 1990.

From 1990 to 1992 he toured Belgium, Germany and France with his own group, France with Brasilian singer Marcia Maria, and enjoyed the experience of playing support for Bill Evans, Didier Lockwood, Hermeto Pascoal, Mike Stern, and many others.

1992 saw the release of “Turquoise” (B-Sharp Records), with Patrick Deltenre ­ guitar, Peter Vandendriessche ­ sax, François Garny ­ bass and Mimi Verderame ­ drums, featuring mostly Paduart originals.

“Illusions Sensorielles” (Igloo) followed, using Ivan’s own compositional mix of straight-ahead jazz and lyrical impressionism spiced with latin influence. For this project, the trio of Paduart, Philippe Aerts (bass) and Bruno Castellucci (drums), was augmented by guest appearances from Chris Joris on percussion, guitarist Patrick Deltenre, and the Piazzola protégé, jazz accordionist Richard Galliano.

This repertoire earned him the 1993 Nicolas Dor prize for composition at the International Jazz Festival of Liège.

Also in 1993, he toured France on keyboards for singer Claude Nougaro (with Maurice Vander – piano; Jean-Marie Ecay ­ guitar; Laurent Vernerey ­ bass; Loïc Ponthieux ­ drums), and recorded a fourth album.

“Time Gone By” (AMC) features the Illusions Sensorielles trio of Paduart, Aerts and Castelucci, with the plangent trumpet and flugelhorn of Tom Harrell, and with guitarist Jean-Marie Ecay guesting on 3 songs.

“Folies Douces” (Igloo, 1994) represented a return to that special project with jazz accordionist Richard Galliano, Patrick Deltenre & co, with a suite of compositions inspired by the same muse as Illusions Sensorielles.

In 1995, after tours of Italy and Canada, Ivan began a two year international stint with Toots Thielemans – and invited him to participate on the song Ecoline for the next album. The CD ­ “White Nights” (Challenge Records) ­ also features Bob Malach and Philip Catherine as special guests.

From 1996 onwards, the focus becomes almost exclusively the trio format with Hans Van Oosterhout as regular drummer and a variety of different bass-players – although it would be Nicolas Thys who completed the trio for the CD “Clair Obscur” (Challenge Records) ­ Paduart’s tribute to one of his favourite inspirational pianists and composers, Fred Hersch.

In 1998, after touring with him for three weeks, Ivan records “Belgian Suites” (Challenge records), with Bob Malach. The rhythm section on this CD includes Van Oosterhout on drums and Hein Van De Geyn on bass, although Stefan Lievestro would replace him for the trio which toured France, Denmark and Portugal in 1999.

Belgian promoter Christian Debaere next invited Ivan to contribute arrangements for a special Belgian septet which added Steve Houben (alto), Jean-Pierre Catoul (violin) and Peter Hertmans (guitar) to a rhythm section partnering the keyboards of Nathalie Loriers with Paduart, Lievestro and van Oosterhout.

For the album “True Stories” (Igloo) special international guest Charlie Mariano replaced Houben, and it was this band which toured Belgium during 2000 until the tragic death of violinist Jean-Pierre Catoul in a January 2001 car crash.

From this point, Ivan focused back on trio , releasing “Trio Live” (Omnivore/Virgin) in October 2001, and touring Sweden, Denmark, Norway, Switzerland, France, Italy, Netherlands, Luxembourg, and Belgium with special guest Rick Margitza, the last sax player with Miles Davis.

The trio occasionally calls on the collaboration of soloistes like Rick Margitza (for the album “Still” on A-records, in 2001) or Toots Thielemans, Toon Roos, Bert Joris and Fay Claassen in the double album Live “A Night at the Music village” (Jazz ‘n pulz).

In 2003, Ivan Paduart was extensively touring with Rick Margitza, Toon Roos, Fay Claassen, Nigel Hitchcock, Toots Thielemans, Tierney Sutton, Anita Wardell (…) and recorded “Blue Landscapes” (with Philippe Aerts and Dré Pallemaerts) for the Japanese label VIDEOARTS MUSIC.

Among planed projects, end of January 2004, concerts and recording with Richard Galliano + l’ensemble de musique nouvelle under the direction of Jean-Paul Dessy (“Douces Illusions”/IGLOO records).

He plays some concerts with the Brussels jazz orchestra (january), and with Toots Thielemans on the festivals of Funchal/Madeira and Porto/Portugal (may).

On august 2004, after a tour with the guitarist Quentin Dujardin, he records “Vivre” (Arsisworld) ; this is his first experience in the field of the “World music”.

On may 2005, he releases his first solo album “Alone” (Alone blue records) with takes issued from sessions in Porto/Portugal (studio MB) and Genk/Belgium (studio Crescendo).
June sees him touring in Macao (w/ Rick Margitza) and Japan (w/ his trio); he records a “A night in Tokyo” at the “Body and soul” (Tokyo) for the Polystar label.

On july, he records in trio a “My French heart” for Japan (instrumental versions of famous French songs).
On august, he plays for the first time in duo with his old pal Richard Galliano, at the Gaume jazz festival (Belgium) and in Mulhouse (France)

In 2006, Ivan Paduart plays regulary with Richard Galliano, including concerts at the Concertgebouw/Amsterdam, Sofia jazz festival and Marciac jazz festival (w. Richard Bona and Manu Katché).

The next year he’s asked for recording 12 of his compositions with the prestigious Metropole orchestra, under the leading of Jim Mc Neely (arrangements by Michel Herr, Jim Mc Neely, Bert Joris and Ivan).
The live double CD “Crush” is recorded on december 12, 2008 at the Cirque royal/Brussels.

2011 sees him record “HERRitage”, a tribute to his friend and colleague Michel Herr ; the 9 compositions are written by Michel and played by Ivan, Philip Catherine, Bert Joris, Toon Roos, Philippe Aerts and Hans Van Oosterhout. On october and november, he plays extensively with his trio (Philippe Aerts and Dré Pallemaerts).

In December, he plays 5 concerts with guitarist Sylvain Luc. On january 2012, he tours with his quintet, including Jeroen Van Herzele, Carlo Nardozza, Philippe Aerts and Joost Van Schaik.
In May 2012, he records 9 original compositions on “Ibiza” (Mons records) with Philippe Aerts and Hans Van Oosterhout.
In june, he records a tribute to Burt Bacharach on ” Plays Burt Bacharach” (SEPTEMBER) with Bob Malach, Jay Anderson and Clarence Penn.
This session was recorded in Sear Sound studio (N.Y.C.) by James Farber (M.Brecker, C.Corea, H.Hancock,…).
In 2013 and 2014, he plays extensively with his trio (including international festivals…) for the promotion of “Ibiza”.

In february 2014, he releases “Alone #” (Quetzal records), a remixed and remastered version of “Alone”, including 3 extra tunes.
Ending april sees him participating to the new Jan De Haas album with fellows Sal La Rocca and Mimi Verderame.

April 2014 sees him participating to the album of vibraphonist Jan De Haas (“Dreams ago”/De Werf) with fellows Sal La Rocca (bass) and Mimi Verderame (drums).
In december, Ivan records “Enivrance” with Philippe Aerts (bass) and Hans Van Oosterhout (drums), a trio album with 9 own compositions.

Currently he is preparing a project with Manu Katché, Quentin Dujardin, Richard Bona and Bert Joris.



Track List:
01. So (4:20)
02. Renaissance (2:34)
03. Arythmie (1:49)
04. Spring in Your Mind (1:26)
05. Never Say Never (2:08)
06. Life as It Is (3:44)
07. Zen (4:48)
08. Quintessence (2:12)
09. Childs (1:47)
10. To Say Things (2:17)
11. Veronique (3:30)
12. Igor (4:38)
13. Ignorance Infinie (2:01)
14. Impro (1:59)
15. If I Knew Then (2:07)
16. Blue Landscapes (3:19)
17. Solstice d'Ete (3:55)
18. Slow Motion (2:00)
19. Aigre Doux (1:26)
20. You Must Believe in Spring (2:29)
21. Bleeding Heart (1:32)
22. Wait for Me (2:17)
23. To My Parents (2:03)

Ivan Paduart - piano

Recorded at Crescendo Studio, Genk, Belgium in autumn 2003.

Ivan Paduart - Alone (2005)

Exact Audio Copy V1.3 from 2. September 2016

EAC extraction logfile from 29. January 2020, 13:59

Ivan Paduart / Alone

Used drive : MATSHITADVD-RAM SW-9573S Adapter: 1 ID: 0

Read mode : Secure
Utilize accurate stream : Yes
Defeat audio cache : Yes
Make use of C2 pointers : No

Read offset correction : 102
Overread into Lead-In and Lead-Out : No
Fill up missing offset samples with silence : Yes
Delete leading and trailing silent blocks : No
Null samples used in CRC calculations : Yes
Used interface : Native Win32 interface for Win NT & 2000
Gap handling : Appended to previous track

Used output format : User Defined Encoder
Selected bitrate : 1024 kBit/s
Quality : High
Add ID3 tag : No
Command line compressor : C:\flac-1.3.2-win\win32\flac.exe
Additional command line options : -8 -V -T "ARTIST=%artist%" -T "TITLE=%title%" -T "ALBUM=%albumtitle%" -T "DATE=%year%" -T "TRACKNUMBER=%tracknr%" -T "GENRE=%genre%" -T "PERFORMER=%albuminterpret%" -T "COMPOSER=%composer%" %haslyrics%–tag-from-file=LYRICS="%lyricsfile%"%haslyrics% -T "ALBUMARTIST=%albumartist%" -T "DISCNUMBER=%cdnumber%" -T "TOTALDISCS=%totalcds%" -T "TOTALTRACKS=%numtracks%" -T "COMMENT=%comment%" %source% -o %dest%


TOC of the extracted CD

Track | Start | Length | Start sector | End sector
––––––––––––––––––––––––––––-
1 | 0:00.00 | 4:20.01 | 0 | 19500
2 | 4:20.01 | 2:34.27 | 19501 | 31077
3 | 6:54.28 | 1:48.42 | 31078 | 39219
4 | 8:42.70 | 1:25.61 | 39220 | 45655
5 | 10:08.56 | 2:07.49 | 45656 | 55229
6 | 12:16.30 | 3:43.69 | 55230 | 72023
7 | 16:00.24 | 4:48.04 | 72024 | 93627
8 | 20:48.28 | 2:12.29 | 93628 | 103556
9 | 23:00.57 | 1:46.43 | 103557 | 111549
10 | 24:47.25 | 2:17.37 | 111550 | 121861
11 | 27:04.62 | 3:29.67 | 121862 | 137603
12 | 30:34.54 | 4:38.12 | 137604 | 158465
13 | 35:12.66 | 2:00.55 | 158466 | 167520
14 | 37:13.46 | 1:59.36 | 167521 | 176481
15 | 39:13.07 | 2:06.51 | 176482 | 185982
16 | 41:19.58 | 3:19.37 | 185983 | 200944
17 | 44:39.20 | 3:54.73 | 200945 | 218567
18 | 48:34.18 | 2:00.03 | 218568 | 227570
19 | 50:34.21 | 1:26.17 | 227571 | 234037
20 | 52:00.38 | 2:28.48 | 234038 | 245185
21 | 54:29.11 | 1:32.27 | 245186 | 252112
22 | 56:01.38 | 2:17.27 | 252113 | 262414
23 | 58:18.65 | 2:03.11 | 262415 | 271650


Track 1

Filename H:\EAC\Ivan Paduart - 2005 - Alone [FLAC]\01 - So.wav

Pre-gap length 0:00:02.00

Peak level 99.9 %
Extraction speed 3.0 X
Track quality 100.0 %
Test CRC F9AD7913
Copy CRC F9AD7913
Accurately ripped (confidence 1) [2AFC8362] (AR v2)
Copy OK

Track 2

Filename H:\EAC\Ivan Paduart - 2005 - Alone [FLAC]\02 - Renaissance.wav

Pre-gap length 0:00:02.00

Peak level 100.0 %
Extraction speed 2.6 X
Track quality 99.9 %
Test CRC 552FD22D
Copy CRC 552FD22D
Accurately ripped (confidence 1) [5E634BA1] (AR v2)
Copy OK

Track 3

Filename H:\EAC\Ivan Paduart - 2005 - Alone [FLAC]\03 - Aryhtmie.wav

Pre-gap length 0:00:02.00

Peak level 100.0 %
Extraction speed 2.3 X
Track quality 99.9 %
Test CRC D2E09DA0
Copy CRC D2E09DA0
Accurately ripped (confidence 1) [3D0AFCC3] (AR v2)
Copy OK

Track 4

Filename H:\EAC\Ivan Paduart - 2005 - Alone [FLAC]\04 - Spring in Your Mind.wav

Pre-gap length 0:00:02.00

Peak level 100.0 %
Extraction speed 2.8 X
Track quality 100.0 %
Test CRC 675C76D6
Copy CRC 675C76D6
Accurately ripped (confidence 1) [01D54658] (AR v2)
Copy OK

Track 5

Filename H:\EAC\Ivan Paduart - 2005 - Alone [FLAC]\05 - Never Say Never.wav

Pre-gap length 0:00:02.00

Peak level 100.0 %
Extraction speed 3.3 X
Track quality 100.0 %
Test CRC 4DF347B9
Copy CRC 4DF347B9
Accurately ripped (confidence 1) [A0FBB1DF] (AR v2)
Copy OK

Track 6

Filename H:\EAC\Ivan Paduart - 2005 - Alone [FLAC]\06 - Life As It Is.wav

Pre-gap length 0:00:02.00

Peak level 81.9 %
Extraction speed 3.9 X
Track quality 100.0 %
Test CRC 2236C9A5
Copy CRC 2236C9A5
Accurately ripped (confidence 1) [A90FE285] (AR v2)
Copy OK

Track 7

Filename H:\EAC\Ivan Paduart - 2005 - Alone [FLAC]\07 - Zen.wav

Pre-gap length 0:00:02.00

Peak level 100.0 %
Extraction speed 4.3 X
Track quality 100.0 %
Test CRC 563AC8B3
Copy CRC 563AC8B3
Accurately ripped (confidence 1) [A021296D] (AR v2)
Copy OK

Track 8

Filename H:\EAC\Ivan Paduart - 2005 - Alone [FLAC]\08 - Quintessence.wav

Pre-gap length 0:00:02.00

Peak level 100.0 %
Extraction speed 3.9 X
Track quality 100.0 %
Test CRC 6DBD431C
Copy CRC 6DBD431C
Accurately ripped (confidence 1) [D4ADF489] (AR v2)
Copy OK

Track 9

Filename H:\EAC\Ivan Paduart - 2005 - Alone [FLAC]\09 - Childs.wav

Pre-gap length 0:00:02.00

Peak level 100.0 %
Extraction speed 3.1 X
Track quality 99.9 %
Test CRC 1A8B306A
Copy CRC 1A8B306A
Accurately ripped (confidence 1) [F2E55A45] (AR v2)
Copy OK

Track 10

Filename H:\EAC\Ivan Paduart - 2005 - Alone [FLAC]\10 - To Say Things.wav

Pre-gap length 0:00:02.00

Peak level 100.0 %
Extraction speed 4.2 X
Track quality 100.0 %
Test CRC 36A14F46
Copy CRC 36A14F46
Accurately ripped (confidence 1) [7D2ACD60] (AR v2)
Copy OK

Track 11

Filename H:\EAC\Ivan Paduart - 2005 - Alone [FLAC]\11 - Véronique.wav

Pre-gap length 0:00:02.00

Peak level 82.4 %
Extraction speed 4.6 X
Track quality 100.0 %
Test CRC 51A3F0FF
Copy CRC 51A3F0FF
Accurately ripped (confidence 1) [7EB8B969] (AR v2)
Copy OK

Track 12

Filename H:\EAC\Ivan Paduart - 2005 - Alone [FLAC]\12 - Igor.wav

Pre-gap length 0:00:02.00

Peak level 100.0 %
Extraction speed 5.1 X
Track quality 100.0 %
Test CRC 15CEFD8A
Copy CRC 15CEFD8A
Accurately ripped (confidence 1) [596A5A3E] (AR v2)
Copy OK

Track 13

Filename H:\EAC\Ivan Paduart - 2005 - Alone [FLAC]\13 - Ignorance Infinie.wav

Pre-gap length 0:00:02.00

Peak level 100.0 %
Extraction speed 4.4 X
Track quality 100.0 %
Test CRC 4300E978
Copy CRC 4300E978
Accurately ripped (confidence 1) [09C982DE] (AR v2)
Copy OK

Track 14

Filename H:\EAC\Ivan Paduart - 2005 - Alone [FLAC]\14 - Impro.wav

Pre-gap length 0:00:02.00

Peak level 100.0 %
Extraction speed 4.5 X
Track quality 100.0 %
Test CRC 60E52ACF
Copy CRC 60E52ACF
Accurately ripped (confidence 1) [014BC74C] (AR v2)
Copy OK

Track 15

Filename H:\EAC\Ivan Paduart - 2005 - Alone [FLAC]\15 - If I Knew Then.wav

Pre-gap length 0:00:02.00

Peak level 99.9 %
Extraction speed 4.6 X
Track quality 100.0 %
Test CRC B5EEAD17
Copy CRC B5EEAD17
Accurately ripped (confidence 1) [47651D85] (AR v2)
Copy OK

Track 16

Filename H:\EAC\Ivan Paduart - 2005 - Alone [FLAC]\16 - Blue Landscapes.wav

Pre-gap length 0:00:02.00

Peak level 100.0 %
Extraction speed 5.3 X
Track quality 100.0 %
Test CRC C0CF2C75
Copy CRC C0CF2C75
Accurately ripped (confidence 1) [7FCE6C55] (AR v2)
Copy OK

Track 17

Filename H:\EAC\Ivan Paduart - 2005 - Alone [FLAC]\17 - Solstice d'Eté.wav

Pre-gap length 0:00:02.00

Peak level 100.0 %
Extraction speed 5.5 X
Track quality 100.0 %
Test CRC 90517453
Copy CRC 90517453
Accurately ripped (confidence 1) [827B876A] (AR v2)
Copy OK

Track 18

Filename H:\EAC\Ivan Paduart - 2005 - Alone [FLAC]\18 - Slow Motion.wav

Pre-gap length 0:00:02.00

Peak level 99.9 %
Extraction speed 4.9 X
Track quality 100.0 %
Test CRC 647F2A47
Copy CRC 647F2A47
Accurately ripped (confidence 1) [29144008] (AR v2)
Copy OK

Track 19

Filename H:\EAC\Ivan Paduart - 2005 - Alone [FLAC]\19 - Aigre Doux.wav

Pre-gap length 0:00:02.00

Peak level 99.9 %
Extraction speed 4.5 X
Track quality 100.0 %
Test CRC 7F76C9CF
Copy CRC 7F76C9CF
Accurately ripped (confidence 1) [D1E8EEE2] (AR v2)
Copy OK

Track 20

Filename H:\EAC\Ivan Paduart - 2005 - Alone [FLAC]\20 - You Must Believe In Spring.wav

Pre-gap length 0:00:02.00

Peak level 99.9 %
Extraction speed 5.3 X
Track quality 100.0 %
Test CRC 6F76E7DD
Copy CRC 6F76E7DD
Accurately ripped (confidence 1) [6E382A90] (AR v2)
Copy OK

Track 21

Filename H:\EAC\Ivan Paduart - 2005 - Alone [FLAC]\21 - Bleeding Heart.wav

Pre-gap length 0:00:02.00

Peak level 100.0 %
Extraction speed 4.9 X
Track quality 100.0 %
Test CRC A712069B
Copy CRC A712069B
Accurately ripped (confidence 1) [EA372851] (AR v2)
Copy OK

Track 22

Filename H:\EAC\Ivan Paduart - 2005 - Alone [FLAC]\22 - Wait For Me.wav

Pre-gap length 0:00:02.00

Peak level 100.0 %
Extraction speed 5.3 X
Track quality 100.0 %
Test CRC 3173C54F
Copy CRC 3173C54F
Accurately ripped (confidence 1) [39C071E7] (AR v2)
Copy OK

Track 23

Filename H:\EAC\Ivan Paduart - 2005 - Alone [FLAC]\23 - To My Parents.wav

Pre-gap length 0:00:02.00

Peak level 100.0 %
Extraction speed 4.4 X
Track quality 99.9 %
Test CRC 2003E1B8
Copy CRC 2003E1B8
Accurately ripped (confidence 1) [8583BB2C] (AR v2)
Copy OK


All tracks accurately ripped

No errors occurred

End of status report

–– CUETools DB Plugin V2.1.6

[CTDB TOCID: fmQGWYKWNkj3K6mhpMS74JMuHw4-] found
Submit result: fmQGWYKWNkj3K6mhpMS74JMuHw4- has been confirmed
Track | CTDB Status
1 | (1/1) Accurately ripped
2 | (1/1) Accurately ripped
3 | (1/1) Accurately ripped
4 | (1/1) Accurately ripped
5 | (1/1) Accurately ripped
6 | (1/1) Accurately ripped
7 | (1/1) Accurately ripped
8 | (1/1) Accurately ripped
9 | (1/1) Accurately ripped
10 | (1/1) Accurately ripped
11 | (1/1) Accurately ripped
12 | (1/1) Accurately ripped
13 | (1/1) Accurately ripped
14 | (1/1) Accurately ripped
15 | (1/1) Accurately ripped
16 | (1/1) Accurately ripped
17 | (1/1) Accurately ripped
18 | (1/1) Accurately ripped
19 | (1/1) Accurately ripped
20 | (1/1) Accurately ripped
21 | (1/1) Accurately ripped
22 | (1/1) Accurately ripped
23 | (1/1) Accurately ripped


==== Log checksum B2FE09F344D63B2E367520C107C064C5165E2D317AF26EAFA24A7800A3B1882A ====

All thanks go to the maestro

More Music in My Blog
Follow My RSS Channel