Tags
Language
Tags

Jay Magliori & Dick Twardzik - Jazz Workshop Quintet (2020)

Posted By: delpotro
Jay Magliori & Dick Twardzik - Jazz Workshop Quintet (2020)

Jay Magliori & Dick Twardzik - Jazz Workshop Quintet (2020)
EAC Rip | FLAC (tracks+log+.cue) - 148 Mb | MP3 CBR 320 kbps - 98 Mb | 00:42:28
Jazz, Cool | Label: Fresh Sound Records

Harvard WHRB radio station has been on the air for nearly 80 years. In the 1940s, it transmitted to Harvard dormitories only. In the 1950s, the station obtained an FM license and become the first source for exciting, entertaining, classical music, jazz, news, and sports broadcasts to the entire Boston area. Harvard Radio’s daily broadcast explored a great repertoire of music left largely untouched by other commercial stations.

By 1952, Boston was experiencing a renaissance in jazz led by such local modernists as Charlie Mariano, Jaki Byard, Joe Gordon, Nat Pierce, Herb Pomeroy, and Serge Chaloff, as well as talented newcomers like tenor saxophonist Jay Migliori (1930-2001), one of the most active young jazzmen on the scene. In the spring of 1954, after having played with Charlie Parker at the Hi-Hat club and in Chaloff’s sextet at the Storyville, Migliori joined forces with his friend pianist Dick Twardzik (1931-1955)—a young prodigy who had already recorded with Charlie Mariano and been praised by Bird—to organize a quintet that would play at the Jazz Workshop Stable. With them were three younger modernists, by the name of Johnny Rae, vibes, Jack Carter, bass, and Bob Atcheson, drums.

The Stable was jumping with its newly established jazz policy, and most of the best local jazz was going through its stage with the fervent support of Boston jazz fans. By the time spring was turning to summer, Harvard’s radio station WHRB offered to record the Migliori-Twardzik quintet. The result was this exciting session we are releasing here for the first time.
Tracklist:
01. Fatty
02. Get Happy
03. 'Round Midnight
04. Chanticleer
05. Ryan's Love
06. Willow Weep For Me
07. Fatty
08. Get Happy
09. Blues
10. Bouncin' With Bartok

Exact Audio Copy V1.3 from 2. September 2016

EAC extraction logfile from 13. July 2021, 16:28

Jay Migliori and Dick Twardzik / Jazz Workshop Quintet

Used drive : HL-DT-STBDDVDRW UH12LS28 Adapter: 1 ID: 0

Read mode : Secure
Utilize accurate stream : Yes
Defeat audio cache : Yes
Make use of C2 pointers : No

Read offset correction : 667
Overread into Lead-In and Lead-Out : No
Fill up missing offset samples with silence : Yes
Delete leading and trailing silent blocks : No
Null samples used in CRC calculations : Yes
Used interface : Native Win32 interface for Win NT & 2000
Gap handling : Appended to previous track

Used output format : User Defined Encoder
Selected bitrate : 1024 kBit/s
Quality : High
Add ID3 tag : No
Command line compressor : K:\Program Files (x86)\Exact Audio Copy\Flac\flac.exe
Additional command line options : -8 -V -T "ARTIST=%artist%" -T "TITLE=%title%" -T "ALBUM=%albumtitle%" -T "DATE=%year%" -T "TRACKNUMBER=%tracknr%" -T "GENRE=%genre%" -T "PERFORMER=%albuminterpret%" -T "COMPOSER=%composer%" %haslyrics%–tag-from-file=LYRICS="%lyricsfile%"%haslyrics% -T "ALBUMARTIST=%albumartist%" -T "DISCNUMBER=%cdnumber%" -T "TOTALDISCS=%totalcds%" -T "TOTALTRACKS=%numtracks%" -T "COMMENT=%comment%" %source% -o %dest%


TOC of the extracted CD

Track | Start | Length | Start sector | End sector
––––––––––––––––––––––––––––-
1 | 0:00.00 | 6:17.24 | 0 | 28298
2 | 6:17.24 | 3:45.25 | 28299 | 45198
3 | 10:02.49 | 3:42.70 | 45199 | 61918
4 | 13:45.44 | 6:14.10 | 61919 | 89978
5 | 19:59.54 | 4:44.54 | 89979 | 111332
6 | 24:44.33 | 4:35.33 | 111333 | 131990
7 | 29:19.66 | 5:38.44 | 131991 | 157384
8 | 34:58.35 | 3:35.58 | 157385 | 173567
9 | 38:34.18 | 2:32.72 | 173568 | 185039
10 | 41:07.15 | 1:21.02 | 185040 | 191116


Track 1

Filename E:\EAC music folders\Jay Magliori and Dick Twardzik - Jazz Workshop Quintet (2020) [FLAC] {Fresh Sound Records FSR-CD 989}\01 Fatty.wav

Pre-gap length 0:00:02.00

Peak level 97.7 %
Extraction speed 1.2 X
Track quality 100.0 %
Test CRC 6BB83669
Copy CRC 6BB83669
Track not present in AccurateRip database
Copy OK

Track 2

Filename E:\EAC music folders\Jay Magliori and Dick Twardzik - Jazz Workshop Quintet (2020) [FLAC] {Fresh Sound Records FSR-CD 989}\02 Get Happy.wav

Pre-gap length 0:00:01.30

Peak level 97.7 %
Extraction speed 1.3 X
Track quality 100.0 %
Test CRC 65A55AE3
Copy CRC 65A55AE3
Track not present in AccurateRip database
Copy OK

Track 3

Filename E:\EAC music folders\Jay Magliori and Dick Twardzik - Jazz Workshop Quintet (2020) [FLAC] {Fresh Sound Records FSR-CD 989}\03 'Round Midnight.wav

Pre-gap length 0:00:02.12

Peak level 97.7 %
Extraction speed 1.4 X
Track quality 100.0 %
Test CRC 6BB1BABC
Copy CRC 6BB1BABC
Track not present in AccurateRip database
Copy OK

Track 4

Filename E:\EAC music folders\Jay Magliori and Dick Twardzik - Jazz Workshop Quintet (2020) [FLAC] {Fresh Sound Records FSR-CD 989}\04 Chanticleer.wav

Pre-gap length 0:00:01.16

Peak level 97.7 %
Extraction speed 1.5 X
Track quality 99.9 %
Test CRC 7EE451C0
Copy CRC 7EE451C0
Track not present in AccurateRip database
Copy OK

Track 5

Filename E:\EAC music folders\Jay Magliori and Dick Twardzik - Jazz Workshop Quintet (2020) [FLAC] {Fresh Sound Records FSR-CD 989}\05 Ryan's Love.wav

Pre-gap length 0:00:02.00

Peak level 97.6 %
Extraction speed 1.7 X
Track quality 100.0 %
Test CRC F2FA71BD
Copy CRC F2FA71BD
Track not present in AccurateRip database
Copy OK

Track 6

Filename E:\EAC music folders\Jay Magliori and Dick Twardzik - Jazz Workshop Quintet (2020) [FLAC] {Fresh Sound Records FSR-CD 989}\06 Willow Weep For Me.wav

Pre-gap length 0:00:01.68

Peak level 97.7 %
Extraction speed 1.8 X
Track quality 100.0 %
Test CRC C8FE6E0C
Copy CRC C8FE6E0C
Track not present in AccurateRip database
Copy OK

Track 7

Filename E:\EAC music folders\Jay Magliori and Dick Twardzik - Jazz Workshop Quintet (2020) [FLAC] {Fresh Sound Records FSR-CD 989}\07 Fatty.wav

Pre-gap length 0:00:01.74

Peak level 97.6 %
Extraction speed 1.9 X
Track quality 100.0 %
Test CRC E6754552
Copy CRC E6754552
Track not present in AccurateRip database
Copy OK

Track 8

Filename E:\EAC music folders\Jay Magliori and Dick Twardzik - Jazz Workshop Quintet (2020) [FLAC] {Fresh Sound Records FSR-CD 989}\08 Get Happy.wav

Pre-gap length 0:00:01.69

Peak level 97.7 %
Extraction speed 1.7 X
Track quality 99.9 %
Test CRC 966C76DD
Copy CRC 966C76DD
Track not present in AccurateRip database
Copy OK

Track 9

Filename E:\EAC music folders\Jay Magliori and Dick Twardzik - Jazz Workshop Quintet (2020) [FLAC] {Fresh Sound Records FSR-CD 989}\09 Blues.wav

Pre-gap length 0:00:02.16

Peak level 70.9 %
Extraction speed 1.9 X
Track quality 100.0 %
Test CRC F4C41752
Copy CRC F4C41752
Track not present in AccurateRip database
Copy OK

Track 10

Filename E:\EAC music folders\Jay Magliori and Dick Twardzik - Jazz Workshop Quintet (2020) [FLAC] {Fresh Sound Records FSR-CD 989}\10 Bouncin' With Bartok.wav

Pre-gap length 0:00:02.22

Peak level 66.8 %
Extraction speed 1.2 X
Track quality 99.8 %
Test CRC 114D09A0
Copy CRC 114D09A0
Track not present in AccurateRip database
Copy OK


None of the tracks are present in the AccurateRip database

No errors occurred

End of status report

–– CUETools DB Plugin V2.1.6

[CTDB TOCID: dzFzSa2r_he0BMk6EQdlChR9DfU-] found
Submit result: dzFzSa2r_he0BMk6EQdlChR9DfU- has been confirmed
Track | CTDB Status
1 | (1/1) Accurately ripped
2 | (1/1) Accurately ripped
3 | (1/1) Accurately ripped
4 | (1/1) Accurately ripped
5 | (1/1) Accurately ripped
6 | (1/1) Accurately ripped
7 | (1/1) Accurately ripped
8 | (1/1) Accurately ripped
9 | (1/1) Accurately ripped
10 | (1/1) Accurately ripped


==== Log checksum DDD90ADC4D3A3856B715BD2A317397BC2EDCBD0BC29F370BF59585118BA6DEEF ====

Thanks to the Original ripper !