Subcategories
Tags
Language
Tags

Jean-Fernand Girard - Jazz Waves (2017)

Posted By: Domestos
Jean-Fernand Girard - Jazz Waves (2017)

Jean-Fernand Girard - Jazz Waves (2017)
EAC Rip | FLAC (tracks+.cue, log) ~ 279.92 Mb | 50:52 | Cover
Post-Bop, Contemporary Jazz | Label: Productions Bros - BROS11702

Jean Fernand Girard, baccalauréat en piano classique, composition et arrangements ainsi que maîtrise en piano jazz. Sur la scène musicale depuis 30 ans comme pianiste, arrangeur et compositeur ( classique et jazz ) directeur musical à la télé et sur scène. Réalisateur et coproducteur des albums du regretté Bob Walsh. Chef d’orchestre sur scène pour les tournées: Bob Walsh, Marie-Michèle Desrosiers etc. Arrangements et pianiste jazz invité avec I Musici. Arrangements concerts de Noël pour OSM en 2014 et 2016. Chef d’orchestre et arrangeur pour hommage à B.B.King, FIJM 2015.

Pour faire suite à l’album Clin d’œil qui s’est mérité d’excellentes critiques, Jazz Waves se veut une rencontre de musiciens en pleine possession de leur langage. Ce nouvel opus sera pour la public, une incursion avec la complicité et la virtuosité, une rencontre avec des jazzmen de grand talent et d’une générosité musicale hors du commun. Le plaisir et l'immense liberté que procure l’improvisation pure avec des thèmes musicaux mélodiques et accessibles.



Track List:
01. Jazz Waves (Girard) - 6:21
02. Icarus (Towner) - 5:37
03. Jour de pluie a la Satie (Girard) - 4:34
04. Belle sauvageonne (Girard) - 4:49
05. For You My Friend (Girard) - 4:40
06. Reflet (Girard) - 4:57
07. No Regrets…But… (Girard) - 5:00
08. Bajo del Sol (Girard) - 5:27
09. Do It Together (Girard) - 4:29
10. Petite fleur (Bechet) - 4:58

Jean-Fernand Girard - piano
Paul Brochu - drums
Frederic Alarie - bass, double bass
Francois D'Amours - saxophone
Michael Pucci - guitar
Stephane Allard - violin
Guy Belanger - harmonica (#9)
Jean Cyr - double bass (#9)

Exact Audio Copy V1.3 from 2. September 2016

EAC extraction logfile from 26. November 2017, 16:28

JF Girard / Jazz Waves

Used drive : ATAPI DVD A DH16AAL Adapter: 1 ID: 0

Read mode : Secure
Utilize accurate stream : Yes
Defeat audio cache : Yes
Make use of C2 pointers : No

Read offset correction : 6
Overread into Lead-In and Lead-Out : No
Fill up missing offset samples with silence : Yes
Delete leading and trailing silent blocks : No
Null samples used in CRC calculations : Yes
Used interface : Native Win32 interface for Win NT & 2000
Gap handling : Appended to previous track

Used output format : User Defined Encoder
Selected bitrate : 1024 kBit/s
Quality : High
Add ID3 tag : No
Command line compressor : C:\Program Files (x86)\Exact Audio Copy\Flac\flac.exe
Additional command line options : -8 -e -p -V -T "ARTIST=%artist%" -T "TITLE=%title%" -T "ALBUM=%albumtitle%" -T "DATE=%year%" -T "TRACKNUMBER=%tracknr%" -T "GENRE=%genre%" -T "PERFORMER=%albuminterpret%" -T "COMPOSER=%composer%" %haslyrics%–tag-from-file=LYRICS="%lyricsfile%"%haslyrics% -T "ALBUMARTIST=%albumartist%" -T "DISCNUMBER=%cdnumber%" -T "TOTALDISCS=%totalcds%" -T "TOTALTRACKS=%numtracks%" -T "COMMENT=%comment%" %source% -o %dest%


TOC of the extracted CD

Track | Start | Length | Start sector | End sector
––––––––––––––––––––––––––––-
1 | 0:00.00 | 6:20.61 | 0 | 28560
2 | 6:20.61 | 5:37.07 | 28561 | 53842
3 | 11:57.68 | 4:33.69 | 53843 | 74386
4 | 16:31.62 | 4:49.12 | 74387 | 96073
5 | 21:20.74 | 4:39.60 | 96074 | 117058
6 | 26:00.59 | 4:56.58 | 117059 | 139316
7 | 30:57.42 | 4:59.72 | 139317 | 161813
8 | 35:57.39 | 5:27.20 | 161814 | 186358
9 | 41:24.59 | 4:29.10 | 186359 | 206543
10 | 45:53.69 | 4:57.40 | 206544 | 228858


Track 1

Filename C:\Zelou\EAC Rips\JF Girard - Jazz Waves (2017) [FLAC] {BROS11702}\01 - Jazz Waves.wav

Pre-gap length 0:00:02.00

Peak level 99.7 %
Extraction speed 1.6 X
Track quality 99.9 %
Test CRC 15743788
Copy CRC 15743788
Track not present in AccurateRip database
Copy OK

Track 2

Filename C:\Zelou\EAC Rips\JF Girard - Jazz Waves (2017) [FLAC] {BROS11702}\02 - Icarus.wav

Pre-gap length 0:00:00.16

Peak level 99.9 %
Extraction speed 2.2 X
Track quality 100.0 %
Test CRC 974FEC84
Copy CRC 974FEC84
Track not present in AccurateRip database
Copy OK

Track 3

Filename C:\Zelou\EAC Rips\JF Girard - Jazz Waves (2017) [FLAC] {BROS11702}\03 - Jour de pluie à la Satie.wav

Pre-gap length 0:00:00.16

Peak level 98.8 %
Extraction speed 2.3 X
Track quality 100.0 %
Test CRC 6CCE4C1E
Copy CRC 6CCE4C1E
Track not present in AccurateRip database
Copy OK

Track 4

Filename C:\Zelou\EAC Rips\JF Girard - Jazz Waves (2017) [FLAC] {BROS11702}\04 - Belle sauvageonne.wav

Pre-gap length 0:00:00.16

Peak level 99.6 %
Extraction speed 1.9 X
Track quality 99.9 %
Test CRC ADA3DCCE
Copy CRC ADA3DCCE
Track not present in AccurateRip database
Copy OK

Track 5

Filename C:\Zelou\EAC Rips\JF Girard - Jazz Waves (2017) [FLAC] {BROS11702}\05 - For You My Friend.wav

Pre-gap length 0:00:00.16

Peak level 98.9 %
Extraction speed 2.7 X
Track quality 100.0 %
Test CRC DD1B54A0
Copy CRC DD1B54A0
Track not present in AccurateRip database
Copy OK

Track 6

Filename C:\Zelou\EAC Rips\JF Girard - Jazz Waves (2017) [FLAC] {BROS11702}\06 - Reflet.wav

Pre-gap length 0:00:00.16

Peak level 99.9 %
Extraction speed 2.2 X
Track quality 99.9 %
Test CRC A2B3DE8C
Copy CRC A2B3DE8C
Track not present in AccurateRip database
Copy OK

Track 7

Filename C:\Zelou\EAC Rips\JF Girard - Jazz Waves (2017) [FLAC] {BROS11702}\07 - No Regrets…But….wav

Pre-gap length 0:00:00.16

Peak level 98.9 %
Extraction speed 3.0 X
Track quality 100.0 %
Test CRC F9C952C1
Copy CRC F9C952C1
Track not present in AccurateRip database
Copy OK

Track 8

Filename C:\Zelou\EAC Rips\JF Girard - Jazz Waves (2017) [FLAC] {BROS11702}\08 - Bajo El Sol.wav

Pre-gap length 0:00:00.16

Peak level 99.7 %
Extraction speed 3.2 X
Track quality 100.0 %
Test CRC 123BAC2D
Copy CRC 123BAC2D
Track not present in AccurateRip database
Copy OK

Track 9

Filename C:\Zelou\EAC Rips\JF Girard - Jazz Waves (2017) [FLAC] {BROS11702}\09 - Do it Together.wav

Pre-gap length 0:00:00.16

Peak level 98.8 %
Extraction speed 3.3 X
Track quality 100.0 %
Test CRC C8C18B6C
Copy CRC C8C18B6C
Track not present in AccurateRip database
Copy OK

Track 10

Filename C:\Zelou\EAC Rips\JF Girard - Jazz Waves (2017) [FLAC] {BROS11702}\10 - Petite fleur.wav

Pre-gap length 0:00:00.16

Peak level 98.8 %
Extraction speed 3.5 X
Track quality 100.0 %
Test CRC 050DB994
Copy CRC 050DB994
Track not present in AccurateRip database
Copy OK


None of the tracks are present in the AccurateRip database

No errors occurred

End of status report

–– CUETools DB Plugin V2.1.6

[CTDB TOCID: kuXlYSzZa3oWOHuGaealTsnZl5o-] disk not present in database
Submit result: kuXlYSzZa3oWOHuGaealTsnZl5o- has been uploaded


==== Log checksum A4210103BE7B1BE7883CAC3752A5AC1AE6B2827FF2192FBD38E7C05F736451BA ====

All thanks go to the Zelou

More Music in My Blog
Follow My RSS Channel