Tags
Language
Tags

Jean-Philippe Viret, Edouard Ferlet, Antoine Banville - Etant donnes (2002)

Posted By: Domestos
Jean-Philippe Viret, Edouard Ferlet, Antoine Banville - Etant donnes (2002)

Jean-Philippe Viret, Edouard Ferlet, Antoine Banville - Etant Donnés (2002)
EAC Rip | FLAC (tracks+.cue, log) ~ 320.81 Mb | 55:26 | Covers
Post-Bop, Contemporary Jazz | Label: Sketch - SKE 333025

Il est question d’un trio à l’assise solide, avec un piano fluide, élégant, toujours vibrant, d’un groupe qui joue d’évidence ses propres compositions, d’une musique qui évolue de climats labyrinthiques en ambiances plus engagées et percussives. Jean Philippe Viret laisse place à ses complices sur la moitié des morceaux, surtout au pianiste Edouard Ferlet. Mais la cohésion est telle qu’il semble bien difficile de dire aujourd’hui qui a composé les thèmes, même si les compositions plus lentes, mélancoliques, « classiques » soulignent le travail épuré du contrebassiste, alors que la brillance, voire une certaine extravagance sont plutôt la marque du pianiste dont l’expressivité est généreuse.

On glisse cet album dans son lecteur et on le laisse filer jusqu’au bout.
Mais s’il fallait retenir quelques titres, pourquoi pas un thème de chaque musicien, l’entêtant « Par tous les temps » avec une construction obsédante en crescendo, la ballade tendre dédiée à Jean-François Jenny Clark qui aimait appeler ses partenaires de musique ou de tennis « Pilou », ou alors le final vraiment réussi avec ce « Pour el Ho » d’Antoine Banville, long solo continu de batterie, souligné, repris au vol et prolongé par piano et contrebasse.
Virevoltants, mélancoliques, toujours lyriques, ces thèmes entraînent sur le versant d’une intimité que l’on partage chez soi ou que l’on savoure entre amis dans un club.
Sophie Chambon



Track List:
01. La fee blesse (Viret) - 5:31
02. Derives (Viret) - 7:21
03. Par tous les temps (Ferlet) - 6:06
04. Pilou (Viret) - 6:05
05. Trois jours de treve (Viret) - 6:03
06. Le labyrinthe (Ferlet) - 5:08
07. Le bal des orques (Ferlet) - 5:05
08. Un instant chez Viret (Viret) - 4:44
09. Pour el ho (Banville) - 9:23

Jean-Philippe Viret - double bass
Edouard Ferlet - piano
Antoine Banville - drums

Recorded at Studio la Buissonne, Pernes les Fontaines on April 15-17, 2002.

Jean-Philippe Viret, Edouard Ferlet, Antoine Banville - Etant donnes (2002)

Exact Audio Copy V1.0 beta 3 from 29. August 2011

EAC extraction logfile from 27. June 2015, 17:02

Viret Jean-Philippe / Etant donnés

Used drive : TSSTcorpCDDVDW SH-S223C Adapter: 2 ID: 1

Read mode : Secure
Utilize accurate stream : Yes
Defeat audio cache : Yes
Make use of C2 pointers : No

Read offset correction : 697
Overread into Lead-In and Lead-Out : No
Fill up missing offset samples with silence : Yes
Delete leading and trailing silent blocks : No
Null samples used in CRC calculations : Yes
Used interface : Native Win32 interface for Win NT & 2000
Gap handling : Appended to previous track

Used output format : User Defined Encoder
Selected bitrate : 1024 kBit/s
Quality : High
Add ID3 tag : No
Command line compressor : C:\Program Files (x86)\Exact Audio Copy\Flac\flac.exe
Additional command line options : -8 -V -T "ARTIST=%artist%" -T "TITLE=%title%" -T "ALBUM=%albumtitle%" -T "DATE=%year%" -T "TRACKNUMBER=%tracknr%" -T "GENRE=%genre%" -T "PERFORMER=%albuminterpret%" -T "COMPOSER=%composer%" %haslyrics%–tag-from-file=LYRICS="%lyricsfile%"%haslyrics% -T "ALBUMARTIST=%albumartist%" -T "DISCNUMBER=%cdnumber%" -T "TOTALDISCS=%totalcds%" -T "TOTALTRACKS=%numtracks%" -T "COMMENT=%comment%" %source% -o %dest%


TOC of the extracted CD

Track | Start | Length | Start sector | End sector
––––––––––––––––––––––––––––-
1 | 0:00.00 | 5:30.52 | 0 | 24801
2 | 5:30.52 | 7:21.28 | 24802 | 57904
3 | 12:52.05 | 6:06.15 | 57905 | 85369
4 | 18:58.20 | 6:05.27 | 85370 | 112771
5 | 25:03.47 | 6:03.30 | 112772 | 140026
6 | 31:07.02 | 5:08.03 | 140027 | 163129
7 | 36:15.05 | 5:04.72 | 163130 | 186001
8 | 41:20.02 | 4:44.03 | 186002 | 207304
9 | 46:04.05 | 9:23.02 | 207305 | 249531


Track 1

Filename D:\EAC Rips\Jean-Philippe Viret - Etant donnés (2002)\01 - La Fée Blesse.wav

Pre-gap length 0:00:02.00

Peak level 99.9 %
Extraction speed 1.9 X
Track quality 99.9 %
Test CRC 9CCB430C
Copy CRC 9CCB430C
Accurately ripped (confidence 3) [4640ED7B] (AR v1)
Copy OK

Track 2

Filename D:\EAC Rips\Jean-Philippe Viret - Etant donnés (2002)\02 - Dérives.wav

Pre-gap length 0:00:03.93

Peak level 99.9 %
Extraction speed 2.5 X
Track quality 100.0 %
Test CRC 9F74F68E
Copy CRC 9F74F68E
Accurately ripped (confidence 3) [3744529D] (AR v1)
Copy OK

Track 3

Filename D:\EAC Rips\Jean-Philippe Viret - Etant donnés (2002)\03 - Par Tous Les Temps.wav

Pre-gap length 0:00:04.30

Peak level 87.0 %
Extraction speed 2.5 X
Track quality 99.9 %
Test CRC EAEADC85
Copy CRC EAEADC85
Accurately ripped (confidence 3) [44260098] (AR v1)
Copy OK

Track 4

Filename D:\EAC Rips\Jean-Philippe Viret - Etant donnés (2002)\04 - Docile.wav

Pre-gap length 0:00:04.17

Peak level 99.9 %
Extraction speed 3.0 X
Track quality 100.0 %
Test CRC 408B4B9B
Copy CRC 408B4B9B
Accurately ripped (confidence 3) [4AB1D402] (AR v1)
Copy OK

Track 5

Filename D:\EAC Rips\Jean-Philippe Viret - Etant donnés (2002)\05 - Trois Jours De Trève.wav

Pre-gap length 0:00:03.69

Peak level 99.9 %
Extraction speed 3.2 X
Track quality 100.0 %
Test CRC B49D3C10
Copy CRC B49D3C10
Accurately ripped (confidence 3) [261DA7A4] (AR v1)
Copy OK

Track 6

Filename D:\EAC Rips\Jean-Philippe Viret - Etant donnés (2002)\06 - Le Labyrinthe.wav

Pre-gap length 0:00:03.76

Peak level 99.9 %
Extraction speed 3.3 X
Track quality 100.0 %
Test CRC 3A4D9647
Copy CRC 3A4D9647
Accurately ripped (confidence 3) [E26BF73F] (AR v1)
Copy OK

Track 7

Filename D:\EAC Rips\Jean-Philippe Viret - Etant donnés (2002)\07 - Le Bal Des Orques.wav

Pre-gap length 0:00:03.64

Peak level 91.2 %
Extraction speed 3.5 X
Track quality 100.0 %
Test CRC EBAA3A6E
Copy CRC EBAA3A6E
Accurately ripped (confidence 3) [71648E65] (AR v1)
Copy OK

Track 8

Filename D:\EAC Rips\Jean-Philippe Viret - Etant donnés (2002)\08 - Un Instant Chez Viret.wav

Pre-gap length 0:00:03.76

Peak level 99.9 %
Extraction speed 3.6 X
Track quality 100.0 %
Test CRC 36E73BBD
Copy CRC 36E73BBD
Accurately ripped (confidence 3) [D3F4971E] (AR v1)
Copy OK

Track 9

Filename D:\EAC Rips\Jean-Philippe Viret - Etant donnés (2002)\09 - Pour El Ho.wav

Pre-gap length 0:00:04.30

Peak level 99.9 %
Extraction speed 4.0 X
Track quality 100.0 %
Test CRC CC1BA7C6
Copy CRC CC1BA7C6
Accurately ripped (confidence 3) [B4907731] (AR v1)
Copy OK


All tracks accurately ripped

No errors occurred

End of status report

–– CUETools DB Plugin V2.1.3

[CTDB TOCID: TtxvDDbJWTWFjWxExIynNII4wR4-] found, Submit result: TtxvDDbJWTWFjWxExIynNII4wR4- has been confirmed
[e237d0db] (3/3) Accurately ripped


==== Log checksum 41336BF2041B5BCAD0DB4BD4FE5BE5B3EDB3F7183F69CFBFB3D73E96143FF152 ====

All thanks go to the Iegou

More Music in My Blog
Follow My RSS Channel