Tags
Language
Tags

Jean-Luc Ponty - Jazz Long Playing (1964) {Gitanes--Jazz In Paris 548 150-2 rec 1964}

Posted By: ruskaval
Jean-Luc Ponty - Jazz Long Playing (1964) {Gitanes--Jazz In Paris 548 150-2 rec 1964}

Jean-Luc Ponty - Jazz Long Playing (1964) {Gitanes–Jazz In Paris 548 150-2 rec 1964}
EAC rip (secure mode) | FLAC (tracks)+CUE+LOG -> 252 Mb | MP3 @320 -> 97 Mb
Full Artwork @ 300 dpi (jpg) -> 14 Mb | 5% repair rar
© 1964, 2000 EmArcy / Gitanes / Universal Music | Jazz In Paris Series | 548 150-2
Jazz / Mainstream Jazz / Hard Bop / Standards / Violin

These 1964 sessions marked jazz violinist Jean-Luc Ponty's recording debut as a leader. In spite of his choice of instrument, he was mainly influenced by bop musicians (especially saxophonists and trumpeters) rather than fellow Frenchmen, swing violinist Stéphane Grappelli. At this stage in his career, he chose mostly compositions by European musicians of his generation, along with tunes American jazz compositions that had stood the test of time.

His angular playing in Martial Solal's "Une Nui Au Violon" contrasts with his later venture into jazz fusion, while his dash through Charlie Parker's "Au Privave" is almost immediately halted to first showcase drummer Daniel Humair then flautist Michel Portal before he takes center-stage with a blazing solo. He also is quite comfortable in a ballad setting, with a warm treatment of Django Reinhardt's "Manoir de Mes Reves," though it is on his own turf, as it isn't played anything like Grappelli's recording with the legendary guitarist. The violinist's sole original is "YTNOP Blues," which opens with a pizzicato vamp then showcases bassist Guy Pedersen and pianist Eddy Louiss before Ponty finally opens things up with a slash-and-burn solo that evokes a bit of Stuff Smith influence for a moment. The only misfire is a dull treatment of "I Want to Talk About You" which is plagued by Louiss' dated sounding organ. Reissued as a part of the Jazz in Paris series in 2000, this valuable introduction to Jean-Luc Ponty has already lapsed from print.

Musicians
Violin Jean-Luc Ponty
Flute Michel Portal
Organ, Piano Eddie Louiss
Bass Gilbert Rovere
Bass Guy Pedersen
Drums Daniel Humair

tracklist:
01 Une Nuit Au Violon 04:45
02 Modo Azul 04:40
03 Spanish Castels 03:41
04 Sniffin' The Blues 03:30
05 Postlude In C 03:22
06 Au Privave 03:46
07 Manoir De Mes Reves 03:06
08 Ytnop Blues 03:12
09 I Want To Talk About You 03:50
10 A Night In Tunisia 03:03
11 Satin Doll 04:22

Exact Audio Copy V1.0 beta 1 from 15. November 2010

EAC extraction logfile from 6. March 2011, 19:59

Jean-Luc Ponty / Jazz Long Playing

Used drive : TSSTcorpCDDVDW SH-S203N Adapter: 0 ID: 2

Read mode : Secure
Utilize accurate stream : Yes
Defeat audio cache : Yes
Make use of C2 pointers : No

Read offset correction : 6
Overread into Lead-In and Lead-Out : No
Fill up missing offset samples with silence : Yes
Delete leading and trailing silent blocks : No
Null samples used in CRC calculations : Yes
Used interface : Installed external ASPI interface
Gap handling : Appended to previous track

Used output format : User Defined Encoder
Selected bitrate : 768 kBit/s
Quality : High
Add ID3 tag : No
Command line compressor : C:\Program Files\Exact Audio Copy-NEW\Flac\flac.exe
Additional command line options : -8 -V -T "ARTIST=%a" -T "TITLE=%t" -T "ALBUM=%g" -T "DATE=%y" -T "TRACKNUMBER=%n" -T "TOTALTRACKS=%x" -T "GENRE=%m" -T "ALBUMARTIST=%v" -T "ALBUM ARTIST=%v" -T "COMMENT=EAC V1.01b1, Secure Mode, Test & Copy, AccurateRip, FL


TOC of the extracted CD

Track | Start | Length | Start sector | End sector
––––––––––––––––––––––––––––-
1 | 0:00.00 | 4:45.26 | 0 | 21400
2 | 4:45.26 | 4:40.28 | 21401 | 42428
3 | 9:25.54 | 3:41.46 | 42429 | 59049
4 | 13:07.25 | 3:30.20 | 59050 | 74819
5 | 16:37.45 | 3:22.41 | 74820 | 90010
6 | 20:00.11 | 3:46.68 | 90011 | 107028
7 | 23:47.04 | 3:06.61 | 107029 | 121039
8 | 26:53.65 | 3:12.02 | 121040 | 135441
9 | 30:05.67 | 3:50.13 | 135442 | 152704
10 | 33:56.05 | 3:03.70 | 152705 | 166499
11 | 37:00.00 | 4:20.32 | 166500 | 186031


Track 1

Filename J:\New Rips\Jean-Luc Ponty - Jazz Long Playing (2000) [FLAC] {Gitanes–Jazz In Paris 548 150-2 rec 1964}\01 - Une Nuit Au Violon.wav

Pre-gap length 0:00:02.00

Peak level 89.3 %
Extraction speed 4.5 X
Track quality 100.0 %
Test CRC D264A87B
Copy CRC D264A87B
Accurately ripped (confidence 5) [A1C6DCB9]
Copy OK

Track 2

Filename J:\New Rips\Jean-Luc Ponty - Jazz Long Playing (2000) [FLAC] {Gitanes–Jazz In Paris 548 150-2 rec 1964}\02 - Modo Azul.wav

Pre-gap length 0:00:01.45

Peak level 80.6 %
Extraction speed 5.0 X
Track quality 100.0 %
Test CRC 818A2AB6
Copy CRC 818A2AB6
Accurately ripped (confidence 5) [25A8AE8F]
Copy OK

Track 3

Filename J:\New Rips\Jean-Luc Ponty - Jazz Long Playing (2000) [FLAC] {Gitanes–Jazz In Paris 548 150-2 rec 1964}\03 - Spanish Castels.wav

Pre-gap length 0:00:01.45

Peak level 68.7 %
Extraction speed 5.3 X
Track quality 100.0 %
Test CRC EC7A0AC2
Copy CRC EC7A0AC2
Accurately ripped (confidence 5) [DF6DCFF2]
Copy OK

Track 4

Filename J:\New Rips\Jean-Luc Ponty - Jazz Long Playing (2000) [FLAC] {Gitanes–Jazz In Paris 548 150-2 rec 1964}\04 - Sniffin' The Blues.wav

Pre-gap length 0:00:01.45

Peak level 82.6 %
Extraction speed 5.6 X
Track quality 100.0 %
Test CRC B9008C03
Copy CRC B9008C03
Accurately ripped (confidence 5) [EC3A509D]
Copy OK

Track 5

Filename J:\New Rips\Jean-Luc Ponty - Jazz Long Playing (2000) [FLAC] {Gitanes–Jazz In Paris 548 150-2 rec 1964}\05 - Postlude In C.wav

Pre-gap length 0:00:01.45

Peak level 82.3 %
Extraction speed 4.5 X
Track quality 99.9 %
Test CRC EE529F54
Copy CRC EE529F54
Accurately ripped (confidence 5) [0BA65879]
Copy OK

Track 6

Filename J:\New Rips\Jean-Luc Ponty - Jazz Long Playing (2000) [FLAC] {Gitanes–Jazz In Paris 548 150-2 rec 1964}\06 - Au Privave.wav

Pre-gap length 0:00:01.45

Peak level 81.7 %
Extraction speed 6.2 X
Track quality 100.0 %
Test CRC 8CDB32D9
Copy CRC 8CDB32D9
Accurately ripped (confidence 5) [0C8B3FBD]
Copy OK

Track 7

Filename J:\New Rips\Jean-Luc Ponty - Jazz Long Playing (2000) [FLAC] {Gitanes–Jazz In Paris 548 150-2 rec 1964}\07 - Manoir De Mes Rêves.wav

Pre-gap length 0:00:01.45

Peak level 72.0 %
Extraction speed 6.3 X
Track quality 100.0 %
Test CRC 135E3936
Copy CRC 135E3936
Accurately ripped (confidence 5) [70B50A0B]
Copy OK

Track 8

Filename J:\New Rips\Jean-Luc Ponty - Jazz Long Playing (2000) [FLAC] {Gitanes–Jazz In Paris 548 150-2 rec 1964}\08 - YTNOP Blues.wav

Pre-gap length 0:00:01.45

Peak level 82.0 %
Extraction speed 6.6 X
Track quality 100.0 %
Test CRC 3252D5D9
Copy CRC 3252D5D9
Accurately ripped (confidence 5) [5402817E]
Copy OK

Track 9

Filename J:\New Rips\Jean-Luc Ponty - Jazz Long Playing (2000) [FLAC] {Gitanes–Jazz In Paris 548 150-2 rec 1964}\09 - I Want To Talk About You.wav

Pre-gap length 0:00:01.45

Peak level 77.8 %
Extraction speed 7.0 X
Track quality 100.0 %
Test CRC B9F509A5
Copy CRC B9F509A5
Accurately ripped (confidence 5) [1B67C3F0]
Copy OK

Track 10

Filename J:\New Rips\Jean-Luc Ponty - Jazz Long Playing (2000) [FLAC] {Gitanes–Jazz In Paris 548 150-2 rec 1964}\10 - A Night In Tunisia.wav

Pre-gap length 0:00:01.45

Peak level 76.7 %
Extraction speed 5.2 X
Track quality 99.9 %
Test CRC 3B9291C9
Copy CRC 3B9291C9
Accurately ripped (confidence 5) [ABA440E2]
Copy OK

Track 11

Filename J:\New Rips\Jean-Luc Ponty - Jazz Long Playing (2000) [FLAC] {Gitanes–Jazz In Paris 548 150-2 rec 1964}\11 - Satin Doll.wav

Pre-gap length 0:00:01.45

Peak level 85.2 %
Extraction speed 7.6 X
Track quality 100.0 %
Test CRC C13625A2
Copy CRC C13625A2
Accurately ripped (confidence 5) [5CCBFBCA]
Copy OK


All tracks accurately ripped

No errors occurred

End of status report

==== Log checksum 1FB09F3CA4A3E1AC73C282F0C8158B23F48B31506BC1AC3A769D2AA917A7A077 ====


Jean-Luc Ponty - Jazz Long Playing (1964) {Gitanes--Jazz In Paris 548 150-2 rec 1964}

Jean-Luc Ponty - Jazz Long Playing (1964) {Gitanes--Jazz In Paris 548 150-2 rec 1964}



===