Tags
Language
Tags

Jeff Beck - Live In Tokyo 1999 (2011) {2CD Set, Immortal IMA104256}

Posted By: ruskaval
Jeff Beck - Live In Tokyo 1999 (2011) {2CD Set, Immortal IMA104256}

Jeff Beck - Live In Tokyo 1999 (2011) {2CD Set, Immortal IMA104256}
EAC rip (secure mode) | FLAC (tracks)+CUE+LOG -> 586 Mb | MP3 @320 -> 211 Mb
Full Artwork @ 300 dpi (png) -> 37 Mb | 5% repair rar
© 1999, 2011 IMC Music / Immortal | IMA 104256
Rock / Blue Rock / Hard Rock / Fusion / Guitar

In this 1999 concert Jeff Beck once again displays the immense creativity and technical precision that have made him an idol to three generations of jazz and rock fans. This concert finds Beck at the end of the 1990's, having spent the preceding two decades developing both his artistry and his status as a guitarist, composer, and leader, working for artists from Kate Bush to Guns N' Roses but releasing few albums of his own. Then, in 1999, he released "Who Else!" in collaboration with Jennifer Batten, lead guitarist for Michael Jackson's biggest tours. That album underlies the concert here, in which Batten herself performs. Numbers like "What Mama Said," "Psycho Sam," "Brush With The Blues," and "A Space For The Papa" are drawn from "Who Else," which mixes Beck's brand of fusion with electronica, and showcase Beck's persistent commitment to innovation.
Jeff Beck - Live In Tokyo 1999 (2011) {2CD Set, Immortal IMA104256}


Personnel:
Jeff Beck - guitar
Jennifer Batten - guitar
Randy Hope-Taylor - bass
Steve Alexander - drums

tracklist:

CD1

01 - What Mama Said
02 - Psycho Sam
03 - Brush With The Blues
04 - Star Cycle
05 - Savoy
06 - Blast From The East
07 - A Day In The Life
08 - Declan
09 - THX138

CD2
01 - The Pump
02 - Cause We've Ended As Lovers
03 - Space For The Papa
04 - Angel
05 - Even Odds
06 - You Never Know
07 - Blue Wind
08 - Big Block

Exact Audio Copy V1.0 beta 3 from 29. August 2011

EAC extraction logfile from 26. March 2015, 22:00

Jeff Beck / Live In Tokyo 1999 - CD1

Used drive : Optiarc DVD RW AD-7241S Adapter: 5 ID: 1

Read mode : Secure
Utilize accurate stream : Yes
Defeat audio cache : Yes
Make use of C2 pointers : No

Read offset correction : 48
Overread into Lead-In and Lead-Out : No
Fill up missing offset samples with silence : Yes
Delete leading and trailing silent blocks : No
Null samples used in CRC calculations : Yes
Used interface : Native Win32 interface for Win NT & 2000
Gap handling : Appended to previous track

Used output format : User Defined Encoder
Selected bitrate : 1024 kBit/s
Quality : High
Add ID3 tag : No
Command line compressor : C:\Program Files\EAC1.3\Flac\flac.exe
Additional command line options : -8 -V -T "ARTIST=%artist%" -T "TITLE=%title%" -T "ALBUM=%albumtitle%" -T "DATE=%year%" -T "TRACKNUMBER=%tracknr%" -T "TOTALTRACKS=%numtracks%" -T "GENRE=%genre%" -T "ALBUMARTIST=%albumartist%" -T "ALBUM ARTIST=%albumartist%" -T "COMMENT=EAC Secure Mode, Test & Copy, AccurateRip, FLAC -8" %source%


TOC of the extracted CD

Track | Start | Length | Start sector | End sector
––––––––––––––––––––––––––––-
1 | 0:00.00 | 3:43.35 | 0 | 16759
2 | 3:43.35 | 4:44.13 | 16760 | 38072
3 | 8:27.48 | 6:31.30 | 38073 | 67427
4 | 14:59.03 | 4:06.34 | 67428 | 85911
5 | 19:05.37 | 4:10.06 | 85912 | 104667
6 | 23:15.43 | 4:52.25 | 104668 | 126592
7 | 28:07.68 | 5:15.33 | 126593 | 150250
8 | 33:23.26 | 3:47.33 | 150251 | 167308
9 | 37:10.59 | 6:16.42 | 167309 | 195550


Track 1

Filename C:\EACcd\01 - What Mama Said.wav

Pre-gap length 0:00:02.00

Peak level 93.2 %
Extraction speed 2.3 X
Track quality 100.0 %
Test CRC CE583CE9
Copy CRC CE583CE9
Accurately ripped (confidence 4) [A03A1C0C] (AR v2)
Copy OK

Track 2

Filename C:\EACcd\02 - Psycho Sam.wav

Peak level 93.1 %
Extraction speed 2.4 X
Track quality 99.9 %
Test CRC 9B5940E9
Copy CRC 9B5940E9
Accurately ripped (confidence 4) [9013FE58] (AR v2)
Copy OK

Track 3

Filename C:\EACcd\03 - Brush With The Blues.wav

Peak level 84.2 %
Extraction speed 2.8 X
Track quality 99.9 %
Test CRC B8D200AB
Copy CRC B8D200AB
Accurately ripped (confidence 4) [EFD4357D] (AR v2)
Copy OK

Track 4

Filename C:\EACcd\04 - Star Cycle.wav

Peak level 96.2 %
Extraction speed 3.1 X
Track quality 100.0 %
Test CRC B9BACF87
Copy CRC B9BACF87
Accurately ripped (confidence 4) [DAC6EA96] (AR v2)
Copy OK

Track 5

Filename C:\EACcd\05 - Savoy.wav

Peak level 96.6 %
Extraction speed 3.4 X
Track quality 100.0 %
Test CRC 507698F1
Copy CRC 507698F1
Accurately ripped (confidence 4) [7F773EE7] (AR v2)
Copy OK

Track 6

Filename C:\EACcd\06 - Blast From The East.wav

Peak level 91.2 %
Extraction speed 3.7 X
Track quality 100.0 %
Test CRC F64701CA
Copy CRC F64701CA
Accurately ripped (confidence 4) [7CDFB7FA] (AR v2)
Copy OK

Track 7

Filename C:\EACcd\07 - A Day In The Life.wav

Peak level 96.5 %
Extraction speed 4.0 X
Track quality 100.0 %
Test CRC 9C427BA8
Copy CRC 9C427BA8
Accurately ripped (confidence 4) [970E68E7] (AR v2)
Copy OK

Track 8

Filename C:\EACcd\08 - Declan.wav

Peak level 59.6 %
Extraction speed 4.0 X
Track quality 100.0 %
Test CRC DEF66D94
Copy CRC DEF66D94
Accurately ripped (confidence 4) [51DDADFC] (AR v2)
Copy OK

Track 9

Filename C:\EACcd\09 - THX138.wav

Peak level 96.6 %
Extraction speed 4.5 X
Track quality 100.0 %
Test CRC F1A541A3
Copy CRC F1A541A3
Accurately ripped (confidence 4) [6680DC3A] (AR v2)
Copy OK


All tracks accurately ripped

No errors occurred

End of status report

–– CUETools DB Plugin V2.1.3

[CTDB TOCID: j14m_32RQPVDyd_urIrH.3UcQ5c-] found, Submit result: already submitted
[9f80c324] (6/6) Accurately ripped


==== Log checksum ED0826C3AD96310AA535368669133615AB4481936657E74F3223F1DCEC6209D6 ====

Exact Audio Copy V1.0 beta 3 from 29. August 2011

EAC extraction logfile from 26. March 2015, 22:31

Jeff Beck / Live In Tokyo 1999 - CD2

Used drive : Optiarc DVD RW AD-7241S Adapter: 5 ID: 1

Read mode : Secure
Utilize accurate stream : Yes
Defeat audio cache : Yes
Make use of C2 pointers : No

Read offset correction : 48
Overread into Lead-In and Lead-Out : No
Fill up missing offset samples with silence : Yes
Delete leading and trailing silent blocks : No
Null samples used in CRC calculations : Yes
Used interface : Native Win32 interface for Win NT & 2000
Gap handling : Appended to previous track

Used output format : User Defined Encoder
Selected bitrate : 1024 kBit/s
Quality : High
Add ID3 tag : No
Command line compressor : C:\Program Files\EAC1.3\Flac\flac.exe
Additional command line options : -8 -V -T "ARTIST=%artist%" -T "TITLE=%title%" -T "ALBUM=%albumtitle%" -T "DATE=%year%" -T "TRACKNUMBER=%tracknr%" -T "TOTALTRACKS=%numtracks%" -T "GENRE=%genre%" -T "ALBUMARTIST=%albumartist%" -T "ALBUM ARTIST=%albumartist%" -T "COMMENT=EAC Secure Mode, Test & Copy, AccurateRip, FLAC -8" %source%


TOC of the extracted CD

Track | Start | Length | Start sector | End sector
––––––––––––––––––––––––––––-
1 | 0:00.00 | 5:38.34 | 0 | 25383
2 | 5:38.34 | 4:31.05 | 25384 | 45713
3 | 10:09.39 | 6:14.22 | 45714 | 73785
4 | 16:23.61 | 6:12.50 | 73786 | 101735
5 | 22:36.36 | 2:49.74 | 101736 | 114484
6 | 25:26.35 | 6:58.49 | 114485 | 145883
7 | 32:25.09 | 5:16.52 | 145884 | 169635
8 | 37:41.61 | 6:48.10 | 169636 | 200245


Track 1

Filename C:\EACcd\01 - The Pump.wav

Pre-gap length 0:00:02.00

Peak level 96.5 %
Extraction speed 2.5 X
Track quality 100.0 %
Test CRC BC36B205
Copy CRC BC36B205
Accurately ripped (confidence 4) [43CD2BFF] (AR v2)
Copy OK

Track 2

Filename C:\EACcd\02 - Cause We've Ended As Lovers.wav

Peak level 96.5 %
Extraction speed 2.8 X
Track quality 100.0 %
Test CRC 971FB388
Copy CRC 971FB388
Accurately ripped (confidence 4) [6E4604A5] (AR v2)
Copy OK

Track 3

Filename C:\EACcd\03 - Space For The Papa.wav

Peak level 96.6 %
Extraction speed 3.2 X
Track quality 100.0 %
Test CRC FDD8D22B
Copy CRC FDD8D22B
Accurately ripped (confidence 4) [69F1F6F2] (AR v2)
Copy OK

Track 4

Filename C:\EACcd\04 - Angel.wav

Peak level 83.4 %
Extraction speed 3.5 X
Track quality 100.0 %
Test CRC B36AA5E9
Copy CRC B36AA5E9
Accurately ripped (confidence 4) [D17FCD60] (AR v2)
Copy OK

Track 5

Filename C:\EACcd\05 - Even Odds.wav

Peak level 96.6 %
Extraction speed 2.8 X
Track quality 99.9 %
Test CRC 5DC99DDD
Copy CRC 5DC99DDD
Accurately ripped (confidence 4) [DF6AF8B7] (AR v2)
Copy OK

Track 6

Filename C:\EACcd\06 - You Never Know.wav

Peak level 96.6 %
Extraction speed 3.7 X
Track quality 99.9 %
Test CRC A78AC00D
Copy CRC A78AC00D
Accurately ripped (confidence 4) [775B59F8] (AR v2)
Copy OK

Track 7

Filename C:\EACcd\07 - Blue Wind.wav

Peak level 96.6 %
Extraction speed 3.8 X
Track quality 99.9 %
Test CRC E7E89450
Copy CRC E7E89450
Accurately ripped (confidence 4) [AAEBC90F] (AR v2)
Copy OK

Track 8

Filename C:\EACcd\08 - Big Block.wav

Peak level 96.6 %
Extraction speed 4.5 X
Track quality 100.0 %
Test CRC B6968FC5
Copy CRC B6968FC5
Accurately ripped (confidence 4) [78D4D4F4] (AR v2)
Copy OK


All tracks accurately ripped

No errors occurred

End of status report

–– CUETools DB Plugin V2.1.3

[CTDB TOCID: .r5tYC_lTV_W1abR_Km1OIY6j7s-] found, Submit result: .r5tYC_lTV_W1abR_Km1OIY6j7s- has been confirmed
[b2080b67] (4/4) Accurately ripped


==== Log checksum 457BD6BB9F62BEDD542CAC70CA02DC26D3B3166F9A074837A288F0308EDF4404 ====


Jeff Beck - Live In Tokyo 1999 (2011) {2CD Set, Immortal IMA104256}

Jeff Beck - Live In Tokyo 1999 (2011) {2CD Set, Immortal IMA104256}



===