Tags
Language
Tags

Jennifer Brown - In My Garden (1997) [Japan Bonus Tracks]

Posted By: SuniR
Jennifer Brown - In My Garden (1997) [Japan Bonus Tracks]

Jennifer Brown - In My Garden (1997) [Japan Bonus Tracks]
EAC | FLAC (log,image+cue) -> 404 Mb (5% Rec.)
Mp3 CBR320 Kbps -> 134 Mb (5% Rec.) | Scans -> 101 Mb
R&B, Pop, Soul | Label: BMG / RCA / Ricochet Records, BVCP-6004 | 0:57:33

In My Garden, the 1996 follow-up, was produced in Los Angeles, California by the experienced Rhett Lawrence, and featured Kim Carnes’ powerful ballad ‘When To Hold On’. First and second albums sold well in Japan.

Tracklist:

01. In My Garden 04:35
02. Adore 03:47
03. When to Hold on 04:25
04. Think about me 04:35
05. Best Friend 03:57
06. I'm in Love 04:04
07. Sweet Remedy 04:19
08. On my mind 03:28
09. One Secret 03:49
10. Feel That Natural 03:29
11. Love Will Remain 04:03
12. Why Do I Love You 03:37
Bonus Tracks:
13. For You 05:15
14. I'm in Love (Champagne version) 04:04

Exact Audio Copy V1.0 beta 3 from 29. August 2011

EAC extraction logfile from 10. April 2015, 20:37

Jennifer Brown / In My Garden

Used drive : ATAPI iHAS124 D Adapter: 0 ID: 2

Read mode : Secure
Utilize accurate stream : Yes
Defeat audio cache : Yes
Make use of C2 pointers : No

Read offset correction : 6
Overread into Lead-In and Lead-Out : No
Fill up missing offset samples with silence : Yes
Delete leading and trailing silent blocks : No
Null samples used in CRC calculations : Yes
Used interface : Installed external ASPI interface

Used output format : User Defined Encoder
Selected bitrate : 1024 kBit/s
Quality : High
Add ID3 tag : No
Command line compressor : C:\Program Files (x86)\Exact Audio Copy\Flac\flac.exe
Additional command line options : -6 -V -T "ARTIST=%artist%" -T "TITLE=%title%" -T "ALBUM=%albumtitle%" -T "DATE=%year%" -T "TRACKNUMBER=%tracknr%" -T "GENRE=%genre%" -T "COMMENT=%comment%" -T "BAND=%albuminterpret%" -T "COMPOSER=%composer%" %haslyrics%–tag-from-file=LYRICS="%lyricsfile%"%haslyrics% -T "DISCNUMBER=%cdnumber%" -T "TOTALDISCS=%totalcds%" -T "TOTALTRACKS=%numtracks%" %hascover%–picture="%coverfile%"%hascover% %source% -o %dest%


TOC of the extracted CD

Track | Start | Length | Start sector | End sector
––––––––––––––––––––––––––––-
1 | 0:00.37 | 4:35.38 | 37 | 20699
2 | 4:36.00 | 3:47.15 | 20700 | 37739
3 | 8:23.15 | 4:25.27 | 37740 | 57641
4 | 12:48.42 | 4:35.38 | 57642 | 78304
5 | 17:24.05 | 3:57.30 | 78305 | 96109
6 | 21:21.35 | 4:04.52 | 96110 | 114461
7 | 25:26.12 | 4:19.18 | 114462 | 133904
8 | 29:45.30 | 3:28.50 | 133905 | 149554
9 | 33:14.05 | 3:49.40 | 149555 | 166769
10 | 37:03.45 | 3:29.67 | 166770 | 182511
11 | 40:33.37 | 4:03.48 | 182512 | 200784
12 | 44:37.10 | 3:37.27 | 200785 | 217086
13 | 48:14.37 | 5:15.00 | 217087 | 240711
14 | 53:29.37 | 4:04.00 | 240712 | 259011


Range status and errors

Selected range

Filename C:\mm\Jennifer Brown\1997 - In My Garden [BVCP-6004]\Jennifer Brown - In My Garden.wav

Peak level 100.0 %
Extraction speed 8.9 X
Range quality 100.0 %
Test CRC AEA02E46
Copy CRC AEA02E46
Copy OK

No errors occurred


AccurateRip summary

Track 1 accurately ripped (confidence 2) [25CB4C02] (AR v2)
Track 2 accurately ripped (confidence 2) [AD7D7CB5] (AR v2)
Track 3 accurately ripped (confidence 2) [8C47BF7E] (AR v2)
Track 4 accurately ripped (confidence 2) [59D3A98E] (AR v2)
Track 5 accurately ripped (confidence 2) [96E124CF] (AR v2)
Track 6 accurately ripped (confidence 2) [99E4231D] (AR v2)
Track 7 accurately ripped (confidence 2) [803111F6] (AR v2)
Track 8 accurately ripped (confidence 2) [EAE266D8] (AR v2)
Track 9 accurately ripped (confidence 2) [3A4DE834] (AR v2)
Track 10 accurately ripped (confidence 2) [35E1141A] (AR v2)
Track 11 accurately ripped (confidence 2) [68C69BB0] (AR v2)
Track 12 accurately ripped (confidence 2) [6CD54228] (AR v2)
Track 13 accurately ripped (confidence 2) [75B6299D] (AR v2)
Track 14 accurately ripped (confidence 2) [B80C661E] (AR v2)

All tracks accurately ripped

End of status report

foobar2000 1.3.6 / Dynamic Range Meter 1.1.1
log date: 2019-02-21 20:05:38

––––––––––––––––––––––––––––––––––––––––
Analyzed: Jennifer Brown / In My Garden
––––––––––––––––––––––––––––––––––––––––

DR Peak RMS Duration Track
––––––––––––––––––––––––––––––––––––––––
DR9 0.00 dB -11.11 dB 4:36 01-In My Garden
DR10 0.00 dB -11.50 dB 3:47 02-Adore
DR7 -0.38 dB -10.60 dB 4:25 03-When to Hold on
DR8 0.00 dB -9.29 dB 4:36 04-Think about me
DR9 0.00 dB -10.27 dB 3:57 05-Best Friend
DR8 0.00 dB -9.89 dB 4:05 06-I'm in Love
DR10 0.00 dB -11.83 dB 4:19 07-Sweet Remedy
DR9 0.00 dB -11.08 dB 3:29 08-On my mind
DR7 0.00 dB -8.81 dB 3:50 09-One Secret
DR9 0.00 dB -10.69 dB 3:30 10-Feel That Natural
DR7 0.00 dB -10.37 dB 4:04 11-Love Will Remain
DR8 0.00 dB -12.74 dB 3:37 12-Why Do I Love You
DR9 0.00 dB -12.27 dB 5:15 13-For You
DR10 0.00 dB -12.04 dB 4:04 14-I'm in Love (Champagne version)
––––––––––––––––––––––––––––––––––––––––

Number of tracks: 14
Official DR value: DR9

Samplerate: 44100 Hz
Channels: 2
Bits per sample: 16
Bitrate: 936 kbps
Codec: FLAC
================================================================================

Thanks to the original releaser sergych

Her other albums:
Jennifer Brown - Giving You The Best (1994) [Japan Bonus Track]
Jennifer Brown - Vera (1998) [Japan Bonus Tracks 1999]