Subcategories

Jeremy Monteiro & Friends with Eden Atwood - The Girl from Ipanema (2000) [Reissue 2002]

Posted By: SuniR
Jeremy Monteiro & Friends with Eden Atwood - The Girl from Ipanema (2000) [Reissue 2002]

Jeremy Monteiro & Friends with Eden Atwood - The Girl from Ipanema (2000) [Reissue 2002]
EAC | FLAC (log,image+cue) -> 347 Mb (5% Rec.) | Scans included
Jazz, Vocal Jazz, Bossa Nova | Label: Sangaji Music, SM012 | 0:54:08

Outstanding female vocals and excellent Jazz, Latin and Bossa Nova. This disc features outstanding tunes penned by the likes of A.C. Jobim, Kenny Dorham and Chick Corea.

A fine interpreter of lyrics, Eden Atwood has started out strong with her three Concord recordings. Raised in Montana, Atwood studied drama and musical theater at college but became interested in jazz and at 19 she began singing locally. Although she worked as a model and an actress, Atwood has focused her attentions on singing; she made her debut in New York in 1992 and sings in a style somewhere between jazz and cabaret. –Scott Yanow

Tracklist:

01. Desafinado (feat. Eden Atwood) (Jobim) 5:05
02. Brazil (Barroso) 4:16
03. How Insensitive (feat. Eden Atwood) (Jobim-Moracs) 4:05
04. Blue Bosa (Dorham) 6:26
05. Mas Que Nada (feat. Eden Atwood) (Ben) 3:26
06. The Girl From Ipanema (Jobim) 5:30
07. Quiet Nights of Quiets Stars (feat. Eden Atwood) (Jobim) 4:52
08. Agua de Beber (Jobim) 5:40
09. Wave (Jobim) 4:50
10. Spain (Corea) 8:53

Musicians:
Eden Atwood - Vocal
Jeremy Monteiro - Piano
Oele Pattiselnno - Guitar
Christy Smith - Bass
Edmond Branson - Drums
Mohamed Noor - Percussion


EAC extraction logfile from 18. January 2006, 22:13 for CD
Jeremy Monteiro & Friends, Eden Atwood / The Girl from Ipanema

Used drive : PLEXTOR DVDR PX-716A Adapter: 4 ID: 0
Read mode : Secure with NO C2, accurate stream, disable cache
Read offset correction : 30
Overread into Lead-In and Lead-Out : Yes

Used output format : Internal WAV Routines
44.100 Hz; 16 Bit; Stereo

Other options :
Fill up missing offset samples with silence : Yes
Delete leading and trailing silent blocks : No
Installed external ASPI interface


Range status and errors
Selected range
Filename C:\The Girl from Ipanema.wav

Peak level 99.8 %
Range quality 100.0 %
CRC 4591ADFA
Copy OK

No errors occured

End of status report

foobar2000 1.3.6 / Dynamic Range Meter 1.1.1
log date: 2017-06-29 11:12:07

––––––––––––––––––––––––––––––––––––––––
Analyzed: Jeremy Monteiro & Friends, Eden Atwood / The Girl from Ipanema
––––––––––––––––––––––––––––––––––––––––

DR Peak RMS Duration Track
––––––––––––––––––––––––––––––––––––––––
DR11 -0.01 dB -12.75 dB 5:09 01-Desafinado (with E. A.)
DR11 -0.01 dB -12.42 dB 4:49 02-Brazil
DR11 -0.26 dB -14.80 dB 4:09 03-How Insensitive (with E. A.)
DR10 -0.01 dB -12.31 dB 6:31 04-Blue Bossa
DR10 -0.01 dB -12.48 dB 3:30 05-Mas Que Nada (with E. A.)
DR11 -0.01 dB -13.27 dB 5:34 06-The Girl from Ipanema
DR11 -0.01 dB -13.49 dB 4:56 07-Quiet Nights of Quiet Stars (with E. A.)
DR11 -0.01 dB -12.14 dB 5:43 08-Agua de Beber
DR11 -0.01 dB -12.70 dB 4:54 09-Wave
DR11 -0.01 dB -13.64 dB 8:54 10-Spain
––––––––––––––––––––––––––––––––––––––––

Number of tracks: 10
Official DR value: DR11

Samplerate: 44100 Hz
Channels: 2
Bits per sample: 16
Bitrate: 813 kbps
Codec: FLAC
================================================================================

Thanks to the original releaser