Tags
Language
Tags

Jerry Rojas & Peter A. Schmid - Songbook (2005)

Posted By: Domestos
Jerry Rojas & Peter A. Schmid - Songbook (2005)

Jerry Rojas & Peter A. Schmid - Songbook (2005)
EAC Rip | FLAC (tracks+.cue, log) ~ 233.07 Mb | 56:12 | Covers
Free Jazz, Avant-Garde Jazz | Label: Creative Works Records - CW 1045

Jerry Rojas was born in Colombia, South America and grew up in Obersiggenthal AG, Switzerland. At the age of 12 he started to play the guitar seriously. Inspired by the contemporary music of the Beatles and other rock musicians, he started to compose his own music and also took up a classical guitar education, playing along to the records of his heroes.

In the eighties he produced and composed a song collection entitled "The catcher in the Rye", which he performed together with Regi Sager, who is a well known vocalist today, and Bass-Guitarist Imbi Gassmann.

Later on other musicians joined this band to produce the next song collection entitled "Guernica", which was an antiwar production. Over the years he played together with other musicians like Paul Tienan, an Irish singer/songwriter, Enkh Jargal, a Mongolian singer and Violinist, and with the "Appenzeller Space Shuttle among others. Finally he concentrated on playing pure instrumental Jazz, the style of music in which he was trained at the Jazz school in the eighties.

Today Jerry Rojas plays with Beat Gisler in the formation 241 Unit and including Andy Oswald in 341 Unit, with the drummer Dominik Burger in the Duo Rojas/Burger, with Peter A. Schmid in Schmid/Rojas an in the Trio Schmid-Rojas-Manzanilla. With Efisio Contini and his wife Dodo Hug he plays in a new folk context in the band Acanto.

His Solo-CD will be release next, including the Co-Production of Enkh Jargal, Birgit Hauser, a fine female Jazz vocalist and his son Gabriel on cornet.

Jerry Rojas has an eclectic approach to music, which is influenced by the many different styles and sounds that he has played in the course of his musical career. He performs with a fine technique and is always looking for a new innovative sound. Jerry Rojas lives with his family in Zurich, Switzerland.

Jerry Rojas is a member of the Swiss Musicians Syndicate (SMS).



Track List:
01. Penguins (Schmid) - 4:00
02. Southern Cross (Rojas) - 2:46
03. Magnolia (Rojas) - 4:22
04. Norway (Rojas) - 3:24
05. Taragoriental (Schmid) - 4:11
06. No Licks (Schmid-Rojas) - 1:36
07. Ursina (Schmid) - 3:22
08. Parallax (Rojas) - 3:30
09. Sad Eyes (Rojas) - 5:33
10. Taragotic VII (Rojas-Schmid) - 1:27
11. Tarablues (Schmid) - 3:08
12. Unexpected Leaving (Rojas) - 1:51
13. Steppenwolf (Schmid) - 3:28
14. As You Really Are (Rojas) - 4:04
15. Taragotic III (Schmid) - 5:20
16. Ball Ade (Schmid) - 4:10

Jerry Rojas - electric guitar
Peter A. Schmid - bass clarinet, A clarinet, taragot

Jerry Rojas & Peter A. Schmid - Songbook (2005)

Exact Audio Copy V1.0 beta 3 from 29. August 2011

EAC extraction logfile from 1. January 2015, 13:50

Jerry Rojas- Peter A. Schmid / Songbook

Used drive : TSSTcorpCDDVDW SH-S223C Adapter: 3 ID: 0

Read mode : Secure
Utilize accurate stream : Yes
Defeat audio cache : Yes
Make use of C2 pointers : No

Read offset correction : 697
Overread into Lead-In and Lead-Out : No
Fill up missing offset samples with silence : Yes
Delete leading and trailing silent blocks : No
Null samples used in CRC calculations : Yes
Used interface : Native Win32 interface for Win NT & 2000
Gap handling : Appended to previous track

Used output format : User Defined Encoder
Selected bitrate : 1024 kBit/s
Quality : High
Add ID3 tag : No
Command line compressor : C:\Program Files (x86)\Exact Audio Copy\Flac\flac.exe
Additional command line options : -8 -V -T "ARTIST=%artist%" -T "TITLE=%title%" -T "ALBUM=%albumtitle%" -T "DATE=%year%" -T "TRACKNUMBER=%tracknr%" -T "GENRE=%genre%" -T "PERFORMER=%albuminterpret%" -T "COMPOSER=%composer%" %haslyrics%–tag-from-file=LYRICS="%lyricsfile%"%haslyrics% -T "ALBUMARTIST=%albumartist%" -T "DISCNUMBER=%cdnumber%" -T "TOTALDISCS=%totalcds%" -T "TOTALTRACKS=%numtracks%" -T "COMMENT=%comment%" %source% -o %dest%


TOC of the extracted CD

Track | Start | Length | Start sector | End sector
––––––––––––––––––––––––––––-
1 | 0:00.20 | 4:00.17 | 20 | 18036
2 | 4:00.37 | 2:45.65 | 18037 | 30476
3 | 6:46.27 | 4:21.41 | 30477 | 50092
4 | 11:07.68 | 3:24.16 | 50093 | 65408
5 | 14:32.09 | 4:10.39 | 65409 | 84197
6 | 18:42.48 | 1:35.59 | 84198 | 91381
7 | 20:18.32 | 3:21.63 | 91382 | 106519
8 | 23:40.20 | 3:29.50 | 106520 | 122244
9 | 27:09.70 | 5:33.22 | 122245 | 147241
10 | 32:43.17 | 1:27.19 | 147242 | 153785
11 | 34:10.36 | 3:08.31 | 153786 | 167916
12 | 37:18.67 | 1:50.55 | 167917 | 176221
13 | 39:09.47 | 3:28.01 | 176222 | 191822
14 | 42:37.48 | 4:04.10 | 191823 | 210132
15 | 46:41.58 | 5:20.11 | 210133 | 234143
16 | 52:01.69 | 4:10.33 | 234144 | 252926


Track 1

Filename D:\EAC Rips\Jerry Rojas & Peter Schmid - Songbook (2006)\01 - Penguins.wav

Pre-gap length 0:00:02.26

Peak level 98.0 %
Extraction speed 1.9 X
Track quality 100.0 %
Test CRC 6E019192
Copy CRC 6E019192
Accurately ripped (confidence 2) [E9555B83] (AR v2)
Copy OK

Track 2

Filename D:\EAC Rips\Jerry Rojas & Peter Schmid - Songbook (2006)\02 - Southern cross.wav

Pre-gap length 0:00:01.60

Peak level 78.9 %
Extraction speed 2.0 X
Track quality 100.0 %
Test CRC 2BF644F6
Copy CRC 2BF644F6
Accurately ripped (confidence 2) [8EB2AA50] (AR v2)
Copy OK

Track 3

Filename D:\EAC Rips\Jerry Rojas & Peter Schmid - Songbook (2006)\03 - Magnolia.wav

Pre-gap length 0:00:01.60

Peak level 83.2 %
Extraction speed 2.3 X
Track quality 100.0 %
Test CRC 51E0CFC5
Copy CRC 51E0CFC5
Accurately ripped (confidence 2) [01B28E2E] (AR v2)
Copy OK

Track 4

Filename D:\EAC Rips\Jerry Rojas & Peter Schmid - Songbook (2006)\04 - Norway.wav

Pre-gap length 0:00:01.60

Peak level 98.8 %
Extraction speed 2.4 X
Track quality 100.0 %
Test CRC 3933F762
Copy CRC 3933F762
Accurately ripped (confidence 2) [67F5D53E] (AR v2)
Copy OK

Track 5

Filename D:\EAC Rips\Jerry Rojas & Peter Schmid - Songbook (2006)\05 - Taragoriental.wav

Pre-gap length 0:00:01.60

Peak level 99.4 %
Extraction speed 2.7 X
Track quality 100.0 %
Test CRC CB1E80CA
Copy CRC CB1E80CA
Accurately ripped (confidence 2) [16E8C7F3] (AR v2)
Copy OK

Track 6

Filename D:\EAC Rips\Jerry Rojas & Peter Schmid - Songbook (2006)\06 - No licks.wav

Pre-gap length 0:00:01.60

Peak level 92.3 %
Extraction speed 2.3 X
Track quality 100.0 %
Test CRC 6BF9BCCA
Copy CRC 6BF9BCCA
Accurately ripped (confidence 2) [568CDC17] (AR v2)
Copy OK

Track 7

Filename D:\EAC Rips\Jerry Rojas & Peter Schmid - Songbook (2006)\07 - Ursina.wav

Pre-gap length 0:00:01.60

Peak level 95.5 %
Extraction speed 0.4 X
Track quality 99.9 %
Test CRC BABB6902
Copy CRC BABB6902
Accurately ripped (confidence 2) [F778AC11] (AR v2)
Copy OK

Track 8

Filename D:\EAC Rips\Jerry Rojas & Peter Schmid - Songbook (2006)\08 - Paralax.wav

Pre-gap length 0:00:01.60

Peak level 98.9 %
Extraction speed 2.9 X
Track quality 100.0 %
Test CRC 749FC5BF
Copy CRC 749FC5BF
Accurately ripped (confidence 2) [F1EECAFA] (AR v2)
Copy OK

Track 9

Filename D:\EAC Rips\Jerry Rojas & Peter Schmid - Songbook (2006)\09 - Sad eyes.wav

Pre-gap length 0:00:01.60

Peak level 92.3 %
Extraction speed 0.6 X
Track quality 99.9 %
Test CRC 3653BFE1
Copy CRC 3653BFE1
Accurately ripped (confidence 2) [64D209F1] (AR v2)
Copy OK

Track 10

Filename D:\EAC Rips\Jerry Rojas & Peter Schmid - Songbook (2006)\10 - Taragotic VII.wav

Pre-gap length 0:00:01.60

Peak level 93.1 %
Extraction speed 2.6 X
Track quality 100.0 %
Test CRC 584728E7
Copy CRC 584728E7
Accurately ripped (confidence 2) [B2BB6A2F] (AR v2)
Copy OK

Track 11

Filename D:\EAC Rips\Jerry Rojas & Peter Schmid - Songbook (2006)\11 - Tarablues.wav

Pre-gap length 0:00:01.60

Peak level 99.2 %
Extraction speed 3.2 X
Track quality 100.0 %
Test CRC F87127F6
Copy CRC F87127F6
Accurately ripped (confidence 2) [B7C07073] (AR v2)
Copy OK

Track 12

Filename D:\EAC Rips\Jerry Rojas & Peter Schmid - Songbook (2006)\12 - Unexpected leaving.wav

Pre-gap length 0:00:01.60

Peak level 97.3 %
Extraction speed 2.9 X
Track quality 100.0 %
Test CRC 0B7137E5
Copy CRC 0B7137E5
Accurately ripped (confidence 2) [6D2CF55E] (AR v2)
Copy OK

Track 13

Filename D:\EAC Rips\Jerry Rojas & Peter Schmid - Songbook (2006)\13 - Steppenwolf.wav

Pre-gap length 0:00:01.60

Peak level 98.6 %
Extraction speed 3.4 X
Track quality 100.0 %
Test CRC E8574502
Copy CRC E8574502
Accurately ripped (confidence 2) [79C1FE9C] (AR v2)
Copy OK

Track 14

Filename D:\EAC Rips\Jerry Rojas & Peter Schmid - Songbook (2006)\14 - As you really are.wav

Pre-gap length 0:00:01.60

Peak level 90.2 %
Extraction speed 3.6 X
Track quality 100.0 %
Test CRC F8CC6038
Copy CRC F8CC6038
Accurately ripped (confidence 2) [58B5AC42] (AR v2)
Copy OK

Track 15

Filename D:\EAC Rips\Jerry Rojas & Peter Schmid - Songbook (2006)\15 - Taragotic III.wav

Pre-gap length 0:00:01.60

Peak level 99.0 %
Extraction speed 3.8 X
Track quality 100.0 %
Test CRC B9E14095
Copy CRC B9E14095
Accurately ripped (confidence 2) [2EAD1769] (AR v2)
Copy OK

Track 16

Filename D:\EAC Rips\Jerry Rojas & Peter Schmid - Songbook (2006)\16 - Ball ade.wav

Pre-gap length 0:00:01.60

Peak level 92.5 %
Extraction speed 3.9 X
Track quality 100.0 %
Test CRC 19C77D53
Copy CRC 19C77D53
Accurately ripped (confidence 2) [10DEA934] (AR v2)
Copy OK


All tracks accurately ripped

No errors occurred

End of status report

==== Log checksum 9635553659443D69B82E25D8B06CBDE2978ECE5F1B3F08607FA06EE82D94B2D5 ====

All thanks go to the Iegou

More Music in My Blog
Follow My RSS Channel