Tags
Language
Tags

Jerry Garcia Band - After Midnight: Keane College, February 28, 1980 (2004) {3 Disc Set HDCD Rhino R2 76538}

Posted By: ruskaval
Jerry Garcia Band - After Midnight:  Keane College, February 28, 1980 (2004) {3 Disc Set HDCD Rhino R2 76538}

Jerry Garcia Band - After Midnight: Keane College, February 28, 1980 (2004) {3 Disc Set HDCD Rhino R2 76538}
EAC rip (secure mode) | FLAC (tracks)+CUE+LOG -> 0.98 Gb | MP3 @320 -> 396 Mb
Full Artwork @ 300 dpi (jpg) -> 35 Mb | 5% repair rar
© 1980, 2004 Jerry Garcia / Rhino / Warner | R2 76538
Rock / Country-Rock / Rock & Roll / Jam Bands

Released in 2004, After Midnight: Kean College, 2/28/80 is a three-disc offering from a short-lived incarnation of the Jerry Garcia Band, featuring Garcia (guitar/vocals), John Kahn (bass), Ozzie Ahlers (keyboards/vocals), and Johnny De Foncesca (drums). The aggregate lasted less than six months, with De Foncesca replaced by former Sly & the Family Stone and Santana percussionist Greg Errico less than a month after this late February show. Opening up for Garcia on a majority of the East Coast run was his lyricist and primary collaborator, vocalist Robert Hunter. He joins the JGB during the second set for readings of his own "Tiger Rose" and "Promontory Rider," in addition to offering up his recollections of the experience in the package's liner essay.

The quartet is exceptionally compact, with an ability to instantly expand and sidetrack into an impressive exchange of improvisations. This is evidenced by the exploratory jam linking "After Midnight" to an incendiary jazz-fused instrumental interpretation of "Eleanor Rigby" before returning for a reprise of the former. With the exception of the lamenting rocker "Sugaree" and the gorgeous Bay Area ballad "Mission in the Rain," the selections may appear short on originals. Hunter's notes point out that many of the "good Garcia solo-band songs hadn't been written yet," adding that on this evening the artist plays as many Bob Dylan tunes as he does from his own non-Grateful Dead repertoire. Speaking of which, "Simple Twist of Fate" and "Knockin' On Heaven's Door" are each given emotive interpretations, the latter adopting the nimble reggae-influenced gait reminiscent of Eric Clapton's reading. Those familiar with Hunter's interpretations of his own work will find that the versions of the aforementioned "Tiger Rose" and "Promontory Rider" by the JGB are a refreshing change of sonic scenery. While definitely a recommended spin for inclined parties, enthusiasts not familiar with this era or JGB lineup are particularly encouraged to check out After Midnight: Kean College, 2/28/80.
Jerry Garcia Band - After Midnight:  Keane College, February 28, 1980 (2004) {3 Disc Set HDCD Rhino R2 76538}


Jerry Garcia Band
Jerry Garcia — guitar, vocals
John Kahn — bass
Ozzie Ahlers — keyboards
Johnny d'Fonseca Jr — drums

additional personnel
Robert Hunter — guitar, harmonica, vocals

Track Listings

Disc: 1

1. Sugaree
2. Catfish John
3. That's What Love Will Make You Do
4. Simple Twist Of Fate

Jerry Garcia Band - After Midnight:  Keane College, February 28, 1980 (2004) {3 Disc Set HDCD Rhino R2 76538}


Disc: 2
1. How Sweet It Is To Be Loved By You
2. After Midnight
3. Eleanor Rigby
4. After Midnight (Reprise)

Jerry Garcia Band - After Midnight:  Keane College, February 28, 1980 (2004) {3 Disc Set HDCD Rhino R2 76538}


Disc: 3
1. I'll Take A Melody
2. Tore Up Over You
3. Knockin' On Heaven's Door
4. The Harder They Come
5. Tiger Rose
6. Promontory Rider
7. Mission In The Rain
8. Midnight Moonlight

Jerry Garcia Band - After Midnight:  Keane College, February 28, 1980 (2004) {3 Disc Set HDCD Rhino R2 76538}


Exact Audio Copy V1.0 beta 1 from 15. November 2010

EAC extraction logfile from 29. May 2011, 18:57

The Jerry Garcia Band / After Midnight: Kean College February 28, 1980 Disc 1

Used drive : PLEXTOR BDDVDR PX-B320SA Adapter: 2 ID: 1

Read mode : Secure
Utilize accurate stream : Yes
Defeat audio cache : Yes
Make use of C2 pointers : No

Read offset correction : 6
Overread into Lead-In and Lead-Out : No
Fill up missing offset samples with silence : Yes
Delete leading and trailing silent blocks : No
Null samples used in CRC calculations : Yes
Used interface : Native Win32 interface for Win NT & 2000
Gap handling : Appended to previous track

Used output format : Internal WAV Routines
Sample format : 44.100 Hz; 16 Bit; Stereo


TOC of the extracted CD

Track | Start | Length | Start sector | End sector
––––––––––––––––––––––––––––-
1 | 0:00.00 | 14:50.63 | 0 | 66812
2 | 14:50.63 | 11:21.17 | 66813 | 117904
3 | 26:12.05 | 10:04.23 | 117905 | 163227
4 | 36:16.28 | 17:27.00 | 163228 | 241752


Track 1

Filename C:\Temp\Jerry Garcia Band - After Midnight Live Keane Colege (Disc 1) (1980)\01 - Sugaree.wav

Pre-gap length 0:00:02.00

Peak level 95.5 %
Extraction speed 5.5 X
Track quality 100.0 %
Test CRC D063F0CF
Copy CRC D063F0CF
Accurately ripped (confidence 35) [0D9F3444]
Copy OK

Track 2

Filename C:\Temp\Jerry Garcia Band - After Midnight Live Keane Colege (Disc 1) (1980)\02 - Catfish John.wav

Peak level 95.5 %
Extraction speed 6.8 X
Track quality 100.0 %
Test CRC C1ABD1E1
Copy CRC C1ABD1E1
Accurately ripped (confidence 35) [B5320AC0]
Copy OK

Track 3

Filename C:\Temp\Jerry Garcia Band - After Midnight Live Keane Colege (Disc 1) (1980)\03 - That's What Love Will Make You Do.wav

Peak level 98.8 %
Extraction speed 7.7 X
Track quality 100.0 %
Test CRC A9A4BDFC
Copy CRC A9A4BDFC
Accurately ripped (confidence 35) [A241EE25]
Copy OK

Track 4

Filename C:\Temp\Jerry Garcia Band - After Midnight Live Keane Colege (Disc 1) (1980)\04 - Simple Twist Of Fate.wav

Peak level 95.5 %
Extraction speed 8.4 X
Track quality 99.9 %
Test CRC D4C4FFBC
Copy CRC D4C4FFBC
Accurately ripped (confidence 34) [106F7608]
Copy OK


All tracks accurately ripped

No errors occurred

End of status report

==== Log checksum EAEF315A5E780CEE37A3FCE6F30C7B3B322B47B5FD888A4566B0428224A0F342 ====
Exact Audio Copy V1.0 beta 1 from 15. November 2010

EAC extraction logfile from 29. May 2011, 19:31

The Jerry Garcia Band / After Midnight: Kean College February 28, 1980 Disc 2

Used drive : PLEXTOR BDDVDR PX-B320SA Adapter: 2 ID: 1

Read mode : Secure
Utilize accurate stream : Yes
Defeat audio cache : Yes
Make use of C2 pointers : No

Read offset correction : 6
Overread into Lead-In and Lead-Out : No
Fill up missing offset samples with silence : Yes
Delete leading and trailing silent blocks : No
Null samples used in CRC calculations : Yes
Used interface : Native Win32 interface for Win NT & 2000
Gap handling : Appended to previous track

Used output format : Internal WAV Routines
Sample format : 44.100 Hz; 16 Bit; Stereo


TOC of the extracted CD

Track | Start | Length | Start sector | End sector
––––––––––––––––––––––––––––-
1 | 0:00.00 | 10:23.39 | 0 | 46763
2 | 10:23.39 | 13:13.32 | 46764 | 106270
3 | 23:36.71 | 3:20.14 | 106271 | 121284
4 | 26:57.10 | 6:33.39 | 121285 | 150798


Track 1

Filename C:\Temp\Jerry Garcia Band - After Midnight Keane Colege February 28 (Disc 2) (1980)\01 - How Sweet It Is To Be Loved By You.wav

Pre-gap length 0:00:02.00

Peak level 98.8 %
Extraction speed 5.3 X
Track quality 100.0 %
Test CRC C90A28E0
Copy CRC C90A28E0
Accurately ripped (confidence 32) [3700D34F]
Copy OK

Track 2

Filename C:\Temp\Jerry Garcia Band - After Midnight Keane Colege February 28 (Disc 2) (1980)\02 - After Midnight.wav

Peak level 95.5 %
Extraction speed 6.8 X
Track quality 100.0 %
Test CRC 2F9E0B7C
Copy CRC 2F9E0B7C
Accurately ripped (confidence 32) [FC6A56C5]
Copy OK

Track 3

Filename C:\Temp\Jerry Garcia Band - After Midnight Keane Colege February 28 (Disc 2) (1980)\03 - Eleanor Rigby.wav

Peak level 95.5 %
Extraction speed 6.7 X
Track quality 100.0 %
Test CRC E103FA5A
Copy CRC E103FA5A
Accurately ripped (confidence 32) [AF0A3B1B]
Copy OK

Track 4

Filename C:\Temp\Jerry Garcia Band - After Midnight Keane Colege February 28 (Disc 2) (1980)\04 - After Midnight (reprise).wav

Peak level 98.8 %
Extraction speed 6.6 X
Track quality 99.9 %
Test CRC E2CC25E9
Copy CRC E2CC25E9
Accurately ripped (confidence 32) [B919B3D7]
Copy OK


All tracks accurately ripped

No errors occurred

End of status report

==== Log checksum 310CB1B97C0FE637E4C6EF1801E0C89B9D87C71FDA2D2952E43AAE957B3E81D6 ====
Exact Audio Copy V1.0 beta 1 from 15. November 2010

EAC extraction logfile from 29. May 2011, 20:01

The Jerry Garcia Band / After Midnight: Kean College February 28, 1980 Disc 3

Used drive : PLEXTOR BDDVDR PX-B320SA Adapter: 2 ID: 1

Read mode : Secure
Utilize accurate stream : Yes
Defeat audio cache : Yes
Make use of C2 pointers : No

Read offset correction : 6
Overread into Lead-In and Lead-Out : No
Fill up missing offset samples with silence : Yes
Delete leading and trailing silent blocks : No
Null samples used in CRC calculations : Yes
Used interface : Native Win32 interface for Win NT & 2000
Gap handling : Appended to previous track

Used output format : Internal WAV Routines
Sample format : 44.100 Hz; 16 Bit; Stereo


TOC of the extracted CD

Track | Start | Length | Start sector | End sector
––––––––––––––––––––––––––––-
1 | 0:00.00 | 14:01.11 | 0 | 63085
2 | 14:01.11 | 10:25.44 | 63086 | 110004
3 | 24:26.55 | 13:57.39 | 110005 | 172818
4 | 38:24.19 | 12:42.47 | 172819 | 230015
5 | 51:06.66 | 3:42.16 | 230016 | 246681
6 | 54:49.07 | 4:31.07 | 246682 | 267013
7 | 59:20.14 | 11:28.67 | 267014 | 318680
8 | 70:49.06 | 7:06.39 | 318681 | 350669


Track 1

Filename C:\Temp\Jerry Garcia Band - After Midnight Keane Colege February 28 (Disc 3) (1980)\01 - I'll Take A Melody.wav

Pre-gap length 0:00:02.00

Peak level 95.5 %
Extraction speed 5.9 X
Track quality 100.0 %
Test CRC EFB13CBC
Copy CRC EFB13CBC
Accurately ripped (confidence 33) [68383351]
Copy OK

Track 2

Filename C:\Temp\Jerry Garcia Band - After Midnight Keane Colege February 28 (Disc 3) (1980)\02 - Tore Up Over You.wav

Peak level 98.8 %
Extraction speed 6.5 X
Track quality 99.9 %
Test CRC F9E4146C
Copy CRC F9E4146C
Accurately ripped (confidence 32) [368C6C41]
Copy OK

Track 3

Filename C:\Temp\Jerry Garcia Band - After Midnight Keane Colege February 28 (Disc 3) (1980)\03 - Knockin' On Heaven's Door.wav

Peak level 95.5 %
Extraction speed 8.3 X
Track quality 100.0 %
Test CRC 42BA48B9
Copy CRC 42BA48B9
Accurately ripped (confidence 32) [508B610D]
Copy OK

Track 4

Filename C:\Temp\Jerry Garcia Band - After Midnight Keane Colege February 28 (Disc 3) (1980)\04 - The Harder They Come.wav

Peak level 95.5 %
Extraction speed 9.2 X
Track quality 100.0 %
Test CRC 6580493E
Copy CRC 6580493E
Accurately ripped (confidence 31) [8EE6CAFC]
Copy OK

Track 5

Filename C:\Temp\Jerry Garcia Band - After Midnight Keane Colege February 28 (Disc 3) (1980)\05 - Tiger Rose (w, Robert Hunter).wav

Peak level 95.5 %
Extraction speed 8.7 X
Track quality 100.0 %
Test CRC 9107E7F9
Copy CRC 9107E7F9
Accurately ripped (confidence 32) [9E477977]
Copy OK

Track 6

Filename C:\Temp\Jerry Garcia Band - After Midnight Keane Colege February 28 (Disc 3) (1980)\06 - Promontory Rider (w, Robert Hunter).wav

Peak level 95.5 %
Extraction speed 9.2 X
Track quality 100.0 %
Test CRC 2A559660
Copy CRC 2A559660
Accurately ripped (confidence 32) [2743BD38]
Copy OK

Track 7

Filename C:\Temp\Jerry Garcia Band - After Midnight Keane Colege February 28 (Disc 3) (1980)\07 - Mission In The Rain.wav

Peak level 95.5 %
Extraction speed 10.4 X
Track quality 100.0 %
Test CRC C984CF41
Copy CRC C984CF41
Accurately ripped (confidence 31) [95437BAF]
Copy OK

Track 8

Filename C:\Temp\Jerry Garcia Band - After Midnight Keane Colege February 28 (Disc 3) (1980)\08 - Midnight Moonlight.wav

Peak level 95.5 %
Extraction speed 10.5 X
Track quality 100.0 %
Test CRC EBAAE328
Copy CRC EBAAE328
Accurately ripped (confidence 30) [6A4D495D]
Copy OK


All tracks accurately ripped

No errors occurred

End of status report

==== Log checksum 0A106AD29B78DE168169FC17BCF79748C8C1E96660A96C9E91D2262C69817C60 ====


Jerry Garcia Band - After Midnight:  Keane College, February 28, 1980 (2004) {3 Disc Set HDCD Rhino R2 76538}



===