Subcategories

Johnny Hodges - The Jeep Is Jumpin' (2003) [Proper Box]

Posted By: elcom
Johnny Hodges - The Jeep Is Jumpin' (2003) [Proper Box]

Johnny Hodges - The Jeep Is Jumpin' (2003) [Proper Box]
Jazz / Classic | EAC Rip | FLAC+LOG+CUE | 866 Mb | 4 CDs | Complete covers & booklets 300 dpi
Label: Proper | Catalog: Properbox 58 | Lossless compression: 8 | RAR Rec.: 3% | RS.com


Biography by Scott Yanow
Possessor of the most beautiful tone ever heard in jazz, altoist Johnny Hodges formed his style early on and had little reason to change it through the decades. Although he could stomp with the best swing players and was masterful on the blues, Hodges' luscious playing on ballads has never been topped. He played drums and piano early on before switching to soprano sax when he was 14. Hodges was taught and inspired by Sidney Bechet, although he soon used alto as his main ax; he would regretfully drop soprano altogether after 1940. His early experiences included playing with Lloyd Scott, Chick Webb, Luckey Roberts, and Willie "The Lion" Smith (1924), and he also had the opportunity to work with Bechet. However, Johnny Hodges' real career began in 1928 when he joined Duke Ellington's orchestra. He quickly became one of the most important solo stars in the band and a real pacesetter on alto; Benny Carter was his only close competition in the 1930s. Hodges was featured on a countless number of performances with Ellington and also had many chances to lead recording dates with Ellington's sidemen. Whether it was "Things Ain't What They Used to Be," "Come Sunday," or "Passion Flower," Hodges was an indispensable member of Ellington's orchestra in the 1930s and '40s. It was therefore a shock, in 1951, when he decided to leave Duke Ellington and lead a band of his own. Hodges had a quick hit in "Castle Rock" (which ironically showcased Al Sears' tenor and had no real contribution by the altoist), but his combo ended up struggling and breaking up in 1955. Hodges' return to Duke Ellington was a joyous occasion and he never really left again. In the 1960s, Hodges teamed up with organist Wild Bill Davis on some sessions, leading to Davis joining Ellington for a time in 1969. Johnny Hodges, whose unchanging style always managed to sound fresh, was still with Duke Ellington when he suddenly died in 1970.

EAC extraction logfile from 13. August 2007, 17:12 for CD
Johnny Hodges / The Jeep is Jumpin'

Used drive : HL-DT-STDVD-ROM GDR8164B Adapter: 0 ID: 1
Read mode : Secure with NO C2, accurate stream, disable cache
Read offset correction : 102
Overread into Lead-In and Lead-Out : No

Used output format : C:\Programmi\Exact Audio Copy\flac.exe (User Defined Encoder)
128 kBit/s
Additional command line options : -V -8 -T "artist=%a" -T "title=%t" -T "album=%g" -T "date=%y" -T "tracknumber=%n" -T "genre=%m" %s

Other options :
Fill up missing offset samples with silence : Yes
Delete leading and trailing silent blocks : No
Installed external ASPI interface


Track 1
Filename D:\TORRENTS\Johnny Hodges - The Jeep Is Jumpin' (2003) [FLAC] {Proper Box - 4 Cds}\CD 1 - Hodge Podge\01 - Foolin' Myself.wav

Pre-gap length 0:00:02.00

Peak level 94.3 %
Track quality 100.0 %
Test CRC 63E21647
Copy CRC 63E21647
Copy OK

Track 2
Filename D:\TORRENTS\Johnny Hodges - The Jeep Is Jumpin' (2003) [FLAC] {Proper Box - 4 Cds}\CD 1 - Hodge Podge\02 - A Sailboat in the Moonlight.wav

Pre-gap length 0:00:02.54

Peak level 94.3 %
Track quality 100.0 %
Test CRC 51F5D4D6
Copy CRC 51F5D4D6
Copy OK

Track 3
Filename D:\TORRENTS\Johnny Hodges - The Jeep Is Jumpin' (2003) [FLAC] {Proper Box - 4 Cds}\CD 1 - Hodge Podge\03 - You'll Never Go to Heaven.wav

Pre-gap length 0:00:02.54

Peak level 94.3 %
Track quality 100.0 %
Test CRC 3AAC7502
Copy CRC 3AAC7502
Copy OK

Track 4
Filename D:\TORRENTS\Johnny Hodges - The Jeep Is Jumpin' (2003) [FLAC] {Proper Box - 4 Cds}\CD 1 - Hodge Podge\04 - Peckin'.wav

Pre-gap length 0:00:02.54

Peak level 94.3 %
Track quality 100.0 %
Test CRC F3CA70B1
Copy CRC F3CA70B1
Copy OK

Track 5
Filename D:\TORRENTS\Johnny Hodges - The Jeep Is Jumpin' (2003) [FLAC] {Proper Box - 4 Cds}\CD 1 - Hodge Podge\05 - My Day.wav

Pre-gap length 0:00:02.54

Peak level 94.3 %
Track quality 100.0 %
Test CRC C6850415
Copy CRC C6850415
Copy OK

Track 6
Filename D:\TORRENTS\Johnny Hodges - The Jeep Is Jumpin' (2003) [FLAC] {Proper Box - 4 Cds}\CD 1 - Hodge Podge\06 - Silvery Moon and Golden Sands.wav

Pre-gap length 0:00:02.54

Peak level 94.2 %
Track quality 100.0 %
Test CRC 9C27BB2F
Copy CRC 9C27BB2F
Copy OK

Track 7
Filename D:\TORRENTS\Johnny Hodges - The Jeep Is Jumpin' (2003) [FLAC] {Proper Box - 4 Cds}\CD 1 - Hodge Podge\07 - Jeep's Blues.wav

Pre-gap length 0:00:02.54

Peak level 84.0 %
Track quality 100.0 %
Test CRC 9039FC3E
Copy CRC 9039FC3E
Copy OK

Track 8
Filename D:\TORRENTS\Johnny Hodges - The Jeep Is Jumpin' (2003) [FLAC] {Proper Box - 4 Cds}\CD 1 - Hodge Podge\08 - If YOu Were in My Place (What Would You Do ).wav

Pre-gap length 0:00:02.54

Peak level 94.2 %
Track quality 100.0 %
Test CRC E63E06AB
Copy CRC E63E06AB
Copy OK

Track 9
Filename D:\TORRENTS\Johnny Hodges - The Jeep Is Jumpin' (2003) [FLAC] {Proper Box - 4 Cds}\CD 1 - Hodge Podge\09 - I Let a Song Go Out of My Heart.wav

Pre-gap length 0:00:02.54

Peak level 94.2 %
Track quality 99.9 %
Test CRC 51B132B3
Copy CRC 51B132B3
Copy OK

Track 10
Filename D:\TORRENTS\Johnny Hodges - The Jeep Is Jumpin' (2003) [FLAC] {Proper Box - 4 Cds}\CD 1 - Hodge Podge\10 - Rendezvous with Rhythm.wav

Pre-gap length 0:00:02.54

Peak level 94.2 %
Track quality 99.9 %
Test CRC 80381999
Copy CRC 80381999
Copy OK

Track 11
Filename D:\TORRENTS\Johnny Hodges - The Jeep Is Jumpin' (2003) [FLAC] {Proper Box - 4 Cds}\CD 1 - Hodge Podge\11 - You Walked Out of the Picture.wav

Pre-gap length 0:00:02.54

Peak level 84.0 %
Track quality 100.0 %
Test CRC C5F0E88A
Copy CRC C5F0E88A
Copy OK

Track 12
Filename D:\TORRENTS\Johnny Hodges - The Jeep Is Jumpin' (2003) [FLAC] {Proper Box - 4 Cds}\CD 1 - Hodge Podge\12 - Pyramid.wav

Pre-gap length 0:00:02.54

Peak level 94.2 %
Track quality 100.0 %
Test CRC D132F8DE
Copy CRC D132F8DE
Copy OK

Track 13
Filename D:\TORRENTS\Johnny Hodges - The Jeep Is Jumpin' (2003) [FLAC] {Proper Box - 4 Cds}\CD 1 - Hodge Podge\13 - Empty Ballroom Blues.wav

Pre-gap length 0:00:02.54

Peak level 94.2 %
Track quality 100.0 %
Test CRC 57D58CF2
Copy CRC 57D58CF2
Copy OK

Track 14
Filename D:\TORRENTS\Johnny Hodges - The Jeep Is Jumpin' (2003) [FLAC] {Proper Box - 4 Cds}\CD 1 - Hodge Podge\14 - Lost in Meditation.wav

Pre-gap length 0:00:02.54

Peak level 94.2 %
Track quality 100.0 %
Test CRC 4C49E4B6
Copy CRC 4C49E4B6
Copy OK

Track 15
Filename D:\TORRENTS\Johnny Hodges - The Jeep Is Jumpin' (2003) [FLAC] {Proper Box - 4 Cds}\CD 1 - Hodge Podge\15 - A Blues Serenade.wav

Pre-gap length 0:00:02.54

Peak level 94.3 %
Track quality 100.0 %
Test CRC 90BE300D
Copy CRC 90BE300D
Copy OK

Track 16
Filename D:\TORRENTS\Johnny Hodges - The Jeep Is Jumpin' (2003) [FLAC] {Proper Box - 4 Cds}\CD 1 - Hodge Podge\16 - Love in Swingtime.wav

Pre-gap length 0:00:02.54

Peak level 84.0 %
Track quality 100.0 %
Test CRC EA04B69E
Copy CRC EA04B69E
Copy OK

Track 17
Filename D:\TORRENTS\Johnny Hodges - The Jeep Is Jumpin' (2003) [FLAC] {Proper Box - 4 Cds}\CD 1 - Hodge Podge\17 - Swinging in the Dell.wav

Pre-gap length 0:00:02.54

Peak level 94.2 %
Track quality 100.0 %
Test CRC 4817A812
Copy CRC 4817A812
Copy OK

Track 18
Filename D:\TORRENTS\Johnny Hodges - The Jeep Is Jumpin' (2003) [FLAC] {Proper Box - 4 Cds}\CD 1 - Hodge Podge\18 - Jitterbug's Lullaby.wav

Pre-gap length 0:00:02.54

Peak level 94.2 %
Track quality 100.0 %
Test CRC 67AF5648
Copy CRC 67AF5648
Copy OK

Track 19
Filename D:\TORRENTS\Johnny Hodges - The Jeep Is Jumpin' (2003) [FLAC] {Proper Box - 4 Cds}\CD 1 - Hodge Podge\19 - Prelude to a Kiss.wav

Pre-gap length 0:00:02.54

Peak level 94.2 %
Track quality 100.0 %
Test CRC 9F27CB4D
Copy CRC 9F27CB4D
Copy OK

Track 20
Filename D:\TORRENTS\Johnny Hodges - The Jeep Is Jumpin' (2003) [FLAC] {Proper Box - 4 Cds}\CD 1 - Hodge Podge\20 - There's Something About an Old Love.wav

Pre-gap length 0:00:02.54

Peak level 94.2 %
Track quality 100.0 %
Test CRC B5635C93
Copy CRC B5635C93
Copy OK

Track 21
Filename D:\TORRENTS\Johnny Hodges - The Jeep Is Jumpin' (2003) [FLAC] {Proper Box - 4 Cds}\CD 1 - Hodge Podge\21 - The Jeep is Jumpin'.wav

Pre-gap length 0:00:02.54

Peak level 94.3 %
Track quality 100.0 %
Test CRC EA8C4357
Copy CRC EA8C4357
Copy OK

Track 22
Filename D:\TORRENTS\Johnny Hodges - The Jeep Is Jumpin' (2003) [FLAC] {Proper Box - 4 Cds}\CD 1 - Hodge Podge\22 - Krum Elbow Blues.wav

Pre-gap length 0:00:02.54

Peak level 94.2 %
Track quality 100.0 %
Test CRC 25E498EA
Copy CRC 25E498EA
Copy OK

Track 23
Filename D:\TORRENTS\Johnny Hodges - The Jeep Is Jumpin' (2003) [FLAC] {Proper Box - 4 Cds}\CD 1 - Hodge Podge\23 - I'm in Another World.wav

Pre-gap length 0:00:02.54

Peak level 84.0 %
Track quality 100.0 %
Test CRC 11971C06
Copy CRC 11971C06
Copy OK

Track 24
Filename D:\TORRENTS\Johnny Hodges - The Jeep Is Jumpin' (2003) [FLAC] {Proper Box - 4 Cds}\CD 1 - Hodge Podge\24 - Hodge, Podge.wav

Pre-gap length 0:00:02.54

Peak level 94.2 %
Track quality 100.0 %
Test CRC 79DD2F6F
Copy CRC 79DD2F6F
Copy OK

Track 25
Filename D:\TORRENTS\Johnny Hodges - The Jeep Is Jumpin' (2003) [FLAC] {Proper Box - 4 Cds}\CD 1 - Hodge Podge\25 - Dancing on the Stars.wav

Pre-gap length 0:00:02.54

Peak level 94.2 %
Track quality 99.9 %
Test CRC 1CE287E8
Copy CRC 1CE287E8
Copy OK

No errors occured


End of status report
************************************

EAC extraction logfile from 13. August 2007, 17:34 for CD
Johnny Hodges / The Jeep is Jumpin'

Used drive : HL-DT-STDVD-ROM GDR8164B Adapter: 0 ID: 1
Read mode : Secure with NO C2, accurate stream, disable cache
Read offset correction : 102
Overread into Lead-In and Lead-Out : No

Used output format : C:\Programmi\Exact Audio Copy\flac.exe (User Defined Encoder)
128 kBit/s
Additional command line options : -V -8 -T "artist=%a" -T "title=%t" -T "album=%g" -T "date=%y" -T "tracknumber=%n" -T "genre=%m" %s

Other options :
Fill up missing offset samples with silence : Yes
Delete leading and trailing silent blocks : No
Installed external ASPI interface


Track 1
Filename D:\TORRENTS\Johnny Hodges - The Jeep Is Jumpin' (2003) [FLAC] {Proper Box - 4 Cds}\CD 2 - Day Dream\01 - Wanderlust.wav

Pre-gap length 0:00:02.00

Peak level 94.3 %
Track quality 100.0 %
Test CRC 9426DF11
Copy CRC 9426DF11
Copy OK

Track 2
Filename D:\TORRENTS\Johnny Hodges - The Jeep Is Jumpin' (2003) [FLAC] {Proper Box - 4 Cds}\CD 2 - Day Dream\02 - Like a Ship in the Night.wav

Pre-gap length 0:00:02.54

Peak level 94.2 %
Track quality 100.0 %
Test CRC 728384A1
Copy CRC 728384A1
Copy OK

Track 3
Filename D:\TORRENTS\Johnny Hodges - The Jeep Is Jumpin' (2003) [FLAC] {Proper Box - 4 Cds}\CD 2 - Day Dream\03 - Mississippi Dreamboat.wav

Pre-gap length 0:00:02.54

Peak level 94.3 %
Track quality 99.9 %
Test CRC D9B4115D
Copy CRC D9B4115D
Copy OK

Track 4
Filename D:\TORRENTS\Johnny Hodges - The Jeep Is Jumpin' (2003) [FLAC] {Proper Box - 4 Cds}\CD 2 - Day Dream\04 - Swingin' on the Campus.wav

Pre-gap length 0:00:02.54

Peak level 84.0 %
Track quality 100.0 %
Test CRC 3212B83C
Copy CRC 3212B83C
Copy OK

Track 5
Filename D:\TORRENTS\Johnny Hodges - The Jeep Is Jumpin' (2003) [FLAC] {Proper Box - 4 Cds}\CD 2 - Day Dream\05 - Dooji Wooji.wav

Pre-gap length 0:00:02.54

Peak level 94.2 %
Track quality 100.0 %
Test CRC 3873CF31
Copy CRC 3873CF31
Copy OK

Track 6
Filename D:\TORRENTS\Johnny Hodges - The Jeep Is Jumpin' (2003) [FLAC] {Proper Box - 4 Cds}\CD 2 - Day Dream\06 - Savoy Strut.wav

Pre-gap length 0:00:02.54

Peak level 94.2 %
Track quality 100.0 %
Test CRC 4DE9A35D
Copy CRC 4DE9A35D
Copy OK

Track 7
Filename D:\TORRENTS\Johnny Hodges - The Jeep Is Jumpin' (2003) [FLAC] {Proper Box - 4 Cds}\CD 2 - Day Dream\07 - Rent Party Blues.wav

Pre-gap length 0:00:02.54

Peak level 94.2 %
Track quality 100.0 %
Test CRC F846FBC3
Copy CRC F846FBC3
Copy OK

Track 8
Filename D:\TORRENTS\Johnny Hodges - The Jeep Is Jumpin' (2003) [FLAC] {Proper Box - 4 Cds}\CD 2 - Day Dream\08 - Good Gal Blues.wav

Pre-gap length 0:00:02.54

Peak level 94.2 %
Track quality 100.0 %
Test CRC 6465DAB1
Copy CRC 6465DAB1
Copy OK

Track 9
Filename D:\TORRENTS\Johnny Hodges - The Jeep Is Jumpin' (2003) [FLAC] {Proper Box - 4 Cds}\CD 2 - Day Dream\09 - Finesse.wav

Pre-gap length 0:00:02.54

Peak level 94.3 %
Track quality 100.0 %
Test CRC 58BBCAC4
Copy CRC 58BBCAC4
Copy OK

Track 10
Filename D:\TORRENTS\Johnny Hodges - The Jeep Is Jumpin' (2003) [FLAC] {Proper Box - 4 Cds}\CD 2 - Day Dream\10 - Home Town Blues.wav

Pre-gap length 0:00:02.54

Peak level 94.2 %
Track quality 100.0 %
Test CRC 5857E793
Copy CRC 5857E793
Copy OK

Track 11
Filename D:\TORRENTS\Johnny Hodges - The Jeep Is Jumpin' (2003) [FLAC] {Proper Box - 4 Cds}\CD 2 - Day Dream\11 - Dream Blues.wav

Pre-gap length 0:00:02.54

Peak level 94.3 %
Track quality 100.0 %
Test CRC A4F21422
Copy CRC A4F21422
Copy OK

Track 12
Filename D:\TORRENTS\Johnny Hodges - The Jeep Is Jumpin' (2003) [FLAC] {Proper Box - 4 Cds}\CD 2 - Day Dream\12 - Skunk Hollow Blues.wav

Pre-gap length 0:00:02.54

Peak level 84.0 %
Track quality 100.0 %
Test CRC ADE13711
Copy CRC ADE13711
Copy OK

Track 13
Filename D:\TORRENTS\Johnny Hodges - The Jeep Is Jumpin' (2003) [FLAC] {Proper Box - 4 Cds}\CD 2 - Day Dream\13 - I Know What You Do.wav

Pre-gap length 0:00:02.54

Peak level 84.0 %
Track quality 100.0 %
Test CRC D0B51634
Copy CRC D0B51634
Copy OK

Track 14
Filename D:\TORRENTS\Johnny Hodges - The Jeep Is Jumpin' (2003) [FLAC] {Proper Box - 4 Cds}\CD 2 - Day Dream\14 - Your Love Has Faded.wav

Pre-gap length 0:00:02.54

Peak level 84.0 %
Track quality 99.9 %
Test CRC EF1A4ECC
Copy CRC EF1A4ECC
Copy OK

Track 15
Filename D:\TORRENTS\Johnny Hodges - The Jeep Is Jumpin' (2003) [FLAC] {Proper Box - 4 Cds}\CD 2 - Day Dream\15 - Tired Socks.wav

Pre-gap length 0:00:02.54

Peak level 94.3 %
Track quality 100.0 %
Test CRC 8209881E
Copy CRC 8209881E
Copy OK

Track 16
Filename D:\TORRENTS\Johnny Hodges - The Jeep Is Jumpin' (2003) [FLAC] {Proper Box - 4 Cds}\CD 2 - Day Dream\16 - Good Queen Bess.wav

Pre-gap length 0:00:02.54

Peak level 94.3 %
Track quality 100.0 %
Test CRC ED6802A2
Copy CRC ED6802A2
Copy OK

Track 17
Filename D:\TORRENTS\Johnny Hodges - The Jeep Is Jumpin' (2003) [FLAC] {Proper Box - 4 Cds}\CD 2 - Day Dream\17 - That's the Blues, Old Man.wav

Pre-gap length 0:00:02.54

Peak level 94.2 %
Track quality 100.0 %
Test CRC 6DDF5602
Copy CRC 6DDF5602
Copy OK

Track 18
Filename D:\TORRENTS\Johnny Hodges - The Jeep Is Jumpin' (2003) [FLAC] {Proper Box - 4 Cds}\CD 2 - Day Dream\18 - Junior Hop.wav

Pre-gap length 0:00:02.54

Peak level 94.3 %
Track quality 100.0 %
Test CRC 37E8BBA3
Copy CRC 37E8BBA3
Copy OK

Track 19
Filename D:\TORRENTS\Johnny Hodges - The Jeep Is Jumpin' (2003) [FLAC] {Proper Box - 4 Cds}\CD 2 - Day Dream\19 - Squatty Roo.wav

Pre-gap length 0:00:02.54

Peak level 84.0 %
Track quality 100.0 %
Test CRC E71F7270
Copy CRC E71F7270
Copy OK

Track 20
Filename D:\TORRENTS\Johnny Hodges - The Jeep Is Jumpin' (2003) [FLAC] {Proper Box - 4 Cds}\CD 2 - Day Dream\20 - Passion Flower.wav

Pre-gap length 0:00:02.54

Peak level 82.3 %
Track quality 100.0 %
Test CRC 2CE4D9CE
Copy CRC 2CE4D9CE
Copy OK

Track 21
Filename D:\TORRENTS\Johnny Hodges - The Jeep Is Jumpin' (2003) [FLAC] {Proper Box - 4 Cds}\CD 2 - Day Dream\21 - things Ain't What They Used to be.wav

Pre-gap length 0:00:02.54

Peak level 94.3 %
Track quality 100.0 %
Test CRC A06D1EDE
Copy CRC A06D1EDE
Copy OK

Track 22
Filename D:\TORRENTS\Johnny Hodges - The Jeep Is Jumpin' (2003) [FLAC] {Proper Box - 4 Cds}\CD 2 - Day Dream\22 - Goin' Out the Back Way.wav

Pre-gap length 0:00:02.54

Peak level 94.3 %
Track quality 100.0 %
Test CRC FA8AF71C
Copy CRC FA8AF71C
Copy OK

Track 23
Filename D:\TORRENTS\Johnny Hodges - The Jeep Is Jumpin' (2003) [FLAC] {Proper Box - 4 Cds}\CD 2 - Day Dream\23 - You're Driving Me Crazy.wav

Pre-gap length 0:00:02.54

Peak level 84.0 %
Track quality 100.0 %
Test CRC 36AB5635
Copy CRC 36AB5635
Copy OK

Track 24
Filename D:\TORRENTS\Johnny Hodges - The Jeep Is Jumpin' (2003) [FLAC] {Proper Box - 4 Cds}\CD 2 - Day Dream\24 - Who Struck John .wav

Pre-gap length 0:00:02.54

Peak level 94.2 %
Track quality 99.9 %
Test CRC 9FE8456F
Copy CRC 9FE8456F
Copy OK

No errors occured


End of status report
***************************************

EAC extraction logfile from 13. August 2007, 18:30 for CD
Johnny Hodges / The Jeepin is Jumpin'

Used drive : HL-DT-STDVD-ROM GDR8164B Adapter: 0 ID: 1
Read mode : Secure with NO C2, accurate stream, disable cache
Read offset correction : 102
Overread into Lead-In and Lead-Out : No

Used output format : C:\Programmi\Exact Audio Copy\flac.exe (User Defined Encoder)
128 kBit/s
Additional command line options : -V -8 -T "artist=%a" -T "title=%t" -T "album=%g" -T "date=%y" -T "tracknumber=%n" -T "genre=%m" %s

Other options :
Fill up missing offset samples with silence : Yes
Delete leading and trailing silent blocks : No
Installed external ASPI interface


Track 1
Filename D:\TORRENTS\Johnny Hodges - The Jeep Is Jumpin' (2003) [FLAC] {Proper Box - 4 Cds}\CD 3 - A Flower Is A Lovesome Thing\01 - It Shouldn't Happen to a Dream.wav

Pre-gap length 0:00:02.00

Peak level 94.3 %
Track quality 100.0 %
Test CRC 155B6EF5
Copy CRC 155B6EF5
Copy OK

Track 2
Filename D:\TORRENTS\Johnny Hodges - The Jeep Is Jumpin' (2003) [FLAC] {Proper Box - 4 Cds}\CD 3 - A Flower Is A Lovesome Thing\02 - June's Jumpin'.wav

Pre-gap length 0:00:02.54

Peak level 94.3 %
Track quality 100.0 %
Test CRC 8157AB58
Copy CRC 8157AB58
Copy OK

Track 3
Filename D:\TORRENTS\Johnny Hodges - The Jeep Is Jumpin' (2003) [FLAC] {Proper Box - 4 Cds}\CD 3 - A Flower Is A Lovesome Thing\03 - Violet Blue.wav

Pre-gap length 0:00:02.54

Peak level 94.3 %
Track quality 100.0 %
Test CRC 9F63FCDF
Copy CRC 9F63FCDF
Copy OK

Track 4
Filename D:\TORRENTS\Johnny Hodges - The Jeep Is Jumpin' (2003) [FLAC] {Proper Box - 4 Cds}\CD 3 - A Flower Is A Lovesome Thing\04 - A Flower is a Lovesome Thing.wav

Pre-gap length 0:00:02.54

Peak level 94.2 %
Track quality 99.9 %
Test CRC B9772F1F
Copy CRC B9772F1F
Copy OK

Track 5
Filename D:\TORRENTS\Johnny Hodges - The Jeep Is Jumpin' (2003) [FLAC] {Proper Box - 4 Cds}\CD 3 - A Flower Is A Lovesome Thing\05 - Frisky.wav

Pre-gap length 0:00:02.54

Peak level 94.3 %
Track quality 100.0 %
Test CRC CDDAAB63
Copy CRC CDDAAB63
Copy OK

Track 6
Filename D:\TORRENTS\Johnny Hodges - The Jeep Is Jumpin' (2003) [FLAC] {Proper Box - 4 Cds}\CD 3 - A Flower Is A Lovesome Thing\06 - Longhorn Blues.wav

Pre-gap length 0:00:02.54

Peak level 94.2 %
Track quality 100.0 %
Test CRC D204F609
Copy CRC D204F609
Copy OK

Track 7
Filename D:\TORRENTS\Johnny Hodges - The Jeep Is Jumpin' (2003) [FLAC] {Proper Box - 4 Cds}\CD 3 - A Flower Is A Lovesome Thing\07 - Far Away Blues.wav

Pre-gap length 0:00:02.54

Peak level 94.3 %
Track quality 99.9 %
Test CRC 105AE990
Copy CRC 105AE990
Copy OK

Track 8
Filename D:\TORRENTS\Johnny Hodges - The Jeep Is Jumpin' (2003) [FLAC] {Proper Box - 4 Cds}\CD 3 - A Flower Is A Lovesome Thing\08 - Searsy's Blues.wav

Pre-gap length 0:00:02.54

Peak level 84.0 %
Track quality 100.0 %
Test CRC 0E2E2178
Copy CRC 0E2E2178
Copy OK

Track 9
Filename D:\TORRENTS\Johnny Hodges - The Jeep Is Jumpin' (2003) [FLAC] {Proper Box - 4 Cds}\CD 3 - A Flower Is A Lovesome Thing\09 - A Little Taste.wav

Pre-gap length 0:00:02.54

Peak level 94.2 %
Track quality 100.0 %
Test CRC 565602F3
Copy CRC 565602F3
Copy OK

Track 10
Filename D:\TORRENTS\Johnny Hodges - The Jeep Is Jumpin' (2003) [FLAC] {Proper Box - 4 Cds}\CD 3 - A Flower Is A Lovesome Thing\10 - Let the Zoomers Drool.wav

Pre-gap length 0:00:02.54

Peak level 94.3 %
Track quality 100.0 %
Test CRC 345582BD
Copy CRC 345582BD
Copy OK

Track 11
Filename D:\TORRENTS\Johnny Hodges - The Jeep Is Jumpin' (2003) [FLAC] {Proper Box - 4 Cds}\CD 3 - A Flower Is A Lovesome Thing\11 - Charlotte Russe (Lotus Blossom).wav

Pre-gap length 0:00:02.54

Peak level 94.2 %
Track quality 100.0 %
Test CRC D31D0F03
Copy CRC D31D0F03
Copy OK

Track 12
Filename D:\TORRENTS\Johnny Hodges - The Jeep Is Jumpin' (2003) [FLAC] {Proper Box - 4 Cds}\CD 3 - A Flower Is A Lovesome Thing\12 - Jump That's All.wav

Pre-gap length 0:00:02.54

Peak level 84.0 %
Track quality 100.0 %
Test CRC 4B3B1FA4
Copy CRC 4B3B1FA4
Copy OK

Track 13
Filename D:\TORRENTS\Johnny Hodges - The Jeep Is Jumpin' (2003) [FLAC] {Proper Box - 4 Cds}\CD 3 - A Flower Is A Lovesome Thing\13 - Last Legs Blues, Pt 1.wav

Pre-gap length 0:00:02.54

Peak level 94.2 %
Track quality 100.0 %
Test CRC 3166A7B7
Copy CRC 3166A7B7
Copy OK

Track 14
Filename D:\TORRENTS\Johnny Hodges - The Jeep Is Jumpin' (2003) [FLAC] {Proper Box - 4 Cds}\CD 3 - A Flower Is A Lovesome Thing\14 - Last Legs Blues, pt 1.wav

Pre-gap length 0:00:02.54

Peak level 84.0 %
Track quality 100.0 %
Test CRC D3DF7397
Copy CRC D3DF7397
Copy OK

Track 15
Filename D:\TORRENTS\Johnny Hodges - The Jeep Is Jumpin' (2003) [FLAC] {Proper Box - 4 Cds}\CD 3 - A Flower Is A Lovesome Thing\15 - Nix It, Mix It.wav

Pre-gap length 0:00:02.54

Peak level 85.9 %
Track quality 100.0 %
Test CRC F0A46B44
Copy CRC F0A46B44
Copy OK

Track 16
Filename D:\TORRENTS\Johnny Hodges - The Jeep Is Jumpin' (2003) [FLAC] {Proper Box - 4 Cds}\CD 3 - A Flower Is A Lovesome Thing\16 - time On My Hands.wav

Pre-gap length 0:00:02.54

Peak level 94.2 %
Track quality 100.0 %
Test CRC 210B889D
Copy CRC 210B889D
Copy OK

Track 17
Filename D:\TORRENTS\Johnny Hodges - The Jeep Is Jumpin' (2003) [FLAC] {Proper Box - 4 Cds}\CD 3 - A Flower Is A Lovesome Thing\17 - Get That Geet.wav

Pre-gap length 0:00:02.54

Peak level 94.3 %
Track quality 100.0 %
Test CRC EEF18BDB
Copy CRC EEF18BDB
Copy OK

Track 18
Filename D:\TORRENTS\Johnny Hodges - The Jeep Is Jumpin' (2003) [FLAC] {Proper Box - 4 Cds}\CD 3 - A Flower Is A Lovesome Thing\18 - That's Grand.wav

Pre-gap length 0:00:02.54

Peak level 94.2 %
Track quality 100.0 %
Test CRC E52F9E24
Copy CRC E52F9E24
Copy OK

Track 19
Filename D:\TORRENTS\Johnny Hodges - The Jeep Is Jumpin' (2003) [FLAC] {Proper Box - 4 Cds}\CD 3 - A Flower Is A Lovesome Thing\19 - Skip It.wav

Pre-gap length 0:00:02.54

Peak level 94.3 %
Track quality 100.0 %
Test CRC 9AAD1ACF
Copy CRC 9AAD1ACF
Copy OK

Track 20
Filename D:\TORRENTS\Johnny Hodges - The Jeep Is Jumpin' (2003) [FLAC] {Proper Box - 4 Cds}\CD 3 - A Flower Is A Lovesome Thing\20 - Perdido.wav

Pre-gap length 0:00:02.54

Peak level 93.6 %
Track quality 100.0 %
Test CRC 556BF1BB
Copy CRC 556BF1BB
Copy OK

Track 21
Filename D:\TORRENTS\Johnny Hodges - The Jeep Is Jumpin' (2003) [FLAC] {Proper Box - 4 Cds}\CD 3 - A Flower Is A Lovesome Thing\21 - In the Shade of the Old Apple Tree.wav

Pre-gap length 0:00:02.54

Peak level 94.3 %
Track quality 100.0 %
Test CRC 5219C96D
Copy CRC 5219C96D
Copy OK

Track 22
Filename D:\TORRENTS\Johnny Hodges - The Jeep Is Jumpin' (2003) [FLAC] {Proper Box - 4 Cds}\CD 3 - A Flower Is A Lovesome Thing\22 - Mood Indigo.wav

Pre-gap length 0:00:02.54

Peak level 94.2 %
Track quality 100.0 %
Test CRC CCFFDFF5
Copy CRC CCFFDFF5
Copy OK

No errors occured


End of status report
***************************************

EAC extraction logfile from 13. August 2007, 19:10 for CD
Johnny Hodges / The Jeep is Jumpin'

Used drive : HL-DT-STDVD-ROM GDR8164B Adapter: 0 ID: 1
Read mode : Secure with NO C2, accurate stream, disable cache
Read offset correction : 102
Overread into Lead-In and Lead-Out : No

Used output format : C:\Programmi\Exact Audio Copy\flac.exe (User Defined Encoder)
128 kBit/s
Additional command line options : -V -8 -T "artist=%a" -T "title=%t" -T "album=%g" -T "date=%y" -T "tracknumber=%n" -T "genre=%m" %s

Other options :
Fill up missing offset samples with silence : Yes
Delete leading and trailing silent blocks : No
Installed external ASPI interface


Track 1
Filename D:\TORRENTS\Johnny Hodges - The Jeep Is Jumpin' (2003) [FLAC] {Proper Box - 4 Cds}\CD 4 - Castle Rock\01 - Sweet Lorraine.wav

Pre-gap length 0:00:02.00

Peak level 94.3 %
Track quality 100.0 %
Test CRC 0F58FA8E
Copy CRC 0F58FA8E
Copy OK

Track 2
Filename D:\TORRENTS\Johnny Hodges - The Jeep Is Jumpin' (2003) [FLAC] {Proper Box - 4 Cds}\CD 4 - Castle Rock\02 - Bean Bag Boogie.wav

Pre-gap length 0:00:02.54

Peak level 94.3 %
Track quality 100.0 %
Test CRC EABF0C21
Copy CRC EABF0C21
Copy OK

Track 3
Filename D:\TORRENTS\Johnny Hodges - The Jeep Is Jumpin' (2003) [FLAC] {Proper Box - 4 Cds}\CD 4 - Castle Rock\03 - Hop, Skip and Jump.wav

Pre-gap length 0:00:02.54

Peak level 74.8 %
Track quality 99.9 %
Test CRC D49E49C8
Copy CRC D49E49C8
Copy OK

Track 4
Filename D:\TORRENTS\Johnny Hodges - The Jeep Is Jumpin' (2003) [FLAC] {Proper Box - 4 Cds}\CD 4 - Castle Rock\04 - Rabbit's Blues (You Blew Out the Flame in My Heart).wav

Pre-gap length 0:00:02.54

Peak level 94.2 %
Track quality 100.0 %
Test CRC 5E668554
Copy CRC 5E668554
Copy OK

Track 5
Filename D:\TORRENTS\Johnny Hodges - The Jeep Is Jumpin' (2003) [FLAC] {Proper Box - 4 Cds}\CD 4 - Castle Rock\05 - Something to Pat Your Foot To.wav

Pre-gap length 0:00:02.54

Peak level 84.0 %
Track quality 100.0 %
Test CRC A4EB8498
Copy CRC A4EB8498
Copy OK

Track 6
Filename D:\TORRENTS\Johnny Hodges - The Jeep Is Jumpin' (2003) [FLAC] {Proper Box - 4 Cds}\CD 4 - Castle Rock\06 - Blue Fantasia.wav

Pre-gap length 0:00:02.54

Peak level 74.8 %
Track quality 100.0 %
Test CRC 22531601
Copy CRC 22531601
Copy OK

Track 7
Filename D:\TORRENTS\Johnny Hodges - The Jeep Is Jumpin' (2003) [FLAC] {Proper Box - 4 Cds}\CD 4 - Castle Rock\07 - My Reward.wav

Pre-gap length 0:00:02.54

Peak level 83.9 %
Track quality 100.0 %
Test CRC ED0B7AF5
Copy CRC ED0B7AF5
Copy OK

Track 8
Filename D:\TORRENTS\Johnny Hodges - The Jeep Is Jumpin' (2003) [FLAC] {Proper Box - 4 Cds}\CD 4 - Castle Rock\08 - Good Queen Bess.wav

Pre-gap length 0:00:02.54

Peak level 94.2 %
Track quality 100.0 %
Test CRC 24C4D83D
Copy CRC 24C4D83D
Copy OK

Track 9
Filename D:\TORRENTS\Johnny Hodges - The Jeep Is Jumpin' (2003) [FLAC] {Proper Box - 4 Cds}\CD 4 - Castle Rock\09 - Jeep's Blues.wav

Pre-gap length 0:00:02.54

Peak level 84.0 %
Track quality 100.0 %
Test CRC EFCF3ABE
Copy CRC EFCF3ABE
Copy OK

Track 10
Filename D:\TORRENTS\Johnny Hodges - The Jeep Is Jumpin' (2003) [FLAC] {Proper Box - 4 Cds}\CD 4 - Castle Rock\10 - Solitude.wav

Pre-gap length 0:00:02.54

Peak level 94.3 %
Track quality 100.0 %
Test CRC C759D952
Copy CRC C759D952
Copy OK

Track 11
Filename D:\TORRENTS\Johnny Hodges - The Jeep Is Jumpin' (2003) [FLAC] {Proper Box - 4 Cds}\CD 4 - Castle Rock\11 - The Jeep is Jumpin'.wav

Pre-gap length 0:00:02.54

Peak level 94.3 %
Track quality 100.0 %
Test CRC 15D1410A
Copy CRC 15D1410A
Copy OK

Track 12
Filename D:\TORRENTS\Johnny Hodges - The Jeep Is Jumpin' (2003) [FLAC] {Proper Box - 4 Cds}\CD 4 - Castle Rock\12 - Castle Rock.wav

Pre-gap length 0:00:02.54

Peak level 94.3 %
Track quality 100.0 %
Test CRC 7FC33256
Copy CRC 7FC33256
Copy OK

Track 13
Filename D:\TORRENTS\Johnny Hodges - The Jeep Is Jumpin' (2003) [FLAC] {Proper Box - 4 Cds}\CD 4 - Castle Rock\13 - Sophisticated Lady.wav

Pre-gap length 0:00:02.54

Peak level 83.9 %
Track quality 100.0 %
Test CRC 4620734E
Copy CRC 4620734E
Copy OK

Track 14
Filename D:\TORRENTS\Johnny Hodges - The Jeep Is Jumpin' (2003) [FLAC] {Proper Box - 4 Cds}\CD 4 - Castle Rock\14 - Globe Trotter.wav

Pre-gap length 0:00:02.54

Peak level 94.2 %
Track quality 100.0 %
Test CRC 4775F236
Copy CRC 4775F236
Copy OK

Track 15
Filename D:\TORRENTS\Johnny Hodges - The Jeep Is Jumpin' (2003) [FLAC] {Proper Box - 4 Cds}\CD 4 - Castle Rock\15 - A Gentle Breeze.wav

Pre-gap length 0:00:02.54

Peak level 94.2 %
Track quality 100.0 %
Test CRC 29DB9CD2
Copy CRC 29DB9CD2
Copy OK

Track 16
Filename D:\TORRENTS\Johnny Hodges - The Jeep Is Jumpin' (2003) [FLAC] {Proper Box - 4 Cds}\CD 4 - Castle Rock\16 - Sideways.wav

Pre-gap length 0:00:02.54

Peak level 94.2 %
Track quality 100.0 %
Test CRC 473962C8
Copy CRC 473962C8
Copy OK

Track 17
Filename D:\TORRENTS\Johnny Hodges - The Jeep Is Jumpin' (2003) [FLAC] {Proper Box - 4 Cds}\CD 4 - Castle Rock\17 - A Pound of Blues.wav

Pre-gap length 0:00:02.54

Peak level 94.3 %
Track quality 100.0 %
Test CRC 06196DCB
Copy CRC 06196DCB
Copy OK

Track 18
Filename D:\TORRENTS\Johnny Hodges - The Jeep Is Jumpin' (2003) [FLAC] {Proper Box - 4 Cds}\CD 4 - Castle Rock\18 - Wham.wav

Pre-gap length 0:00:02.54

Peak level 94.4 %
Track quality 100.0 %
Test CRC 7496BAA9
Copy CRC 7496BAA9
Copy OK

Track 19
Filename D:\TORRENTS\Johnny Hodges - The Jeep Is Jumpin' (2003) [FLAC] {Proper Box - 4 Cds}\CD 4 - Castle Rock\19 - Who's Excited .wav

Pre-gap length 0:00:02.54

Peak level 94.2 %
Track quality 100.0 %
Test CRC 47BC2E9E
Copy CRC 47BC2E9E
Copy OK

Track 20
Filename D:\TORRENTS\Johnny Hodges - The Jeep Is Jumpin' (2003) [FLAC] {Proper Box - 4 Cds}\CD 4 - Castle Rock\20 - Sweeping the Blues Away.wav

Pre-gap length 0:00:02.54

Peak level 84.0 %
Track quality 100.0 %
Test CRC DA856E32
Copy CRC DA856E32
Copy OK

Track 21
Filename D:\TORRENTS\Johnny Hodges - The Jeep Is Jumpin' (2003) [FLAC] {Proper Box - 4 Cds}\CD 4 - Castle Rock\21 - Day Dream.wav

Pre-gap length 0:00:02.54

Peak level 84.0 %
Track quality 100.0 %
Test CRC 5B437657
Copy CRC 5B437657
Copy OK

Track 22
Filename D:\TORRENTS\Johnny Hodges - The Jeep Is Jumpin' (2003) [FLAC] {Proper Box - 4 Cds}\CD 4 - Castle Rock\22 - Standing Room Only.wav

Pre-gap length 0:00:02.54

Peak level 94.3 %
Track quality 100.0 %
Test CRC D7A6BF93
Copy CRC D7A6BF93
Copy OK

Track 23
Filename D:\TORRENTS\Johnny Hodges - The Jeep Is Jumpin' (2003) [FLAC] {Proper Box - 4 Cds}\CD 4 - Castle Rock\23 - Below the Azores.wav

Pre-gap length 0:00:02.54

Peak level 94.2 %
Track quality 100.0 %
Test CRC D4DAA722
Copy CRC D4DAA722
Copy OK

No errors occured


End of status report