Subcategories

Joan Jett - The Hit List (1990) [1st Japanese pressing] RESTORED

Posted By: Rehabilly
Joan Jett - The Hit List (1990) [1st Japanese pressing] RESTORED

Joan Jett - The Hit List (1990) [1st Japanese pressing]
EAC | FLAC+CUE+LOG or MP3 CBR 320 | 44:51 min | 320 or 101 MB
The First Japanese pressing with 2 bonus tracks

The Hit List is a cover album by Joan Jett. The album was released in 1990. All of the tracks are covers of famous songs.

The album was performed by Joan Jett & The Blackhearts and friends: Joan Jett, Ricky Byrd, Kasim Sulton, Thommy Price, Sandy Gennaro, Ray Davies (The Kinks), Ronnie Lawson, Bashiri Johnson, Chuck Kentis, Darlene Love, Peppy Castro, Patricia Curry, The Uptown Horns: Arno Hecht, Crispin Cioe, Robert Funk & Paul Litteral and Lagunatic, and more.

From Sly Stone's "Everyday People" to Tommy James & the Shondells' "Crimson & Clover", cover songs have long been one of Joan Jett's strong points. Covers can be a waste of time in the hands of some rockers; but they've always worked well for Jett, who's been wise enough to make sure that her own personality never became obscured when recording other artists' material. The one-time member of the criminally neglected Runaways embraces covers exclusively on The Hit List, tackling everything from the Sex Pistols' "Pretty Vacant" to AC/DC's "Dirty Deed" to the Doors' "Love Me Two Times" with spirited, inspired results. While those investigating Jett's career would do better to start out with I Love Rock N' Roll or Glorious Results of a Misspent Youth, The Hit List was a welcome addition to her catalog.

~ Alex Henderson, all media guide
Tracklist:

01. Dirty Deeds [AC/DC cover]
02. Love Hurts [The Everly Brothers cover]
03. Pretty Vacant [The Sex Pistols cover]
04. Celluloid Heroes [The Kinks cover]
05. Tush [ZZ Top cover]
06. Time Has Come Today [The Chambers Brothers cover]
07. Up From The Skies [The Jimi Hendrix Experience cover]
08. Have You Ever Seen The Rain? [Creedence Clearwater Revival cover]
09. Love Me Two Times [The Doors cover]
10. Roadrunner USA (1990 Version) [The Modern Lovers cover]
11. Let It Bleed [The Rolling Stones cover] - Bonus track for Japan
12. Dirty Deeds Done Dirt Cheap (Extended Version) - Bonus track for Japan

Exact Audio Copy V1.0 beta 1 from 15. November 2010

EAC extraction logfile from 17. February 2012, 1:22

Joan Jett / The Hit List (VICP-5144)

Used drive : PIONEER DVD-RW DVR-219L Adapter: 6 ID: 0

Read mode : Secure
Utilize accurate stream : Yes
Defeat audio cache : Yes
Make use of C2 pointers : No

Read offset correction : 6
Overread into Lead-In and Lead-Out : No
Fill up missing offset samples with silence : Yes
Delete leading and trailing silent blocks : No
Null samples used in CRC calculations : Yes
Used interface : Installed external ASPI interface

Used output format : Internal WAV Routines
Sample format : 44.100 Hz; 16 Bit; Stereo


TOC of the extracted CD

Track | Start | Length | Start sector | End sector
––––––––––––––––––––––––––––-
1 | 0:00.37 | 3:19.13 | 37 | 14974
2 | 3:19.50 | 3:47.27 | 14975 | 32026
3 | 7:07.02 | 3:24.53 | 32027 | 47379
4 | 10:31.55 | 5:28.42 | 47380 | 72021
5 | 16:00.22 | 2:23.25 | 72022 | 82771
6 | 18:23.47 | 4:13.73 | 82772 | 101819
7 | 22:37.45 | 3:01.30 | 101820 | 115424
8 | 25:39.00 | 3:34.17 | 115425 | 131491
9 | 29:13.17 | 3:06.45 | 131492 | 145486
10 | 32:19.62 | 3:37.28 | 145487 | 161789
11 | 35:57.15 | 4:20.70 | 161790 | 181359
12 | 40:18.10 | 4:33.40 | 181360 | 201874


Range status and errors

Selected range

Filename C:\_www.AvaxHome.ru\JOAN JETT\1990- Hit List [1st Japanese pressing]\Joan Jett - The Hit List (VICP-5144).wav

Peak level 97.7 %
Extraction speed 0.6 X
Range quality 100.0 %
Test CRC 122D6219
Copy CRC 122D6219
Copy OK

No errors occurred


AccurateRip summary

Track 1 not present in database
Track 2 not present in database
Track 3 not present in database
Track 4 not present in database
Track 5 not present in database
Track 6 not present in database
Track 7 not present in database
Track 8 not present in database
Track 9 not present in database
Track 10 not present in database
Track 11 not present in database
Track 12 not present in database

None of the tracks are present in the AccurateRip database

End of status report

==== Log checksum BF45F8D8270FCE7E7A4913EC756FF9186259DB5F474C67F8658FBB38073E7BA0 ====


Produced by Kenny Laguna. Co-Produced by Joan Jett & Thom Panunzio
Recorded & Mixed at the Hit Factory, NYC. Mixed by Thom Panunzio
Mastered by Bob Ludwig at Masterdisc, New York City.
Dynamic Range value = 12.

Original Release Date: January 16, 1990
This CD Released: January 21, 1992
Label: Victor Musical Industries, Japan
Catalog No.: VICP-5144

The Right choice*
https://www.bigfile.to/file/VGHPUmJf2WhB/JJ190THT960F.rar

all covers.png (74 MB)
https://www.bigfile.to/file/VMWyNkxwVuaS/JJ190THT600C.rar

lossy.mp3
https://www.bigfile.to/file/HPCwPmWPh5MU/JJ190THT20G.rar


* EAC Image, embedded cuesheet & more, foobar2000 ready, etc.
(all CUEs, LOGs and other technical info includes in the internal "CD_Support" archive)

_____________________________