Subcategories
Tags
Language
Tags

Jocy de Oliveira - Illud Tempus (2000) {OODiscs oo65 rec 1995}

Posted By: ruskaval
Jocy de Oliveira - Illud Tempus (2000) {OODiscs oo65 rec 1995}

Jocy de Oliveira - Illud Tempus (2000) {OODiscs oo65 rec 1995}
EAC rip (secure mode) | FLAC (tracks)+CUE+LOG -> 182 Mb | MP3 @320 -> 96 Mb
Full Artwork @ 300 dpi (jpg) -> 20 Mb | 5% repair rar
© 1995, 2000 OODiscs / Jocy de Oliveira | oo65
Classical / Modern Classical / Experimental / Avant-Garde

Recorded live during performances at the Haus der Kulturen der Welt, Berlin, in March 1995. "The electroacoustic part, like a collage, builds a dreamy sound landscape…through processed sampled sounds of citations from Yanomami chants to improvisations by myself and Joseph Celli…" (liner notes). Packaged in a standard jewel case with 5-panel insert of liner notes.
A renowned pianist in avant-garde classical music in the '70s and '80s, Jocy de Oliveira Carvalho was the child of a mixed French and Portuguese family living in South America. She began studying piano in São Paulo with Joachim Klias, and then had an opportunity to continue her work in Paris with Marguerite Long, the brilliant avant-garde scene of the city exerting a profound effect on her. She finished her studies in the United States at Washington University in St. Louis, MO, in the late '60s. Shortly thereafter, she began a long appointment at the University of South Florida in Tampa, where she became an associate professor of music. In 1972, she recorded the entire Catalogue d'Oiseaux by Olivier Messiaen for a Vox Box, and her impressive performance of this technically difficult set of pieces based on actual birdcalls established Carvalho as a prominent performer of technically daunting works by avant-garde composers. Consequently, composers such as Berio, Xenakis, Hiller, and Santoro created works for her, some involving the acoustic keyboard in combination with live electronics.

She became an active composer herself in the '70s, and has created music with both electronics and traditional instruments for live performance as well as for film and television. Throughout the late '80s, she performed regularly worldwide as a soloist with major orchestras.
Jocy de Oliveira - Illud Tempus (2000) {OODiscs oo65 rec 1995}


Personnel
Clarinet – Paulo Passos
Percussion – Paraguassú Abrahão
Soprano Vocals – Gabriela Di Geanx
Synthesizer, Electroacoustic Means – Jocy de Oliveira
Voice Actor – Marilena Bibas

Tracklist
01 - Mythical Chants
02 - Women Dreams
03 - Fairy Tales- Ida
04 - Fairy Tales- La Loba
05 - Fairy Tales- Ida
06 - Fairy Tales- Milk of Love
07 - Fairy Tales- The Woman with the Golden Hair

Exact Audio Copy V1.3 from 2. September 2016

EAC extraction logfile from 13. March 2020, 16:36

Jocy de Oliveira / Illud Tempus

Used drive : HL-DT-STDVDRAM GUE1N Adapter: 1 ID: 0

Read mode : Secure
Utilize accurate stream : Yes
Defeat audio cache : Yes
Make use of C2 pointers : No

Read offset correction : 6
Overread into Lead-In and Lead-Out : No
Fill up missing offset samples with silence : Yes
Delete leading and trailing silent blocks : No
Null samples used in CRC calculations : Yes
Used interface : Native Win32 interface for Win NT & 2000
Gap handling : Appended to previous track

Used output format : User Defined Encoder
Selected bitrate : 1024 kBit/s
Quality : High
Add ID3 tag : No
Command line compressor : C:\Program Files (x86)\Exact Audio Copy\Flac\flac.exe
Additional command line options : -8 -V -T "ARTIST=%artist%" -T "TITLE=%title%" -T "ALBUM=%albumtitle%" -T "DATE=%year%" -T "TRACKNUMBER=%tracknr%" -T "GENRE=%genre%" -T "PERFORMER=%albuminterpret%" -T "COMPOSER=%composer%" %haslyrics%–tag-from-file=LYRICS="%lyricsfile%"%haslyrics% -T "ALBUMARTIST=%albumartist%" -T "DISCNUMBER=%cdnumber%" -T "TOTALDISCS=%totalcds%" -T "TOTALTRACKS=%numtracks%" -T "COMMENT=%comment%" %source% -o %dest%


TOC of the extracted CD

Track | Start | Length | Start sector | End sector
––––––––––––––––––––––––––––-
1 | 0:00.00 | 11:57.69 | 0 | 53843
2 | 11:57.69 | 5:34.24 | 53844 | 78917
3 | 17:32.18 | 0:45.34 | 78918 | 82326
4 | 18:17.52 | 9:12.55 | 82327 | 123781
5 | 27:30.32 | 0:37.20 | 123782 | 126576
6 | 28:07.52 | 3:04.21 | 126577 | 140397
7 | 31:11.73 | 8:50.25 | 140398 | 180172


Track 1

Filename D:\EAC Rips\Jocy de Oliveira - Illud Tempus (2000) [CD FLAC] {OO65}\01 - Mythical Chants.wav

Pre-gap length 0:00:02.00

Peak level 100.0 %
Extraction speed 3.2 X
Track quality 100.0 %
Test CRC E664E62B
Copy CRC E664E62B
Track not present in AccurateRip database
Copy OK

Track 2

Filename D:\EAC Rips\Jocy de Oliveira - Illud Tempus (2000) [CD FLAC] {OO65}\02 - Women Dreams.wav

Peak level 50.1 %
Extraction speed 3.4 X
Track quality 99.9 %
Test CRC 2A797E5D
Copy CRC 2A797E5D
Track not present in AccurateRip database
Copy OK

Track 3

Filename D:\EAC Rips\Jocy de Oliveira - Illud Tempus (2000) [CD FLAC] {OO65}\03 - Fairy Tales- Ida.wav

Peak level 21.8 %
Extraction speed 1.6 X
Track quality 99.7 %
Test CRC 6C2992C5
Copy CRC 6C2992C5
Track not present in AccurateRip database
Copy OK

Track 4

Filename D:\EAC Rips\Jocy de Oliveira - Illud Tempus (2000) [CD FLAC] {OO65}\04 - Fairy Tales- La Loba.wav

Peak level 70.2 %
Extraction speed 3.9 X
Track quality 99.9 %
Test CRC E9F33CEB
Copy CRC E9F33CEB
Track not present in AccurateRip database
Copy OK

Track 5

Filename D:\EAC Rips\Jocy de Oliveira - Illud Tempus (2000) [CD FLAC] {OO65}\05 - Fairy Tales- Ida.wav

Peak level 15.8 %
Extraction speed 2.4 X
Track quality 100.0 %
Test CRC 1B618916
Copy CRC 1B618916
Track not present in AccurateRip database
Copy OK

Track 6

Filename D:\EAC Rips\Jocy de Oliveira - Illud Tempus (2000) [CD FLAC] {OO65}\06 - Fairy Tales- Milk of Love.wav

Peak level 52.5 %
Extraction speed 3.6 X
Track quality 99.9 %
Test CRC 88687959
Copy CRC 88687959
Track not present in AccurateRip database
Copy OK

Track 7

Filename D:\EAC Rips\Jocy de Oliveira - Illud Tempus (2000) [CD FLAC] {OO65}\07 - Fairy Tales- The Woman with the Golden Hair.wav

Peak level 58.0 %
Extraction speed 5.0 X
Track quality 100.0 %
Test CRC 9E8EF042
Copy CRC 9E8EF042
Track not present in AccurateRip database
Copy OK


None of the tracks are present in the AccurateRip database

No errors occurred

End of status report

–– CUETools DB Plugin V2.1.6

[CTDB TOCID: Xgk4apWpxqLC0hJp1ofe52AiszE-] disk not present in database
Submit result: Xgk4apWpxqLC0hJp1ofe52AiszE- has been uploaded


==== Log checksum AACBA399068C55F016E41750467897BFD9F9C8A4B86A6B4BB7D152BC1B83261C ====


Jocy de Oliveira - Illud Tempus (2000) {OODiscs oo65 rec 1995}

Jocy de Oliveira - Illud Tempus (2000) {OODiscs oo65 rec 1995}


see more OODiscs…

more OODiscs on the way…


===