Joe Ely - Twistin' In the Wind (1998)

Posted By: plonker
Joe Ely - Twistin' In the Wind (1998)

Joe Ely - Twistin' In the Wind (1998)
Country-Rock, Singer/songwriter | EAC rip | WV: IMG+CUE+LOG -> 415 MB | mp3@VBR V0 -> 132 MB
58:08 min | scans -> 65 MB | 3% recovery | UL & FF | MCA Nashville UMD 80488

AMG review by Jana Pendragon:
Joe Ely, like fellow Texans Billy Joe Shaver, Guy Clark, and Townes Van Zandt, is pure originality. An artist whom other artist seek to emulate, he never disappoints. With this release, Ely continues his wild ride into the heart and soul of a man and the landscape he inhabits. Effective as a songwriter and performer, Joe Ely became more potent with each passing year. His diversity buoys him up as he works his way through both the dark and the light. The title cut, "Up on the Ridge," and "You're Workin' for the Man" display his ability to cast a deep shadow upon life's more rugged passages. "Sister Soak the Beans" and "If I Could Teach My Chihuahua to Sing" are light and humorous, reflective of Ely's geography, Texas, and create a balance that too few artists ever find. With "Gulf Coast Blues" and a wonderful honky tonk concerto, "I Will Lose My Life," Ely proves to be a master painter who creates his songs from a vast palette of colors, textures, and experiences. (4/5)
Tracklist:
01 Up On The Ridge (05:00)
02 Roll Again (05:01)
03 It's A Little Like Love (05:32)
04 Twistin' In The Wind (05:17)
05 Queen of Heaven (04:37)
06 Sister Soak The Beans (04:44)
07 I Will Lose My Life (05:36)
08 You're Workin' For The Man (03:55)
09 Nacho Mama (03:33)
10 Behind The Bamboo Shade (06:59)
11 Gulf Coast Blues (04:46)
12 If I Could Teach My Chihuahua To Sing (03:09)

Exact Audio Copy V1.0 beta 3 from 29. August 2011

EAC extraction logfile from 20. February 2014, 0:38

Joe Ely / Twistin' In the Wind

Used drive : PLEXTOR CD-R PX-W8432T Adapter: 1 ID: 0

Read mode : Secure
Utilize accurate stream : Yes
Defeat audio cache : Yes
Make use of C2 pointers : No

Read offset correction : 355
Overread into Lead-In and Lead-Out : Yes
Fill up missing offset samples with silence : Yes
Delete leading and trailing silent blocks : No
Null samples used in CRC calculations : Yes
Used interface : Installed external ASPI interface

Used output format : Internal WAV Routines
Sample format : 44.100 Hz; 16 Bit; Stereo


TOC of the extracted CD

Track | Start | Length | Start sector | End sector
––––––––––––––––––––––––––––-
1 | 0:00.32 | 4:59.55 | 32 | 22511
2 | 5:00.12 | 5:01.13 | 22512 | 45099
3 | 10:01.25 | 5:32.20 | 45100 | 70019
4 | 15:33.45 | 5:16.45 | 70020 | 93764
5 | 20:50.15 | 4:36.72 | 93765 | 114536
6 | 25:27.12 | 4:44.23 | 114537 | 135859
7 | 30:11.35 | 5:35.35 | 135860 | 161019
8 | 35:46.70 | 3:54.37 | 161020 | 178606
9 | 39:41.32 | 3:32.65 | 178607 | 194571
10 | 43:14.22 | 6:58.63 | 194572 | 225984
11 | 50:13.10 | 4:46.02 | 225985 | 247436
12 | 54:59.12 | 3:09.20 | 247437 | 261631


Range status and errors

Selected range

Filename J:\mR\Joe Ely - Twistin' In the Wind.wav

Peak level 94.0 %
Extraction speed 5.1 X
Range quality 100.0 %
Test CRC 5AA57846
Copy CRC 5AA57846
Copy OK

No errors occurred


AccurateRip summary

Track 1 accurately ripped (confidence 3) [10C36B16] (AR v2)
Track 2 accurately ripped (confidence 3) [EBBEC938] (AR v2)
Track 3 accurately ripped (confidence 3) [831FE237] (AR v2)
Track 4 accurately ripped (confidence 3) [A99B340B] (AR v2)
Track 5 accurately ripped (confidence 3) [40496358] (AR v2)
Track 6 accurately ripped (confidence 3) [C723BB0A] (AR v2)
Track 7 accurately ripped (confidence 3) [3A43FE3D] (AR v2)
Track 8 accurately ripped (confidence 3) [23000B11] (AR v2)
Track 9 accurately ripped (confidence 3) [3D90B9A1] (AR v2)
Track 10 accurately ripped (confidence 3) [0B069257] (AR v2)
Track 11 accurately ripped (confidence 3) [8E73E5FE] (AR v2)
Track 12 accurately ripped (confidence 3) [BACBF6A6] (AR v2)

All tracks accurately ripped

End of status report

–– CUETools DB Plugin V2.1.4

[CTDB TOCID: aPgh7lmRAMcmmWseG6RBHTnSz80-] found
Submit result: aPgh7lmRAMcmmWseG6RBHTnSz80- has been confirmed
Track | CTDB Status
1 | (1/1) Accurately ripped
2 | (1/1) Accurately ripped
3 | (1/1) Accurately ripped
4 | (1/1) Accurately ripped
5 | (1/1) Accurately ripped
6 | (1/1) Accurately ripped
7 | (1/1) Accurately ripped
8 | (1/1) Accurately ripped
9 | (1/1) Accurately ripped
10 | (1/1) Accurately ripped
11 | (1/1) Accurately ripped
12 | (1/1) Accurately ripped


resized artwork (jpg, 10 MB) is included in both, lossless ("wv") and lossy ("mp") archives.
full size artwork (png, 65 MB) in separate archive ("art")


************ download ************
Uploaded

Filefactory



password (if needed): avax