Subcategories

Joe Zawinul - Zawinul (1970) {2012 Japan Jazz Best Collection 1000 Series 24bit Remaster WPCR-27100}

Posted By: ruskaval
Joe Zawinul - Zawinul (1970) {2012 Japan Jazz Best Collection 1000 Series 24bit Remaster WPCR-27100}

Joe Zawinul - Zawinul (1970) {2012 Japan Jazz Best Collection 1000 Series 24bit Remaster WPCR-27100}
EAC rip (secure mode) | FLAC (tracks)+CUE+LOG -> 207 Mb | MP3 @320 -> 83 Mb
Full Artwork @ 600 dpi (png) -> 99 Mb | 5% repair rar | 24bit remaster
© 1970, 2012 Atlantic / Rhino / Warner Japan / WEA | WPCR-27100 | Jazz Best Collection 1000 Series
Jazz / Fusion / Hard Bop / Soul Jazz / Electric Piano

Features 24 bit remastering and comes with a mini-description. A beautiful fusion of Joe Zawinul's roots in the groups of Miles Davis and Cannonball Adderley – a set with some of the far-reaching jazz ideas of the former, and much of the soulful subtleties of the latter! The album features Joe on electric piano throughout, playing alongside Herbie Hancock in a twin-piano style that's quite spacious, and filled with slow-building, long-flowing lines! Other players include Woody Shaw on trumpet, Earl Turbington on soprano sax, George Davis on flute, Miroslav Vitous and Walter Booker on drums, and Joe Chambers, Billy Hart, and David Lee on a range of percussion.

All these elements are used slowly, and sparingly – brought in with a style that's modern, but in a gentle sort of way – not as over the top as some of the work that Joe cut with Miles at the end of the 60s – and almost a more sensitive, compositional approach to the same territory of music. Titles include "Arrival In New York", "Doctor Honoris Causa", "In A Silent Way", "His Last Journey", and "Double Image".
Conceptually, sonically, this is really the first Weather Report album in all but name, confirming that Joe Zawinul was the primary creative engine behind the group from the beginning. It is also the link between WR and Miles Davis' keyboard-laden experiments on In a Silent Way; indeed, the tune "In a Silent Way" is redone in the more complex form in which Zawinul envisioned it, and Miles even contributes a brief, generous tribute to Zawinul on the liner. Two keyboardists – Zawinul and the formidable Herbie Hancock – form the underpinning of this stately, probing album, garnishing their work with the galactic sound effects of the Echoplex and ring modulator. Earl Turbinton provides the Wayne Shorter-like beams of light on the soprano sax, spelled by Wayne himself on "Double Image." The third founder of WR, Miroslav Vitous, checks in on bass, and hard-bopping trumpeter Woody Shaw proves to be perfectly adept at the jazz-rock game. Two short-lived standards of the jazz-rock era, the aforementioned "Double Image" and "Doctor Honoris Causa," are introduced here, yet it is mood pieces like "His Last Journey" and "Arrival in New York" that with the help of tape-speed manipulation, establish the lasting, murky, reflective ambience of this CD.
Joe Zawinul - Zawinul (1970) {2012 Japan Jazz Best Collection 1000 Series 24bit Remaster WPCR-27100}


Personnel:
Joe Zawinul – electric piano
Herbie Hancock – electric piano
George Davis, Hubert Laws – flute
Woody Shaw, Jimmy Owens – trumpet
Earl Turbinton, Wayne Shorter – soprano saxophone
Miroslav Vitous, Walter Booker – bass
Billy Hart, David Lee, Joe Chambers – percussion
Jack DeJohnette – melodica, percussion

tracklist:
01 - Doctor Honoris Causa
02 - In A Silent Way
03 - His Last Journey
04 - Double Image
05 - Arrival In New York

Exact Audio Copy V1.1 from 23. June 2015

EAC extraction logfile from 10. April 2016, 20:38

Joe Zawinul / Zawinul

Used drive : TSSTcorpCDDVDW SE-208DB Adapter: 1 ID: 0

Read mode : Secure
Utilize accurate stream : Yes
Defeat audio cache : Yes
Make use of C2 pointers : No

Read offset correction : 6
Overread into Lead-In and Lead-Out : No
Fill up missing offset samples with silence : Yes
Delete leading and trailing silent blocks : No
Null samples used in CRC calculations : Yes
Used interface : Native Win32 interface for Win NT & 2000
Gap handling : Appended to previous track

Used output format : User Defined Encoder
Selected bitrate : 1024 kBit/s
Quality : High
Add ID3 tag : No
Command line compressor : C:\Program Files (x86)\FLAC Frontend\tools\flac.exe
Additional command line options : -8 -V -T "ARTIST=%artist%" -T "TITLE=%title%" -T "ALBUM=%albumtitle%" -T "DATE=%year%" -T "TRACKNUMBER=%tracknr%" -T "TOTALTRACKS=%numtracks%" -T "GENRE=%genre%" -T "ALBUMARTIST=%albumartist%" -T "ALBUM ARTIST=%albumartist%" -T "COMMENT=EAC Secure Mode, Test & Copy, AccurateRip, FLAC -8" %source%


TOC of the extracted CD

Track | Start | Length | Start sector | End sector
––––––––––––––––––––––––––––-
1 | 0:00.00 | 13:47.42 | 0 | 62066
2 | 13:47.42 | 4:46.57 | 62067 | 83573
3 | 18:34.24 | 4:34.70 | 83574 | 104193
4 | 23:09.19 | 10:32.41 | 104194 | 151634
5 | 33:41.60 | 2:00.26 | 151635 | 160660


Track 1

Filename D:\_EAC\Joe Zawinul - Zawinul (1970) [FLAC] {WPCR-27100}\01 - Doctor Honoris Causa.wav

Pre-gap length 0:00:02.00

Peak level 100.0 %
Extraction speed 3.2 X
Track quality 100.0 %
Test CRC CA744D44
Copy CRC CA744D44
Accurately ripped (confidence 10) [0C118FC2] (AR v2)
Copy OK

Track 2

Filename D:\_EAC\Joe Zawinul - Zawinul (1970) [FLAC] {WPCR-27100}\02 - In A Silent Way.wav

Pre-gap length 0:00:00.05

Peak level 100.0 %
Extraction speed 3.6 X
Track quality 100.0 %
Test CRC BEF50C33
Copy CRC BEF50C33
Accurately ripped (confidence 10) [F19D272A] (AR v2)
Copy OK

Track 3

Filename D:\_EAC\Joe Zawinul - Zawinul (1970) [FLAC] {WPCR-27100}\03 - His Last Journey.wav

Peak level 64.1 %
Extraction speed 3.8 X
Track quality 100.0 %
Test CRC 386F9F5D
Copy CRC 386F9F5D
Accurately ripped (confidence 10) [71F85632] (AR v2)
Copy OK

Track 4

Filename D:\_EAC\Joe Zawinul - Zawinul (1970) [FLAC] {WPCR-27100}\04 - Double Image.wav

Peak level 100.0 %
Extraction speed 4.5 X
Track quality 100.0 %
Test CRC 9E09C514
Copy CRC 9E09C514
Accurately ripped (confidence 10) [DC528093] (AR v2)
Copy OK

Track 5

Filename D:\_EAC\Joe Zawinul - Zawinul (1970) [FLAC] {WPCR-27100}\05 - Arrival In New York.wav

Peak level 100.0 %
Extraction speed 3.7 X
Track quality 100.0 %
Test CRC A020F054
Copy CRC A020F054
Accurately ripped (confidence 10) [8CE2FBB2] (AR v2)
Copy OK


All tracks accurately ripped

No errors occurred

End of status report

==== Log checksum 7672C9A27A4AC5CBAFE6CA74686C6EE65D0936B6BE138AF716AB04552B4C3947 ====


Joe Zawinul - Zawinul (1970) {2012 Japan Jazz Best Collection 1000 Series 24bit Remaster WPCR-27100}

Joe Zawinul - Zawinul (1970) {2012 Japan Jazz Best Collection 1000 Series 24bit Remaster WPCR-27100}


more Joe Zawinul…

see more Japan Jazz Best Collection 1000 Series…

NEXT -> more Japan Jazz Best Collection 1000 Series on the way…


===