Tags
Language
Tags

Johannes Schenck - Les Fantaisies bisarres de la Goutte: Works for Viola Da Gamba (2000) (Repost)

Posted By:
Johannes Schenck - Les Fantaisies bisarres de la Goutte: Works for Viola Da Gamba (2000) (Repost)

Johannes Schenck - Les Fantaisies bisarres de la Goutte: Works for Viola Da Gamba (2000)
EAC Rip | FLAC (image+.cue, log) ~ 361.08 Mb | 67:18 | Scans included
Classical | Label: CPO (cpo999682-2)

Is it too early to start my "Recordings of the Year" list? The music and performances on this release are nothing short of a revelation. CPO is always willing to take a chance on a rare composer, and this gamble hits the jackpot. […] This is among the most brilliant, sophisticated music to come out of the Baroque, and Schenck's mastery of the possibilities of the viola da gamba surely rivals Saint-Colombe and Marais. His style shows all the usual French, German, and Italian influences, with a slight emphasis on the French but with a decidedly Germanic attitude toward the dance forms.

Lorenz Duftschmid is a marvelous musician, and he plays this music at the highest imaginable level. Most extraordinary is the Solo in A minor. From the moving and brilliant quasi-fantasie first movement to the delightful Chaconne, it is the equal of Bach's Cello Suites in sophistication and originality. The exquisite first half of the Largo is done pizzicato, a nod to the French tradition, and Duftschmid is as delicate and somber as humanly possible. He is partnered by Sophie Watillon in the G minor Suite for two violas da gamba and continuo, and the results are equally lovely. A varied and colorful D minor sonata shows some of the variety of colors possible with the instrument, especially the gently descending sautillé chords of the second movement of the D major Sonata. This final work of the disc features some thoughtful, well-balanced continuo playing, with judicious use of organ positive in the Largo.

The recording is warm, and close enough to feel intimate, but retains the gamba's full resonance. The occasional breaths before downbeats are only slightly audible, and every detail of the playing, from the fingers moving on the strings to the buzzing of harpsichord strings, is entirely natural. (David Preiser, ClassicsToday.com)

Lorenz Duftschmid - Viola da Gamba
Sophie Watillon - Viola da Gamba
Rolf Lislevand - Theorbe & Guitar
Wolfgang Zerer - Harpsichord & Organ positive

Track List:
[1]-[6] Suite in G minor for Two Viols and Basso Continuo
[7]-[11] Solo in A minor
[12] Chaconne in G major
[13]-[19] Partita in D minor for Gamba Solo
[20]-[26] Sonata I in D major for Gamba and Basso Continuo

Johannes Schenck - Les Fantaisies bisarres de la Goutte: Works for Viola Da Gamba (2000) (Repost)

Exact Audio Copy V1.1 from 23. June 2015

EAC extraction logfile from 15. July 2017, 23:57

Lorenz Duftschmid / Johannes Schenck - Les fantaisies bisarres de la Goutte

Used drive : PLDS DVD-RW DU8A6SH Adapter: 1 ID: 0

Read mode : Secure
Utilize accurate stream : Yes
Defeat audio cache : Yes
Make use of C2 pointers : No

Read offset correction : 6
Overread into Lead-In and Lead-Out : No
Fill up missing offset samples with silence : Yes
Delete leading and trailing silent blocks : No
Null samples used in CRC calculations : Yes
Used interface : Native Win32 interface for Win NT & 2000

Used output format : User Defined Encoder
Selected bitrate : 128 kBit/s
Quality : High
Add ID3 tag : No
Command line compressor : C:\Program Files (x86)\Exact Audio Copy\Flac\flac.exe
Additional command line options : -V -8 -T "Date=%year%" -T "Genre=%genre%" %source%

TOC of the extracted CD

Track | Start | Length | Start sector | End sector
––––––––––––––––––––––––––––-
1 | 0:00.00 | 2:17.50 | 0 | 10324
2 | 2:17.50 | 2:00.65 | 10325 | 19389
3 | 4:18.40 | 4:50.65 | 19390 | 41204
4 | 9:09.30 | 2:03.45 | 41205 | 50474
5 | 11:13.00 | 3:04.20 | 50475 | 64294
6 | 14:17.20 | 1:22.55 | 64295 | 70499
7 | 15:40.00 | 2:22.00 | 70500 | 81149
8 | 18:02.00 | 2:27.00 | 81150 | 92174
9 | 20:29.00 | 2:54.00 | 92175 | 105224
10 | 23:23.00 | 1:41.00 | 105225 | 112799
11 | 25:04.00 | 1:07.00 | 112800 | 117824
12 | 26:11.00 | 9:20.00 | 117825 | 159824
13 | 35:31.00 | 2:02.20 | 159825 | 168994
14 | 37:33.20 | 0:49.55 | 168995 | 172724
15 | 38:23.00 | 3:55.00 | 172725 | 190349
16 | 42:18.00 | 2:19.30 | 190350 | 200804
17 | 44:37.30 | 3:08.10 | 200805 | 214914
18 | 47:45.40 | 2:23.00 | 214915 | 225639
19 | 50:08.40 | 1:42.35 | 225640 | 233324
20 | 51:51.00 | 3:15.65 | 233325 | 248014
21 | 55:06.65 | 0:55.30 | 248015 | 252169
22 | 56:02.20 | 1:28.20 | 252170 | 258789
23 | 57:30.40 | 2:23.65 | 258790 | 269579
24 | 59:54.30 | 2:44.45 | 269580 | 281924
25 | 62:39.00 | 2:39.30 | 281925 | 293879
26 | 65:18.30 | 1:57.45 | 293880 | 302699

Range status and errors

Selected range

Filename C:\temp\Schenck - Les Fantaisies bisarres de la Goutte\Schenck - Les fantaisies bisarres de la Goutte.wav

Peak level 98.8 %
Extraction speed 3.9 X
Range quality 100.0 %
Test CRC C6F87379
Copy CRC C6F87379
Copy OK

No errors occurred

AccurateRip summary

Track 1 accurately ripped (confidence 11) [2C9A360A] (AR v2)
Track 2 accurately ripped (confidence 11) [FE18898E] (AR v2)
Track 3 accurately ripped (confidence 11) [54E4BAE1] (AR v2)
Track 4 accurately ripped (confidence 11) [094AC15F] (AR v2)
Track 5 accurately ripped (confidence 11) [9D1CDA61] (AR v2)
Track 6 accurately ripped (confidence 11) [8D79B8C6] (AR v2)
Track 7 accurately ripped (confidence 11) [AD528375] (AR v2)
Track 8 accurately ripped (confidence 11) [14B7410F] (AR v2)
Track 9 accurately ripped (confidence 11) [3DA58877] (AR v2)
Track 10 accurately ripped (confidence 11) [DFEDBC71] (AR v2)
Track 11 accurately ripped (confidence 11) [1AC867D9] (AR v2)
Track 12 accurately ripped (confidence 11) [577E7F6E] (AR v2)
Track 13 accurately ripped (confidence 11) [E5EDB9BB] (AR v2)
Track 14 accurately ripped (confidence 11) [D2BA90AD] (AR v2)
Track 15 accurately ripped (confidence 11) [CBBDD746] (AR v2)
Track 16 accurately ripped (confidence 11) [0A23C706] (AR v2)
Track 17 accurately ripped (confidence 11) [58690AB2] (AR v2)
Track 18 accurately ripped (confidence 11) [061287B2] (AR v2)
Track 19 accurately ripped (confidence 11) [CD13CE39] (AR v2)
Track 20 accurately ripped (confidence 11) [C48515AE] (AR v2)
Track 21 accurately ripped (confidence 11) [2C9D931F] (AR v2)
Track 22 accurately ripped (confidence 11) [0C510F46] (AR v2)
Track 23 accurately ripped (confidence 11) [1F946229] (AR v2)
Track 24 accurately ripped (confidence 11) [FF3056D4] (AR v2)
Track 25 accurately ripped (confidence 11) [F5A8C3B1] (AR v2)
Track 26 accurately ripped (confidence 11) [F43CE1EB] (AR v2)

All tracks accurately ripped

End of status report

==== Log checksum E88A5A2219BD3AE95AA2CA9098FE0E84F76CD826EB42015A69B047257CFB1A08 ====

All thanks go to the A-Z

More Music in My Blog
Follow My RSS Channel