Subcategories

John Coltrane - 8 Atlantic Album Collection (1959-61) [8CD] {2006 Japan Mini LP 24-bit Remaster} [combined repost]

Posted By: ruskaval
John Coltrane - 8 Atlantic Album Collection (1959-61) [8CD] {2006 Japan Mini LP 24-bit Remaster} [combined repost]

John Coltrane - 8 Atlantic Album Collection (1959-61) [8CD] {2006 Japan Mini LP 24-bit Remaster}
EAC rip (secure mode) | FLAC+CUE+LOG -> 3.19 Gb | MP3 @320 -> 1.12 Gb
Full Artwork @ 300 dpi (jpg) -> 118 Mb | 5% repair rar | 24-bit remaster
© 2006 Atlantic / Warner Music Japan | WPCR-25101~08
Jazz / Hard Bop / Post Bop / Avant-Garde Jazz / Saxophone

History will undoubtedly enshrine this disc as a watershed the likes of which may never truly be appreciated. Giant Steps bore the double-edged sword of furthering the cause of the music as well as delivering it to an increasingly mainstream audience. Although this was John Coltrane's debut for Atlantic, he was concurrently performing and recording with Miles Davis. Within the space of less than three weeks, Coltrane would complete his work with Davis and company on another genre-defining disc, Kind of Blue, before commencing his efforts on this one. Coltrane (tenor sax) is flanked by essentially two different trios.

John Coltrane - 8 Atlantic Album Collection (1959-61) [8CD] {2006 Japan Mini LP 24-bit Remaster} [combined repost]

John Coltrane - Giant Steps (1959) {2006 Japan Mini LP 24-bit Remaster}
EAC rip (secure mode) | FLAC+CUE+LOG -> 554 Mb | MP3 @320 -> 186 Mb
Full Artwork @ 300 dpi (jpg) -> 7 Mb | 5% repair rar | 24-bit remaster
© 2006 Atlantic / Warner Music Japan | WPCR-25101

Recording commenced in early May of 1959 with a pair of sessions that featured Tommy Flanagan (piano) and Art Taylor (drums), as well as Paul Chambers – who was the only band member other than Coltrane to have performed on every date. When recording resumed in December of that year, Wynton Kelly (piano) and Jimmy Cobb (drums) were instated – replicating the lineup featured on Kind of Blue, sans Miles Davis of course. At the heart of these recordings, however, is the laser-beam focus of Coltrane's tenor solos. All seven pieces issued on the original Giant Steps are likewise Coltrane compositions. He was, in essence, beginning to rewrite the jazz canon with material that would be centered on solos – the 180-degree antithesis of the art form up to that point. These arrangements would create a place for the solo to become infinitely more compelling. This would culminate in a frenetic performance style that noted jazz journalist Ira Gitler accurately dubbed "sheets of sound." Coltrane's polytonal torrents extricate the amicable and otherwise cordial solos that had begun decaying the very exigency of the genre – turning it into the equivalent of easy listening. He wastes no time as the disc's title track immediately indicates a progression from which there would be no looking back. Line upon line of highly cerebral improvisation snake between the melody and solos, practically fusing the two. The resolute intensity of "Countdown" does more to modernize jazz in 141 seconds than many artists do in their entire careers. Tellingly, the contrasting and ultimately pastoral "Naima" was the last tune to be recorded, and is the only track on the original long-player to feature the Kind of Blue quartet. What is lost in tempo is more than recouped in intrinsic melodic beauty.

Personnel:
John Coltrane – tenor saxophone
Paul Chambers – bass
Tommy Flanagan, Cedar Walton, Wynton Kelly – piano
Art Taylor, Lex Humphries, Jimmy Cobb – drums

tracklist:
01. Giant Steps
02. Cousin Mary
03. Countdown
04. Spiral
05. Syeeda's Song Flute
06. Naima
07. Mr. P.C.
08. Giant Steps (alternate version 1)
09. Naima (alternate version 1)
10. Cousin Mary (alternate take)
11. Countdown (alternate take)
12. Syeeda's Song Flute (alternate take)
13. Giant Steps (alternate version 2)
14. Naima (alternate version 2)
15. Giant Steps (alternate take)

EAC extraction logfile from 5. September 2007, 16:57 for CD
John Coltrane / Giant Steps (Japanese 24 Bit Remaster)

Used drive : PIONEER DVD-RW DVR-112D Adapter: 0 ID: 0
Read mode : Secure with NO C2, accurate stream, disable cache
Read offset correction : 48
Overread into Lead-In and Lead-Out : No

Used output format : C:\Program Files\Exact Audio Copy\flac-1.1.4-win\bin\flac.exe (User Defined Encoder)
128 kBit/s
Additional command line options : -8 -V -T "ARTIST=%a" -T "TITLE=%t" -T "ALBUM=%g" -T "DATE=%y" -T "TRACKNUMBER=%n" -T "GENRE=%m" -T "COMMENT=EAC Flac 1.1.4 -8" %s

Other options :
Fill up missing offset samples with silence : Yes
Delete leading and trailing silent blocks : No
Installed external ASPI interface


Track 1
Filename C:\Program Files\Exact Audio Copy\John Coltrane - 1959 - Giant Steps (Japanese 24 Bit Remaster)\01 - Giant Steps.wav

Pre-gap length 0:00:02.00

Peak level 100.0 %
Track quality 100.0 %
Test CRC 6487A17A
Copy CRC 6487A17A
Copy OK

Track 2
Filename C:\Program Files\Exact Audio Copy\John Coltrane - 1959 - Giant Steps (Japanese 24 Bit Remaster)\02 - Cousin Mary.wav

Pre-gap length 0:00:03.36

Peak level 100.0 %
Track quality 100.0 %
Test CRC E45BE562
Copy CRC E45BE562
Copy OK

Track 3
Filename C:\Program Files\Exact Audio Copy\John Coltrane - 1959 - Giant Steps (Japanese 24 Bit Remaster)\03 - Countdown.wav

Pre-gap length 0:00:03.57

Peak level 100.0 %
Track quality 100.0 %
Test CRC 808365FA
Copy CRC 808365FA
Copy OK

Track 4
Filename C:\Program Files\Exact Audio Copy\John Coltrane - 1959 - Giant Steps (Japanese 24 Bit Remaster)\04 - Spiral.wav

Pre-gap length 0:00:03.57

Peak level 100.0 %
Track quality 99.9 %
Test CRC D05E3B59
Copy CRC D05E3B59
Copy OK

Track 5
Filename C:\Program Files\Exact Audio Copy\John Coltrane - 1959 - Giant Steps (Japanese 24 Bit Remaster)\05 - Syeeda's Song Flute.wav

Pre-gap length 0:00:05.40

Peak level 100.0 %
Track quality 100.0 %
Test CRC 1BE47C91
Copy CRC 1BE47C91
Copy OK

Track 6
Filename C:\Program Files\Exact Audio Copy\John Coltrane - 1959 - Giant Steps (Japanese 24 Bit Remaster)\06 - Naima.wav

Pre-gap length 0:00:03.93

Peak level 100.0 %
Track quality 100.0 %
Test CRC 89631347
Copy CRC 89631347
Copy OK

Track 7
Filename C:\Program Files\Exact Audio Copy\John Coltrane - 1959 - Giant Steps (Japanese 24 Bit Remaster)\07 - Mr. P.C..wav

Pre-gap length 0:00:04.32

Peak level 100.0 %
Track quality 100.0 %
Test CRC 6924C2E8
Copy CRC 6924C2E8
Copy OK

Track 8
Filename C:\Program Files\Exact Audio Copy\John Coltrane - 1959 - Giant Steps (Japanese 24 Bit Remaster)\08 - Giant Steps (Alternate Version 1).wav

Pre-gap length 0:00:05.50

Peak level 100.0 %
Track quality 100.0 %
Test CRC 45391B39
Copy CRC 45391B39
Copy OK

Track 9
Filename C:\Program Files\Exact Audio Copy\John Coltrane - 1959 - Giant Steps (Japanese 24 Bit Remaster)\09 - Naima (Alternate Version 1).wav

Pre-gap length 0:00:01.92

Peak level 100.0 %
Track quality 99.9 %
Test CRC 3F58B98C
Copy CRC 3F58B98C
Copy OK

Track 10
Filename C:\Program Files\Exact Audio Copy\John Coltrane - 1959 - Giant Steps (Japanese 24 Bit Remaster)\10 - Cousin Mary (Alternate Take).wav

Pre-gap length 0:00:02.09

Peak level 100.0 %
Track quality 100.0 %
Test CRC A8D43060
Copy CRC A8D43060
Copy OK

Track 11
Filename C:\Program Files\Exact Audio Copy\John Coltrane - 1959 - Giant Steps (Japanese 24 Bit Remaster)\11 - Countdown (Alternate Take).wav

Pre-gap length 0:00:02.74

Peak level 100.0 %
Track quality 100.0 %
Test CRC 009E5985
Copy CRC 009E5985
Copy OK

Track 12
Filename C:\Program Files\Exact Audio Copy\John Coltrane - 1959 - Giant Steps (Japanese 24 Bit Remaster)\12 - Syeeda's Song Flute (Alternate Take).wav

Pre-gap length 0:00:03.66

Peak level 100.0 %
Track quality 100.0 %
Test CRC B3B84AEC
Copy CRC B3B84AEC
Copy OK

Track 13
Filename C:\Program Files\Exact Audio Copy\John Coltrane - 1959 - Giant Steps (Japanese 24 Bit Remaster)\13 - Giant Steps (Alternate Version 2).wav

Pre-gap length 0:00:04.06

Peak level 100.0 %
Track quality 100.0 %
Test CRC F151F69C
Copy CRC F151F69C
Copy OK

Track 14
Filename C:\Program Files\Exact Audio Copy\John Coltrane - 1959 - Giant Steps (Japanese 24 Bit Remaster)\14 - Naima (Alternate Version 2).wav

Pre-gap length 0:00:03.58

Peak level 100.0 %
Track quality 100.0 %
Test CRC C16FAA4C
Copy CRC C16FAA4C
Copy OK

Track 15
Filename C:\Program Files\Exact Audio Copy\John Coltrane - 1959 - Giant Steps (Japanese 24 Bit Remaster)\15 - Giant Steps (Alternate Take).wav

Pre-gap length 0:00:04.86

Peak level 100.0 %
Track quality 100.0 %
Test CRC B473CC28
Copy CRC B473CC28
Copy OK

No errors occured


End of status report


John Coltrane - 8 Atlantic Album Collection (1959-61) [8CD] {2006 Japan Mini LP 24-bit Remaster} [combined repost]

John Coltrane - 8 Atlantic Album Collection (1959-61) [8CD] {2006 Japan Mini LP 24-bit Remaster} [combined repost]



––––––––––––––––––-
John Coltrane - 8 Atlantic Album Collection (1959-61) [8CD] {2006 Japan Mini LP 24-bit Remaster} [combined repost]

John Coltrane - Coltrane Jazz (1960) {2006 Japan Mini LP 24-bit Remaster}
EAC rip (secure mode) | FLAC+CUE+LOG -> 442 Mb | MP3 @320 -> 157 Mb
Full Artwork @ 300 dpi (jpg) -> 9 Mb | 5% repair rar | 24-bit remaster
© 2006 Atlantic / Warner Music Japan | WPCR-25102

The first album to hit the shelves after Giant Steps, Coltrane Jazz was largely recorded in late 1959, although one of the eight songs ("Village Blues") was done in late 1960. On everything save the aforementioned "Village Blues," Coltrane used the Miles Davis rhythm section of pianist Wynton Kelly, bassist Paul Chambers, and drummer Jimmy Cobb. While not the groundbreaker that Giant Steps was, Coltrane Jazz was a good consolidation of his gains as he prepared to launch into his peak years of the 1960s. There are three standards aboard, but the group reaches their peak on Coltrane's original material, particularly "Harmonique" with its melodic leaps and upper-register saxophone strains and the winding, slightly Eastern-flavored principal riffs of "Like Sonny," dedicated to Sonny Rollins. The moody "Village Blues" features the lineup of McCoy Tyner on piano, Elvin Jones on drums, and Steve Davis on bass; with the substitution of Jimmy Garrison on bass, that personnel would play on Coltrane's most influential and beloved 1960s albums.

Personnel: John Coltrane (tenor saxophone); Wynton Kelly, McCoy Tyner, Cedar Walton (piano); Paul Chambers, Steve Davis (bass); Jimmy Cobb, Lex Humphries, Elvin Jones (drums).

tracklist:
01. Little Old Lady
02. Village Blues
03. My Shining Hour
04. Fifth House
05. Harmonique
06. Like Sonny
07. I'll Wait And Pray
08. Some Other Blues
09. Like Sonny (alternate take )
10. I'll Wait And Pray (alternate take)
11. Like Sonny (alternate take 5)
12. Village Blues (alternate take)

Exact Audio Copy V0.99 prebeta 5 from 4. May 2009

EAC extraction logfile from 19. June 2010, 17:54

John Coltrane / Coltrane Jazz

Used drive : TSSTcorpCD/DVDW TS-H552L Adapter: 3 ID: 0

Read mode : Secure
Utilize accurate stream : Yes
Defeat audio cache : Yes
Make use of C2 pointers : No

Read offset correction : 6
Overread into Lead-In and Lead-Out : No
Fill up missing offset samples with silence : Yes
Delete leading and trailing silent blocks : No
Null samples used in CRC calculations : Yes
Used interface : Native Win32 interface for Win NT & 2000
Gap handling : Appended to previous track

Used output format : User Defined Encoder
Selected bitrate : 1024 kBit/s
Quality : High
Add ID3 tag : No
Command line compressor : C:\Program Files\FLAC\flac.exe
Additional command line options : -6 -V -T "ARTIST=%a" -T "TITLE=%t" -T "ALBUM=%g" -T "DATE=%y" -T "TRACKNUMBER=%n" -T "GENRE=%m" -T "COMMENT=EAC FLAC -6" %s


TOC of the extracted CD

Track | Start | Length | Start sector | End sector
––––––––––––––––––––––––––––-
1 | 0:00.00 | 4:29.65 | 0 | 20239
2 | 4:29.65 | 5:25.26 | 20240 | 44640
3 | 9:55.16 | 4:55.18 | 44641 | 66783
4 | 14:50.34 | 4:42.20 | 66784 | 87953
5 | 19:32.54 | 4:15.07 | 87954 | 107085
6 | 23:47.61 | 5:56.04 | 107086 | 133789
7 | 29:43.65 | 3:36.52 | 133790 | 150041
8 | 33:20.42 | 5:40.25 | 150042 | 175566
9 | 39:00.67 | 6:07.61 | 175567 | 203152
10 | 45:08.53 | 3:30.33 | 203153 | 218935
11 | 48:39.11 | 8:15.63 | 218936 | 256123
12 | 56:54.74 | 6:17.47 | 256124 | 284445


Track 1

Filename C:\John Coltrane - Coltrane Jazz (1959) {2006 Japan Mini LP Edition, WPCR-25102}\01 - Little Old Lady.wav

Pre-gap length 0:00:02.00

Peak level 100.0 %
Track quality 100.0 %
Test CRC 6B8C29CE
Copy CRC 6B8C29CE
Accurately ripped (confidence 3) [15E0AEA2]
Copy OK

Track 2

Filename C:\John Coltrane - Coltrane Jazz (1959) {2006 Japan Mini LP Edition, WPCR-25102}\02 - Village Blues.wav

Pre-gap length 0:00:03.33

Peak level 100.0 %
Track quality 100.0 %
Test CRC C4BE53EC
Copy CRC C4BE53EC
Accurately ripped (confidence 3) [88CF00A3]
Copy OK

Track 3

Filename C:\John Coltrane - Coltrane Jazz (1959) {2006 Japan Mini LP Edition, WPCR-25102}\03 - My Shining Hour.wav

Pre-gap length 0:00:03.19

Peak level 100.0 %
Track quality 100.0 %
Test CRC AEEECD80
Copy CRC AEEECD80
Accurately ripped (confidence 3) [3C6B44F4]
Copy OK

Track 4

Filename C:\John Coltrane - Coltrane Jazz (1959) {2006 Japan Mini LP Edition, WPCR-25102}\04 - Fifth House.wav

Pre-gap length 0:00:03.02

Peak level 100.0 %
Track quality 99.9 %
Test CRC 34CE521C
Copy CRC 34CE521C
Accurately ripped (confidence 3) [79A90D70]
Copy OK

Track 5

Filename C:\John Coltrane - Coltrane Jazz (1959) {2006 Japan Mini LP Edition, WPCR-25102}\05 - Harmonique.wav

Pre-gap length 0:00:02.42

Peak level 100.0 %
Track quality 100.0 %
Test CRC E62405AD
Copy CRC E62405AD
Accurately ripped (confidence 3) [A0CEFDBB]
Copy OK

Track 6

Filename C:\John Coltrane - Coltrane Jazz (1959) {2006 Japan Mini LP Edition, WPCR-25102}\06 - Like Sonny.wav

Pre-gap length 0:00:02.73

Peak level 100.0 %
Track quality 100.0 %
Test CRC AD11373F
Copy CRC AD11373F
Accurately ripped (confidence 3) [EF52CDA0]
Copy OK

Track 7

Filename C:\John Coltrane - Coltrane Jazz (1959) {2006 Japan Mini LP Edition, WPCR-25102}\07 - I'll Wait And Pray.wav

Pre-gap length 0:00:03.13

Peak level 100.0 %
Track quality 100.0 %
Test CRC 7707F5BD
Copy CRC 7707F5BD
Accurately ripped (confidence 3) [24B390BC]
Copy OK

Track 8

Filename C:\John Coltrane - Coltrane Jazz (1959) {2006 Japan Mini LP Edition, WPCR-25102}\08 - Some Other Blues.wav

Pre-gap length 0:00:03.08

Peak level 100.0 %
Track quality 100.0 %
Test CRC 0A39D175
Copy CRC 0A39D175
Accurately ripped (confidence 3) [C9941BE2]
Copy OK

Track 9

Filename C:\John Coltrane - Coltrane Jazz (1959) {2006 Japan Mini LP Edition, WPCR-25102}\09 - Like Sonny (Alternate Take).wav

Pre-gap length 0:00:05.08

Peak level 98.2 %
Track quality 100.0 %
Test CRC E7BFD704
Copy CRC E7BFD704
Accurately ripped (confidence 3) [93F0F939]
Copy OK

Track 10

Filename C:\John Coltrane - Coltrane Jazz (1959) {2006 Japan Mini LP Edition, WPCR-25102}\10 - I'll Wait And Pray (Alternate Take).wav

Pre-gap length 0:00:03.14

Peak level 97.5 %
Track quality 100.0 %
Test CRC C8B31691
Copy CRC C8B31691
Accurately ripped (confidence 3) [2A12FC3E]
Copy OK

Track 11

Filename C:\John Coltrane - Coltrane Jazz (1959) {2006 Japan Mini LP Edition, WPCR-25102}\11 - Like Sonny (Alternate Take 5).wav

Pre-gap length 0:00:03.74

Peak level 97.6 %
Track quality 100.0 %
Test CRC E8850E11
Copy CRC E8850E11
Accurately ripped (confidence 3) [0E68A80D]
Copy OK

Track 12

Filename C:\John Coltrane - Coltrane Jazz (1959) {2006 Japan Mini LP Edition, WPCR-25102}\12 - Village Blues (Alternate Take).wav

Pre-gap length 0:00:03.14

Peak level 98.1 %
Track quality 100.0 %
Test CRC EC556184
Copy CRC EC556184
Accurately ripped (confidence 3) [A359558A]
Copy OK


All tracks accurately ripped

No errors occurred

End of status report


John Coltrane - 8 Atlantic Album Collection (1959-61) [8CD] {2006 Japan Mini LP 24-bit Remaster} [combined repost]

John Coltrane - 8 Atlantic Album Collection (1959-61) [8CD] {2006 Japan Mini LP 24-bit Remaster} [combined repost]



–––––––––––––––––––
John Coltrane - 8 Atlantic Album Collection (1959-61) [8CD] {2006 Japan Mini LP 24-bit Remaster} [combined repost]

John Coltrane & Don Cherry - The Avant-Garde (1960) {2006 Japan Mini LP 24-bit Remaster}
EAC rip (secure mode) | FLAC+CUE+LOG -> 281 Mb | MP3 @320 -> 92 Mb
Full Artwork @ 300 dpi (jpg) -> 9 Mb | 5% repair rar | 24-bit remaster
© 2006 Atlantic / Warner Music Japan | WPCR-25103

This album is rightfully co-credited to Don Cherry (trumpet), who ably trades blows with John Coltrane (tenor/soprano sax) throughout. The Avant-Garde also boasts the debut studio recording of Coltrane playing soprano sax – on "The Blessing" – in addition to his continuing advancements on tenor. Although these tracks were recorded during the summer of 1960, they remained shelved for nearly six years. Joining Coltrane and Cherry are essentially the rest of the members of the Ornette Coleman Quartet, Ed Blackwell (drums) and Charlie Haden (bass) on "Cherryco" and "The Blessing," as well as Percy Heath (bass) on the remaining three selections. This is fitting, as over half of the album consists of early Coleman compositions. Coltrane's integration into this band works with some extraordinarily fresh results. Neither Cherry nor Coltrane makes any radical departures on this album; however, it's the ability of each to complement the other both in terms of modal style and – perhaps more importantly – texture that lends heavily to the success of these sides. Cherry's brisk and somewhat nasal intonations on "The Blessing" mimic those of Miles Davis, albeit with shorter flourishes and heavily improvised lines. When combined with Coltrane's well-placed – if not somewhat reserved – solos, the mutual value of both is dramatically increased. Blackwell – the only other musician besides Cherry and Coltrane to be featured on every track – provides some non-conventional percussive accompaniment. His contributions to "The Blessing" and workout on the aptly titled "Focus on Sanity" are primal.

Personnel: John Coltrane (soprano & tenor saxophones); Don Cherry (trumpet); Charlie Haden, Percy Heath (acoustic bass); Ed Blackwell (drums).

tracklist:
01. Cherryco
02. Focus On Sanity
03. The Blessing
04. The Invisible
05. Bemsha Swing

Exact Audio Copy V0.99 prebeta 5 from 4. May 2009

EAC extraction logfile from 19. July 2010, 13:38

John Coltrane & Don Cherry / The Avant-Garde

Used drive : TSSTcorpCD/DVDW TS-H552L Adapter: 3 ID: 0

Read mode : Secure
Utilize accurate stream : Yes
Defeat audio cache : Yes
Make use of C2 pointers : No

Read offset correction : 6
Overread into Lead-In and Lead-Out : No
Fill up missing offset samples with silence : Yes
Delete leading and trailing silent blocks : No
Null samples used in CRC calculations : Yes
Used interface : Native Win32 interface for Win NT & 2000
Gap handling : Appended to previous track

Used output format : User Defined Encoder
Selected bitrate : 1024 kBit/s
Quality : High
Add ID3 tag : No
Command line compressor : C:\Program Files\FLAC\flac.exe
Additional command line options : -6 -V -T "ARTIST=%a" -T "TITLE=%t" -T "ALBUM=%g" -T "DATE=%y" -T "TRACKNUMBER=%n" -T "GENRE=%m" -T "COMMENT=EAC FLAC -6" %s


TOC of the extracted CD

Track | Start | Length | Start sector | End sector
––––––––––––––––––––––––––––-
1 | 0:00.00 | 6:49.61 | 0 | 30735
2 | 6:49.61 | 12:17.27 | 30736 | 86037
3 | 19:07.13 | 7:54.30 | 86038 | 121617
4 | 27:01.43 | 4:15.40 | 121618 | 140782
5 | 31:17.08 | 5:05.43 | 140783 | 163700


Track 1

Filename C:\ruskaval\John Coltrane & Don Cherry - The Avant-Garde (1960) {2006 Japan Mini LP Edition, WPCR-25103}\01 - Cherryco.wav

Pre-gap length 0:00:02.00

Peak level 100.0 %
Track quality 100.0 %
Test CRC E8625BF6
Copy CRC E8625BF6
Accurately ripped (confidence 3) [9FE1418E]
Copy OK

Track 2

Filename C:\ruskaval\John Coltrane & Don Cherry - The Avant-Garde (1960) {2006 Japan Mini LP Edition, WPCR-25103}\02 - Focus On Sanity.wav

Pre-gap length 0:00:02.39

Peak level 100.0 %
Track quality 100.0 %
Test CRC BAA4154B
Copy CRC BAA4154B
Accurately ripped (confidence 3) [A68E73CF]
Copy OK

Track 3

Filename C:\ruskaval\John Coltrane & Don Cherry - The Avant-Garde (1960) {2006 Japan Mini LP Edition, WPCR-25103}\03 - The Blessing.wav

Pre-gap length 0:00:02.64

Peak level 100.0 %
Track quality 100.0 %
Test CRC 11E3E6BB
Copy CRC 11E3E6BB
Accurately ripped (confidence 3) [771AD9B7]
Copy OK

Track 4

Filename C:\ruskaval\John Coltrane & Don Cherry - The Avant-Garde (1960) {2006 Japan Mini LP Edition, WPCR-25103}\04 - The Invisible.wav

Pre-gap length 0:00:02.10

Peak level 100.0 %
Track quality 100.0 %
Test CRC 60F0110C
Copy CRC 60F0110C
Accurately ripped (confidence 3) [03BD6A06]
Copy OK

Track 5

Filename C:\ruskaval\John Coltrane & Don Cherry - The Avant-Garde (1960) {2006 Japan Mini LP Edition, WPCR-25103}\05 - Bemsha Swing.wav

Pre-gap length 0:00:05.15

Peak level 100.0 %
Track quality 100.0 %
Test CRC 21F9815D
Copy CRC 21F9815D
Accurately ripped (confidence 3) [BF2E68C5]
Copy OK


All tracks accurately ripped

No errors occurred

End of status report


John Coltrane - 8 Atlantic Album Collection (1959-61) [8CD] {2006 Japan Mini LP 24-bit Remaster} [combined repost]

John Coltrane - 8 Atlantic Album Collection (1959-61) [8CD] {2006 Japan Mini LP 24-bit Remaster} [combined repost]



––––––––––––––––––––
John Coltrane - 8 Atlantic Album Collection (1959-61) [8CD] {2006 Japan Mini LP 24-bit Remaster} [combined repost]

John Coltrane - My Favorite Things (1961) {2006 Japan Mini LP 24-bit Remaster}
EAC rip (secure mode) | FLAC+CUE+LOG -> 355 Mb | MP3 @320 -> 116 Mb
Full Artwork @ 300 dpi (jpg) -> 8 Mb | 5% repair rar | 24-bit remaster
© 2006 Atlantic / Warner Music Japan | WPCR-25104

Although seemingly impossible to comprehend, this landmark jazz date made in 1960 was recorded in less than three days. All the more remarkable is that the same sessions which yielded My Favorite Things would also inform a majority of the albums Coltrane Plays the Blues, Coltrane's Sound, and Coltrane Legacy. It is easy to understand the appeal that these sides continue to hold. The unforced, practically casual soloing styles of the assembled quartet – which includes Coltrane (soprano/tenor sax), McCoy Tyner (piano), Steve Davis (bass), and Elvin Jones (drums) – allow for tastefully executed passages à la the Miles Davis Quintet, a trait Coltrane no doubt honed during his tenure in that band. Each track of this album is a joy to revisit. The ultimate listenability may reside in this quartet's capacity to not be overwhelmed by the soloist. Likewise, they are able to push the grooves along surreptitiously and unfettered. For instance, the support that the trio – most notably Tyner – gives to Coltrane on the title track winds the melody in and around itself. However, instead of becoming entangled and directionless, these musical sidebars simultaneously define the direction the song is taking. As a soloist, the definitive soprano sax runs during the Cole Porter standard "Everytime We Say Goodbye" and tenor solos on "But Not for Me" easily establish Coltrane as a pioneer of both instruments.

Personnel:
John Coltrane (soprano & tenor saxophones)
McCoy Tyner (piano)
Steve Davis (bass)
Elvin Jones (drums)

tracklist:
01. My Favorite Things
02. Everytime We Say Goodbye
03. Summertime
04. But Not For Me
05. My Favorite Things, Part 1 (Single Version)
06. My Favorite Things, Part 2 (Single Version)

EAC extraction logfile from 5. September 2007, 15:40 for CD
John Coltrane / My Favorite Things (Japanese 24 Bit Remaster)

Used drive : PIONEER DVD-RW DVR-112D Adapter: 0 ID: 0
Read mode : Secure with NO C2, accurate stream, disable cache
Read offset correction : 48
Overread into Lead-In and Lead-Out : No

Used output format : C:\Program Files\Exact Audio Copy\flac-1.1.4-win\bin\flac.exe (User Defined Encoder)
128 kBit/s
Additional command line options : -8 -V -T "ARTIST=%a" -T "TITLE=%t" -T "ALBUM=%g" -T "DATE=%y" -T "TRACKNUMBER=%n" -T "GENRE=%m" -T "COMMENT=EAC Flac 1.1.4 -8" %s

Other options :
Fill up missing offset samples with silence : Yes
Delete leading and trailing silent blocks : No
Installed external ASPI interface


Track 1
Filename C:\Program Files\Exact Audio Copy\John Coltrane - 1960 - My Favorite Things (Japanese 24 Bit Remaster)\01 - My Favorite Things.wav

Pre-gap length 0:00:02.00

Peak level 100.0 %
Track quality 100.0 %
Test CRC 2DF307AD
Copy CRC 2DF307AD
Copy OK

Track 2
Filename C:\Program Files\Exact Audio Copy\John Coltrane - 1960 - My Favorite Things (Japanese 24 Bit Remaster)\02 - Everytime We Say Goodbye.wav

Pre-gap length 0:00:03.17

Peak level 100.0 %
Track quality 100.0 %
Test CRC DC3872BA
Copy CRC DC3872BA
Copy OK

Track 3
Filename C:\Program Files\Exact Audio Copy\John Coltrane - 1960 - My Favorite Things (Japanese 24 Bit Remaster)\03 - Summertime.wav

Pre-gap length 0:00:04.25

Peak level 100.0 %
Track quality 100.0 %
Test CRC 881C3862
Copy CRC 881C3862
Copy OK

Track 4
Filename C:\Program Files\Exact Audio Copy\John Coltrane - 1960 - My Favorite Things (Japanese 24 Bit Remaster)\04 - But Not for Me.wav

Pre-gap length 0:00:03.26

Peak level 100.0 %
Track quality 100.0 %
Test CRC 7FE781FF
Copy CRC 7FE781FF
Copy OK

Track 5
Filename C:\Program Files\Exact Audio Copy\John Coltrane - 1960 - My Favorite Things (Japanese 24 Bit Remaster)\05 - My Favorite Things, Part 1 (Single Version).wav

Pre-gap length 0:00:04.66

Peak level 100.0 %
Track quality 100.0 %
Test CRC 55F5CC09
Copy CRC 55F5CC09
Copy OK

Track 6
Filename C:\Program Files\Exact Audio Copy\John Coltrane - 1960 - My Favorite Things (Japanese 24 Bit Remaster)\06 - My Favorite Things, Part 2 (Single Version).wav

Pre-gap length 0:00:04.17

Peak level 100.0 %
Track quality 100.0 %
Test CRC 5606D48B
Copy CRC 5606D48B
Copy OK

No errors occured


End of status report


John Coltrane - 8 Atlantic Album Collection (1959-61) [8CD] {2006 Japan Mini LP 24-bit Remaster} [combined repost]

John Coltrane - 8 Atlantic Album Collection (1959-61) [8CD] {2006 Japan Mini LP 24-bit Remaster} [combined repost]



–––––––––––––––––––
John Coltrane - 8 Atlantic Album Collection (1959-61) [8CD] {2006 Japan Mini LP 24-bit Remaster} [combined repost]

John Coltrane - Coltrane Plays The Blues (1960) {2006 Japan Mini LP 24-bit Remaster}
EAC rip (secure mode) | FLAC+CUE+LOG -> 555 Mb | MP3 @320 -> 185 Mb
Full Artwork @ 300 dpi (jpg) -> 8 Mb | 5% repair rar | 24-bit remaster
© 2006 Atlantic / Warner Music Japan | WPCR-25105

Coltrane's sessions for Atlantic in late October 1960 were prolific, yielding the material for My Favorite Things, Coltrane Plays the Blues, and Coltrane's Sound. My Favorite Things was destined to be the most remembered and influential of these, and while Coltrane Plays the Blues is not as renowned or daring in material, it is still a powerful session. As for the phrase "plays the blues" in the title, that's not so much an indicator that the tunes are conventional blues (which they aren't). It's more indicative of a bluesy sensibility, whether he is playing muscular saxophone or, on "Blues to Bechet" and "Mr. Syms," the more unusual-sounding (at the time) soprano sax. Elvin Jones, who hadn't been in Coltrane's band long, really busts out on the quicker numbers, such as "Blues to You" and "Mr. Day."

Personnel: John Coltrane (soprano & tenor saxophones); McCoy Tyner (piano); Steve Davis (acoustic bass); Elvin Jones (drums).

tracklist:
01. Blues to Elvin
02. Blues to Bechet
03. Blues to You
04. Mr. Day
05. Mr. Syms
06. Mr. Knight
07. Untitled Original (Exotica)
08. Blues to Elvin (Alternate Take 1)
09. Blues to Elvin (Alternate Take 3)
10. Blues to You (Alternate Take 1)
11. Blues to You (Alternate Take 2)

EAC extraction logfile from 17. September 2007, 17:13 for CD
John Coltrane / Coltrane Plays the Blues (Japanese 24 Bit Remaster)

Used drive : PIONEER DVD-RW DVR-112D Adapter: 0 ID: 0
Read mode : Secure with NO C2, accurate stream, disable cache
Read offset correction : 48
Overread into Lead-In and Lead-Out : No

Used output format : C:\Program Files\Exact Audio Copy\flac-1.1.4-win\bin\flac.exe (User Defined Encoder)
128 kBit/s
Additional command line options : -8 -V -T "ARTIST=%a" -T "TITLE=%t" -T "ALBUM=%g" -T "DATE=%y" -T "TRACKNUMBER=%n" -T "GENRE=%m" -T "COMMENT=EAC Flac 1.1.4 -8" %s

Other options :
Fill up missing offset samples with silence : Yes
Delete leading and trailing silent blocks : No
Installed external ASPI interface


Track 1
Filename C:\Program Files\Exact Audio Copy\John Coltrane - 1960 - Coltrane Plays the Blues (Japanese 24 Bit Remaster)\01 - Blues to Elvin.wav

Pre-gap length 0:00:02.00

Peak level 100.0 %
Track quality 100.0 %
Test CRC 75EC2562
Copy CRC 75EC2562
Copy OK

Track 2
Filename C:\Program Files\Exact Audio Copy\John Coltrane - 1960 - Coltrane Plays the Blues (Japanese 24 Bit Remaster)\02 - Blues to Bechet.wav

Pre-gap length 0:00:01.69

Peak level 100.0 %
Track quality 100.0 %
Test CRC 967A6C20
Copy CRC 967A6C20
Copy OK

Track 3
Filename C:\Program Files\Exact Audio Copy\John Coltrane - 1960 - Coltrane Plays the Blues (Japanese 24 Bit Remaster)\03 - Blues to You.wav

Pre-gap length 0:00:01.73

Peak level 100.0 %
Track quality 100.0 %
Test CRC FC250A3E
Copy CRC FC250A3E
Copy OK

Track 4
Filename C:\Program Files\Exact Audio Copy\John Coltrane - 1960 - Coltrane Plays the Blues (Japanese 24 Bit Remaster)\04 - Mr. Day.wav

Pre-gap length 0:00:01.97

Peak level 100.0 %
Track quality 100.0 %
Test CRC E0F29330
Copy CRC E0F29330
Copy OK

Track 5
Filename C:\Program Files\Exact Audio Copy\John Coltrane - 1960 - Coltrane Plays the Blues (Japanese 24 Bit Remaster)\05 - Mr. Syms.wav

Pre-gap length 0:00:01.53

Peak level 100.0 %
Track quality 100.0 %
Test CRC DEE7351A
Copy CRC DEE7351A
Copy OK

Track 6
Filename C:\Program Files\Exact Audio Copy\John Coltrane - 1960 - Coltrane Plays the Blues (Japanese 24 Bit Remaster)\06 - Mr. Knight.wav

Pre-gap length 0:00:01.57

Peak level 100.0 %
Track quality 100.0 %
Test CRC 3636E9F3
Copy CRC 3636E9F3
Copy OK

Track 7
Filename C:\Program Files\Exact Audio Copy\John Coltrane - 1960 - Coltrane Plays the Blues (Japanese 24 Bit Remaster)\07 - Untitled Original (Exotica).wav

Pre-gap length 0:00:09.30

Peak level 100.0 %
Track quality 100.0 %
Test CRC 51337105
Copy CRC 51337105
Copy OK

Track 8
Filename C:\Program Files\Exact Audio Copy\John Coltrane - 1960 - Coltrane Plays the Blues (Japanese 24 Bit Remaster)\08 - Blues to Elvin (Alternate Take 1).wav

Pre-gap length 0:00:04.92

Peak level 100.0 %
Track quality 100.0 %
Test CRC A0B7C435
Copy CRC A0B7C435
Copy OK

Track 9
Filename C:\Program Files\Exact Audio Copy\John Coltrane - 1960 - Coltrane Plays the Blues (Japanese 24 Bit Remaster)\09 - Blues to Elvin (Alternate Take 3).wav

Pre-gap length 0:00:05.33

Peak level 100.0 %
Track quality 100.0 %
Test CRC 6836EDFD
Copy CRC 6836EDFD
Copy OK

Track 10
Filename C:\Program Files\Exact Audio Copy\John Coltrane - 1960 - Coltrane Plays the Blues (Japanese 24 Bit Remaster)\10 - Blues to You (Alternate Take 1).wav

Pre-gap length 0:00:04.41

Peak level 100.0 %
Track quality 100.0 %
Test CRC CAD8D7D0
Copy CRC CAD8D7D0
Copy OK

Track 11
Filename C:\Program Files\Exact Audio Copy\John Coltrane - 1960 - Coltrane Plays the Blues (Japanese 24 Bit Remaster)\11 - Blues to You (Alternate Take 2).wav

Pre-gap length 0:00:03.37

Peak level 100.0 %
Track quality 100.0 %
Test CRC ADBDDDB9
Copy CRC ADBDDDB9
Copy OK

No errors occured


End of status report


John Coltrane - 8 Atlantic Album Collection (1959-61) [8CD] {2006 Japan Mini LP 24-bit Remaster} [combined repost]

John Coltrane - 8 Atlantic Album Collection (1959-61) [8CD] {2006 Japan Mini LP 24-bit Remaster} [combined repost]



––––––––––––––––-
John Coltrane - 8 Atlantic Album Collection (1959-61) [8CD] {2006 Japan Mini LP 24-bit Remaster} [combined repost]

John Coltrane - Coltrane's Sound (1960) {2006 Japan Mini LP 24-bit Remaster}
EAC rip (secure mode) | FLAC+CUE+LOG -> 387 Mb | MP3 @320 -> 126 Mb
Full Artwork @ 300 dpi (jpg) -> 63 Mb | 5% repair rar | 24-bit remaster
© 2006 Atlantic / Warner Music Japan | WPCR-25106

This is one of the most highly underrated entries in Coltrane's voluminous catalog. Although the same overwhelming attention bestowed upon My Favorite Things was not given to Coltrane's Sound upon its initial release, both were actually recorded during the same three-day period in the fall of 1960. So prolific were those recording dates, they informed no less than five different Coltrane albums on Atlantic. The title could not have been more accurate, as each of the six pieces – eight if you count the CD bonus tracks – bear the unmistakable and indelible stamp of Coltrane's early-'60s style. "The Night Has a Thousand Eyes" and "Body and Soul" – the only tracks not penned by Coltrane – are given unique and distinctive voices. Animating the arrangements on these sessions were Coltrane (soprano/tenor sax), Steve Davis (bass), Elvin Jones (drums), and McCoy Tyner (piano). It's perhaps Tyner's recollection of the quartet as "four pistons in an engine" that most aptly explains the singular drive heard during Coltrane's extended runs on "Liberia." Tyner flawlessly complements Coltrane with full resonating chords that cling to his volley of sound. The rhythmic gymnastics of percussionist Jones is also showcased as his double-jointed bop swing and military band precision are distinctly displayed on the blues "Equinox." The opening six bars give Jones a chance to make a contrasting statement – which he takes full advantage of.

Personnel: John Coltrane (soprano & tenor saxophones); McCoy Tyner (piano); Steve Davis (bass); Elvin Jones (drums).

tracklist:
01. Night Has a Thousand Eyes
02. Central Park West
03. Liberia
04. Body & Soul
05. Equinox
06. Satellite
07. 26-2
08. Body and Soul (Alternate Take)

Exact Audio Copy V0.99 prebeta 5 from 4. May 2009

EAC extraction logfile from 28. June 2010, 20:06

John Coltrane / Coltrane's Sound

Used drive : TSSTcorpCD/DVDW TS-H552L Adapter: 3 ID: 0

Read mode : Secure
Utilize accurate stream : Yes
Defeat audio cache : Yes
Make use of C2 pointers : No

Read offset correction : 6
Overread into Lead-In and Lead-Out : No
Fill up missing offset samples with silence : Yes
Delete leading and trailing silent blocks : No
Null samples used in CRC calculations : Yes
Used interface : Native Win32 interface for Win NT & 2000
Gap handling : Appended to previous track

Used output format : User Defined Encoder
Selected bitrate : 1024 kBit/s
Quality : High
Add ID3 tag : No
Command line compressor : C:\Program Files\FLAC\flac.exe
Additional command line options : -6 -V -T "ARTIST=%a" -T "TITLE=%t" -T "ALBUM=%g" -T "DATE=%y" -T "TRACKNUMBER=%n" -T "GENRE=%m" -T "COMMENT=EAC FLAC -6" %s


TOC of the extracted CD

Track | Start | Length | Start sector | End sector
––––––––––––––––––––––––––––-
1 | 0:00.00 | 6:53.03 | 0 | 30977
2 | 6:53.03 | 4:16.35 | 30978 | 50212
3 | 11:09.38 | 6:53.62 | 50213 | 81249
4 | 18:03.25 | 5:40.74 | 81250 | 106823
5 | 23:44.24 | 8:38.55 | 106824 | 145728
6 | 32:23.04 | 5:56.40 | 145729 | 172468
7 | 38:19.44 | 6:17.53 | 172469 | 200796
8 | 44:37.22 | 5:58.39 | 200797 | 227685


Track 1

Filename C:\John Coltrane - Coltrane's Sound (1960) {2006 Japan Mini LP Edition, WPCR-25106}\01 - The Night Has A Thousand Eyes.wav

Pre-gap length 0:00:02.00

Peak level 100.0 %
Track quality 100.0 %
Test CRC 9798FCD3
Copy CRC 9798FCD3
Accurately ripped (confidence 1) [8A370697]
Copy OK

Track 2

Filename C:\John Coltrane - Coltrane's Sound (1960) {2006 Japan Mini LP Edition, WPCR-25106}\02 - Central Park West.wav

Pre-gap length 0:00:02.30

Peak level 100.0 %
Track quality 100.0 %
Test CRC 701A81DE
Copy CRC 701A81DE
Accurately ripped (confidence 1) [C6E04D74]
Copy OK

Track 3

Filename C:\John Coltrane - Coltrane's Sound (1960) {2006 Japan Mini LP Edition, WPCR-25106}\03 - Liberia.wav

Pre-gap length 0:00:02.45

Peak level 100.0 %
Track quality 100.0 %
Test CRC 751E7F0D
Copy CRC 751E7F0D
Accurately ripped (confidence 1) [05A653A6]
Copy OK

Track 4

Filename C:\John Coltrane - Coltrane's Sound (1960) {2006 Japan Mini LP Edition, WPCR-25106}\04 - Body and Soul.wav

Pre-gap length 0:00:03.49

Peak level 100.0 %
Track quality 100.0 %
Test CRC DA6C1A09
Copy CRC DA6C1A09
Accurately ripped (confidence 1) [7EC35569]
Copy OK

Track 5

Filename C:\John Coltrane - Coltrane's Sound (1960) {2006 Japan Mini LP Edition, WPCR-25106}\05 - Equinox.wav

Pre-gap length 0:00:04.20

Peak level 100.0 %
Track quality 100.0 %
Test CRC 37223401
Copy CRC 37223401
Accurately ripped (confidence 1) [314726A9]
Copy OK

Track 6

Filename C:\John Coltrane - Coltrane's Sound (1960) {2006 Japan Mini LP Edition, WPCR-25106}\06 - Satellite.wav

Pre-gap length 0:00:02.69

Peak level 100.0 %
Track quality 100.0 %
Test CRC 1310B38D
Copy CRC 1310B38D
Accurately ripped (confidence 1) [96183691]
Copy OK

Track 7

Filename C:\John Coltrane - Coltrane's Sound (1960) {2006 Japan Mini LP Edition, WPCR-25106}\07 - 26-2.wav

Pre-gap length 0:00:06.18

Peak level 100.0 %
Track quality 100.0 %
Test CRC EA723139
Copy CRC EA723139
Accurately ripped (confidence 1) [FCD1584A]
Copy OK

Track 8

Filename C:\John Coltrane - Coltrane's Sound (1960) {2006 Japan Mini LP Edition, WPCR-25106}\08 - Body and Soul [Alternate Take].wav

Pre-gap length 0:00:06.14

Peak level 100.0 %
Track quality 100.0 %
Test CRC F3A08646
Copy CRC F3A08646
Track not present in AccurateRip database
Copy OK


7 track(s) accurately ripped
1 track(s) not present in the AccurateRip database

Some tracks could not be verified as accurate

No errors occurred

End of status report


John Coltrane - 8 Atlantic Album Collection (1959-61) [8CD] {2006 Japan Mini LP 24-bit Remaster} [combined repost]

John Coltrane - 8 Atlantic Album Collection (1959-61) [8CD] {2006 Japan Mini LP 24-bit Remaster} [combined repost]



––––––––––––––––––––––
John Coltrane - 8 Atlantic Album Collection (1959-61) [8CD] {2006 Japan Mini LP 24-bit Remaster} [combined repost]

John Coltrane - Ole Coltrane (1961) {2006 Japan Mini LP 24-bit Remaster}
EAC rip (secure mode) | FLAC+CUE+LOG -> 345 Mb | MP3 @320 -> 115 Mb
Full Artwork @ 300 dpi (jpg) -> 8 Mb | 5% repair rar | 24-bit remaster
© 2006 Atlantic / Warner Music Japan | WPCR-25107

The complicated rhythm patterns and diverse sonic textures on Olé are evidence that John Coltrane was once again charting his own course. His sheer ability as a maverick – over and beyond his appreciable musical skills – guides works such as this to new levels, ultimately advancing the entire art form. Historically, it's worth noting that recording had already commenced – two days prior to this session – on Africa/Brass, Coltrane's debut for the burgeoning Impulse! label. The two discs complement each other, suggesting a shift in the larger scheme of Coltrane's musical motifs. The assembled musicians worked within a basic quartet setting, featuring Coltrane (soprano/tenor sax), McCoy Tyner (piano), and Elvin Jones (drums), with double-bass chores held down by Art Davis and Reggie Workman. Added to that are significant contributions and interactions with Freddie Hubbard (trumpet) and Eric Dolphy (flute and alto sax). Dolphy's contract with another record label prevented him from being properly credited on initial pressings of the album. The title track is striking in its resemblance to the Spanish influence heard on Miles Davis' Sketches of Spain. This is taken a bit further as Coltrane's combo stretches out with inspired improvisations from Dolphy, Hubbard, Tyner, and Coltrane, respectively. "Olé" likewise sports some amazing double-bass interaction. The combination of a bowed upright bass played in tandem with the same instrument that is being plucked has a sinister permeation that assuredly excited Coltrane, who was perpetually searching from outside the norms. The haunting beauty of "Aisha" stands as one of the finest collaborative efforts between Tyner – the song's author – and Coltrane. The solos from Hubbard, Dolphy, and an uncredited Tyner gleam from within the context of a single facet in a multi-dimensional jewel.

Personnel: John Coltrane (soprano & tenor saxophones); Eric Dolphy (alto saxophone, flute); Freddie Hubbard (trumpet); McCoy Tyner (piano); Reggie Workman, Art Davis (bass); Elvin Jones (drums).

tracklist:
01. Ole
02. Dahomey Dance
03. Aisha
04. Original Untitled Ballad (To Her Ladyship) [bonus track]

Exact Audio Copy V0.99 prebeta 5 from 4. May 2009

EAC extraction logfile from 8. July 2010, 7:55

John Coltrane / Ole Coltrane

Used drive : TSSTcorpCD/DVDW TS-H552L Adapter: 3 ID: 0

Read mode : Secure
Utilize accurate stream : Yes
Defeat audio cache : Yes
Make use of C2 pointers : No

Read offset correction : 6
Overread into Lead-In and Lead-Out : No
Fill up missing offset samples with silence : Yes
Delete leading and trailing silent blocks : No
Null samples used in CRC calculations : Yes
Used interface : Native Win32 interface for Win NT & 2000
Gap handling : Appended to previous track

Used output format : User Defined Encoder
Selected bitrate : 1024 kBit/s
Quality : High
Add ID3 tag : No
Command line compressor : C:\Program Files\FLAC\flac.exe
Additional command line options : -6 -V -T "ARTIST=%a" -T "TITLE=%t" -T "ALBUM=%g" -T "DATE=%y" -T "TRACKNUMBER=%n" -T "GENRE=%m" -T "COMMENT=EAC FLAC -6" %s


TOC of the extracted CD

Track | Start | Length | Start sector | End sector
––––––––––––––––––––––––––––-
1 | 0:00.00 | 18:19.18 | 0 | 82442
2 | 18:19.18 | 10:52.51 | 82443 | 131393
3 | 29:11.69 | 7:45.13 | 131394 | 166281
4 | 36:57.07 | 9:00.33 | 166282 | 206814


Track 1

Filename C:\John Coltrane - Ole Coltrane (1961) {2006 Japan Mini LP Edition, WPCR-25107}\01 - Ole.wav

Pre-gap length 0:00:02.00

Peak level 100.0 %
Track quality 100.0 %
Test CRC E4190A8B
Copy CRC E4190A8B
Accurately ripped (confidence 4) [34ACEF49]
Copy OK

Track 2

Filename C:\John Coltrane - Ole Coltrane (1961) {2006 Japan Mini LP Edition, WPCR-25107}\02 - Dahomey Dance.wav

Pre-gap length 0:00:05.73

Peak level 100.0 %
Track quality 100.0 %
Test CRC C20959D7
Copy CRC C20959D7
Accurately ripped (confidence 4) [FFD293C6]
Copy OK

Track 3

Filename C:\John Coltrane - Ole Coltrane (1961) {2006 Japan Mini LP Edition, WPCR-25107}\03 - Aisha.wav

Pre-gap length 0:00:02.40

Peak level 100.0 %
Track quality 100.0 %
Test CRC 050D62F5
Copy CRC 050D62F5
Accurately ripped (confidence 4) [9B9257C2]
Copy OK

Track 4

Filename C:\John Coltrane - Ole Coltrane (1961) {2006 Japan Mini LP Edition, WPCR-25107}\04 - Original Untitled Ballad (To Her Ladyship) [bonus track].wav

Pre-gap length 0:00:07.27

Peak level 100.0 %
Track quality 100.0 %
Test CRC FDC8E723
Copy CRC FDC8E723
Accurately ripped (confidence 4) [B411D395]
Copy OK


All tracks accurately ripped

No errors occurred

End of status report


John Coltrane - 8 Atlantic Album Collection (1959-61) [8CD] {2006 Japan Mini LP 24-bit Remaster} [combined repost]

John Coltrane - 8 Atlantic Album Collection (1959-61) [8CD] {2006 Japan Mini LP 24-bit Remaster} [combined repost]



–––––––––––––––––––––
John Coltrane - 8 Atlantic Album Collection (1959-61) [8CD] {2006 Japan Mini LP 24-bit Remaster} [combined repost]

Milt Jackson & John Coltrane - Bags & Trane (1959) {2006 Japan Mini LP 24-bit Remaster}
EAC rip (secure mode) | FLAC+CUE+LOG -> 405 Mb | MP3 @320 -> 142 Mb
Full Artwork @ 300 dpi (jpg) -> 9 Mb | 5% repair rar | 24-bit remaster
© 2006 Atlantic / Warner Music Japan | WPCR-25108

Vibraphonist Milt Jackson and tenor saxophonist John Coltrane make for a surprisingly complementary team on this 1959 studio session, their only joint recording. With fine backup by pianist Hank Jones, bassist Paul Chambers, and drummer Connie Kay, Bags and Trane stretch out on two of Jackson's originals (including "The Late Late Blues") and three standards: a romping "Three Little Words," "The Night We Called It a Day," and the rapid "Be-Bop."

Personnel: John Coltrane (tenor saxophone); Milt Jackson (vibraphone); Hank Jones (piano); Paul Chambers (bass); Connie Kay (drums).

tracklist:
01. Bags & Trane
02. Three Little Words
03. The Night We Called It A Day
04. Be-Bop
05. The Late Late Blues
06. Stairways To The Stars (alternate take)
07. Blues Legacy (alternate take)
08. Centerpiece (alternate take)

Exact Audio Copy V0.99 prebeta 5 from 4. May 2009

EAC extraction logfile from 4. July 2010, 17:28

Milt Jackson & John Coltrane / Bags & Trane

Used drive : TSSTcorpCD/DVDW TS-H552L Adapter: 3 ID: 0

Read mode : Secure
Utilize accurate stream : Yes
Defeat audio cache : Yes
Make use of C2 pointers : No

Read offset correction : 6
Overread into Lead-In and Lead-Out : No
Fill up missing offset samples with silence : Yes
Delete leading and trailing silent blocks : No
Null samples used in CRC calculations : Yes
Used interface : Native Win32 interface for Win NT & 2000
Gap handling : Appended to previous track

Used output format : User Defined Encoder
Selected bitrate : 1024 kBit/s
Quality : High
Add ID3 tag : No
Command line compressor : C:\Program Files\FLAC\flac.exe
Additional command line options : -6 -V -T "ARTIST=%a" -T "TITLE=%t" -T "ALBUM=%g" -T "DATE=%y" -T "TRACKNUMBER=%n" -T "GENRE=%m" -T "COMMENT=EAC FLAC -6" %s


TOC of the extracted CD

Track | Start | Length | Start sector | End sector
––––––––––––––––––––––––––––-
1 | 0:00.00 | 7:29.57 | 0 | 33731
2 | 7:29.57 | 7:32.54 | 33732 | 67685
3 | 15:02.36 | 4:25.56 | 67686 | 87616
4 | 19:28.17 | 8:02.32 | 87617 | 123798
5 | 27:30.49 | 9:43.58 | 123799 | 167581
6 | 37:14.32 | 3:33.26 | 167582 | 183582
7 | 40:47.58 | 9:03.16 | 183583 | 224323
8 | 49:50.74 | 7:06.55 | 224324 | 256328


Track 1

Filename C:\Milt Jackson & John Coltrane - Bags & Trane (1959) {2006 Japan Mini LP Edition, WPCR-25108}\01 - Bags & Trane.wav

Pre-gap length 0:00:02.00

Peak level 100.0 %
Track quality 100.0 %
Test CRC 0CA7C8D7
Copy CRC 0CA7C8D7
Accurately ripped (confidence 1) [3F09E455]
Copy OK

Track 2

Filename C:\Milt Jackson & John Coltrane - Bags & Trane (1959) {2006 Japan Mini LP Edition, WPCR-25108}\02 - Three Little Words.wav

Pre-gap length 0:00:03.15

Peak level 100.0 %
Track quality 100.0 %
Test CRC 03E7827C
Copy CRC 03E7827C
Accurately ripped (confidence 1) [5FA75C27]
Copy OK

Track 3

Filename C:\Milt Jackson & John Coltrane - Bags & Trane (1959) {2006 Japan Mini LP Edition, WPCR-25108}\03 - The Night We Called It A Day.wav

Pre-gap length 0:00:02.30

Peak level 100.0 %
Track quality 100.0 %
Test CRC ED212154
Copy CRC ED212154
Accurately ripped (confidence 1) [ADD9949C]
Copy OK

Track 4

Filename C:\Milt Jackson & John Coltrane - Bags & Trane (1959) {2006 Japan Mini LP Edition, WPCR-25108}\04 - Be-Bop.wav

Pre-gap length 0:00:04.20

Peak level 100.0 %
Track quality 100.0 %
Test CRC 7E40063B
Copy CRC 7E40063B
Accurately ripped (confidence 1) [56008AF0]
Copy OK

Track 5

Filename C:\Milt Jackson & John Coltrane - Bags & Trane (1959) {2006 Japan Mini LP Edition, WPCR-25108}\05 - The Late Late Blues.wav

Pre-gap length 0:00:02.54

Peak level 100.0 %
Track quality 99.9 %
Test CRC 14086248
Copy CRC 14086248
Accurately ripped (confidence 1) [74EC9E6F]
Copy OK

Track 6

Filename C:\Milt Jackson & John Coltrane - Bags & Trane (1959) {2006 Japan Mini LP Edition, WPCR-25108}\06 - Stairway To The Stars (alternate take).wav

Pre-gap length 0:00:06.26

Peak level 89.1 %
Track quality 100.0 %
Test CRC E9B3B88A
Copy CRC E9B3B88A
Accurately ripped (confidence 1) [C8EC7A37]
Copy OK

Track 7

Filename C:\Milt Jackson & John Coltrane - Bags & Trane (1959) {2006 Japan Mini LP Edition, WPCR-25108}\07 - Blues Legacy (alternate take).wav

Pre-gap length 0:00:05.15

Peak level 89.1 %
Track quality 100.0 %
Test CRC F2CBDEA3
Copy CRC F2CBDEA3
Accurately ripped (confidence 1) [AD49E643]
Copy OK

Track 8

Filename C:\Milt Jackson & John Coltrane - Bags & Trane (1959) {2006 Japan Mini LP Edition, WPCR-25108}\08 - Centerpiece (alternate take).wav

Pre-gap length 0:00:01.31

Peak level 89.0 %
Track quality 100.0 %
Test CRC 27F46D32
Copy CRC 27F46D32
Accurately ripped (confidence 1) [2A90A661]
Copy OK


All tracks accurately ripped

No errors occurred

End of status report


John Coltrane - 8 Atlantic Album Collection (1959-61) [8CD] {2006 Japan Mini LP 24-bit Remaster} [combined repost]

John Coltrane - 8 Atlantic Album Collection (1959-61) [8CD] {2006 Japan Mini LP 24-bit Remaster} [combined repost]


All thanks goes to the original releasers!


John Coltrane - Giant Steps (1959) {2006 Japan Mini LP 24-bit Remaster}

UPLOADED Linkz

BITSHARE Linkz



John Coltrane - Coltrane Jazz (1960) {2006 Japan Mini LP 24-bit Remaster}

UPLOADED Linkz

BITSHARE Linkz



John Coltrane & Don Cherry - The Avant-Garde (1960) {2006 Japan Mini LP 24-bit Remaster}

UPLOADED Linkz

BITSHARE Linkz



John Coltrane - My Favorite Things (1961) {2006 Japan Mini LP 24-bit Remaster}

UPLOADED Linkz

BITSHARE Linkz



John Coltrane - Coltrane Plays The Blues (1960) {2006 Japan Mini LP 24-bit Remaster}

UPLOADED Linkz

BITSHARE Linkz



John Coltrane - Coltrane's Sound (1960) {2006 Japan Mini LP 24-bit Remaster}

UPLOADED Linkz

BITSHARE Linkz



John Coltrane - Ole Coltrane (1961) {2006 Japan Mini LP 24-bit Remaster}

UPLOADED Linkz

BITSHARE Linkz



Milt Jackson & John Coltrane - Bags & Trane (1959) {2006 Japan Mini LP 24-bit Remaster}

UPLOADED Linkz

BITSHARE Linkz