Tags
Language
Tags

John Coltrane - Chasing Trane: The John Coltrane Documentary (Original Soundtrack) (2017)

Posted By: delpotro
John Coltrane - Chasing Trane: The John Coltrane Documentary  (Original Soundtrack) (2017)

John Coltrane - Chasing Trane: The John Coltrane Documentary (Original Soundtrack) (2017)
EAC Rip | FLAC (tracks+log+.cue) - 460 Mb | MP3 CBR 320 kbps - 172 Mb | 01:15:03
Jazz, Soundtrack | Label: Universal Music

This soundtrack features 11 tracks from the film, Chasing Trane: The John Coltrane Documentary. Set against the social, political & cultural landscape of the time, it brings saxophone great John Coltrane to life, as a man & an artist.

AllMusic Review by Matt Collar:
If you asked someone to make you a single-disc mixtape of legendary jazz saxophonist John Coltrane's most important recordings, focused on both his creative innovations and abiding spirituality, you'd probably get something akin to the soundtrack to the 2017's Chasing Trane: The John Coltrane Documentary. Directed by acclaimed documentarian John Scheinfeld (Who Is Harry Nilsson…?, The U.S. vs. John Lennon), Chasing Trane attempts to encompass Coltrane's life and career, from his early days as a freelance bebop musician in Philadelphia to his transformation into a deeply spiritual, avant-garde-influenced jazz giant. Not surprisingly, the soundtrack feels thoughtfully curated and while not exhaustive, offers a succinct portrait of the saxophonist. Rather than putting tracks in chronological order, here we get a more narrative structure with Coltrane's most indelible moments presented in a timely and emotionally gratifying manner. Fittingly, Scheinfeld and producer Harry Weinger kick things off dramatically with what is arguably Coltrane's most important recording, 1965's landmark "A Love Supreme, Pt. 1: Acknowledgment" off A Love Supreme. From there, they move backward to his propulsively swinging rendition of Irving Berlin's "Russian Lullaby," off 1958's Soultrane, and later, they go forward again to his visceral rumination on the 1963 racially motivated bombing of the 16th Street Baptist Church, "Alabama," off 1964's Live at Birdland. We also get such essential recordings as 1958's "Moment's Notice," 1960's "Giant Steps," and 1961's "My Favorite Things." Admittedly, several essential sides are missing, including "Blue Train," "Central Park West," "Equinox," and "Naima," not to mention anything Coltrane recorded with Miles Davis. While these omissions mean that Chasing Trane is by no means a definitive collection, it isn't intended to be, and instead offers a moving portrait of Coltrane's ascension into jazz mythology.
Tracklist:
1. A Love Supreme Part 1 - Acknowledgement
2. Russian Lullaby
3. Trane's Slo Blues
4. Giant Steps
5. My Favorite Things Pt 1
6. My One And Only Love
7. Alabama
8. After The Rain
9. Moment's Notice
10. I Want To Talk About You (Live)
11. Chasin' The Trane (Live)

Exact Audio Copy V1.0 beta 3 from 29. August 2011

EAC extraction logfile from 28. June 2018, 21:09

John Coltrane / Chasing Trane (Soundtrack)

Used drive : PIONEER BD-RW BDR-209M Adapter: 0 ID: 0

Read mode : Secure
Utilize accurate stream : Yes
Defeat audio cache : Yes
Make use of C2 pointers : No

Read offset correction : 667
Overread into Lead-In and Lead-Out : No
Fill up missing offset samples with silence : Yes
Delete leading and trailing silent blocks : No
Null samples used in CRC calculations : Yes
Used interface : Installed external ASPI interface
Gap handling : Appended to previous track

Used output format : User Defined Encoder
Selected bitrate : 1024 kBit/s
Quality : High
Add ID3 tag : No
Command line compressor : C:\Program Files (x86)\Exact Audio Copy\FLAC\FLAC.EXE
Additional command line options : -8 -V -T "ARTIST=%artist%" -T "TITLE=%title%" -T "ALBUM=%albumtitle%" -T "DATE=%year%" -T "TRACKNUMBER=%tracknr%" -T "GENRE=%genre%" -T "PERFORMER=%albuminterpret%" -T "COMPOSER=%composer%" %haslyrics%–tag-from-file=LYRICS="%lyricsfile%"%haslyrics% -T "ALBUMARTIST=%albumartist%" -T "DISCNUMBER=%cdnumber%" -T "TOTALDISCS=%totalcds%" -T "TOTALTRACKS=%numtracks%" -T "COMMENT=%comment%" %source% -o %dest%


TOC of the extracted CD

Track | Start | Length | Start sector | End sector
––––––––––––––––––––––––––––-
1 | 0:00.00 | 7:47.06 | 0 | 35030
2 | 7:47.06 | 5:37.14 | 35031 | 60319
3 | 13:24.20 | 6:07.27 | 60320 | 87871
4 | 19:31.47 | 4:47.03 | 87872 | 109399
5 | 24:18.50 | 2:44.22 | 109400 | 121721
6 | 27:02.72 | 4:57.18 | 121722 | 144014
7 | 32:00.15 | 5:11.61 | 144015 | 167400
8 | 37:12.01 | 4:13.23 | 167401 | 186398
9 | 41:25.24 | 9:11.23 | 186399 | 227746
10 | 50:36.47 | 8:18.54 | 227747 | 265150
11 | 58:55.26 | 16:08.26 | 265151 | 337776


Track 1

Filename C:\eac\01 A Love Supreme Part 1 - Acknowledgement.wav

Pre-gap length 0:00:02.00

Peak level 94.0 %
Extraction speed 5.2 X
Track quality 99.9 %
Test CRC A6E49790
Copy CRC A6E49790
Accurately ripped (confidence 4) [BC1F583E] (AR v2)
Copy OK

Track 2

Filename C:\eac\02 Russian Lullaby.wav

Peak level 88.3 %
Extraction speed 6.1 X
Track quality 100.0 %
Test CRC F263C908
Copy CRC F263C908
Accurately ripped (confidence 4) [11B1E415] (AR v2)
Copy OK

Track 3

Filename C:\eac\03 Trane's Slo Blues.wav

Peak level 87.8 %
Extraction speed 6.7 X
Track quality 100.0 %
Test CRC BB4D174B
Copy CRC BB4D174B
Accurately ripped (confidence 4) [20D324AB] (AR v2)
Copy OK

Track 4

Filename C:\eac\04 Giant Steps.wav

Peak level 92.2 %
Extraction speed 7.0 X
Track quality 100.0 %
Test CRC C6DD942E
Copy CRC C6DD942E
Accurately ripped (confidence 4) [ADA10F2C] (AR v2)
Copy OK

Track 5

Filename C:\eac\05 My Favorite Things Pt. 1 (Single Version).wav

Peak level 84.3 %
Extraction speed 6.7 X
Track quality 100.0 %
Test CRC C3272898
Copy CRC C3272898
Accurately ripped (confidence 4) [D2B7DF7A] (AR v2)
Copy OK

Track 6

Filename C:\eac\06 My One And Only Love (feat. Johnny Hartman).wav

Peak level 92.0 %
Extraction speed 7.6 X
Track quality 100.0 %
Test CRC 8D0F63B8
Copy CRC 8D0F63B8
Accurately ripped (confidence 4) [1B486EF7] (AR v2)
Copy OK

Track 7

Filename C:\eac\07 Alabama.wav

Peak level 98.2 %
Extraction speed 8.0 X
Track quality 100.0 %
Test CRC FD8E18F6
Copy CRC FD8E18F6
Accurately ripped (confidence 4) [D41AB0B9] (AR v2)
Copy OK

Track 8

Filename C:\eac\08 After The Rain.wav

Peak level 98.1 %
Extraction speed 7.0 X
Track quality 99.9 %
Test CRC 96F86697
Copy CRC 96F86697
Accurately ripped (confidence 4) [7ED17CC5] (AR v2)
Copy OK

Track 9

Filename C:\eac\09 Moment's Notice.wav

Peak level 100.0 %
Extraction speed 9.0 X
Track quality 100.0 %
Test CRC AD2AC8E6
Copy CRC AD2AC8E6
Accurately ripped (confidence 4) [688B415B] (AR v2)
Copy OK

Track 10

Filename C:\eac\10 I Want To Talk About You (Live).wav

Peak level 93.6 %
Extraction speed 9.3 X
Track quality 100.0 %
Test CRC 7986A502
Copy CRC 7986A502
Accurately ripped (confidence 4) [FABD4EEF] (AR v2)
Copy OK

Track 11

Filename C:\eac\11 Chasin' The Trane (Live).wav

Peak level 93.0 %
Extraction speed 10.4 X
Track quality 100.0 %
Test CRC 7C1D1D43
Copy CRC 7C1D1D43
Accurately ripped (confidence 4) [5B606D25] (AR v2)
Copy OK


All tracks accurately ripped

No errors occurred

End of status report

==== Log checksum 47BF38A1ACA15E4EAEDCB96BA517E1E787622BA2E921D2DD615314C026DBEADD ====

Thanks to the Original ripper Alvinho1956 !