Subcategories

John Coltrane - Complete Live In Stuttgart 1963 {2010 Domino}

Posted By: ruskaval
John Coltrane - Complete Live In Stuttgart 1963 {2010 Domino}

John Coltrane - Complete Live In Stuttgart 1963 {2010 Domino}
XLD rip | FLAC (tracks)+CUE+LOG -> 743 Mb | MP3 @320 -> 315 Mb
Full Artwork (png) -> 39 Mb | 5% repair rar
© 2010 Domino | 891205
Jazz / Modal Music / Saxophone

The classic John Coltrane Quartet’s complete long unavailable concert in Stuttgart on November 3, 1963, for the first time ever on a single set. Two of the songs, “Impressions” and “Mr. P.C.”, totaling more than an hour of music, have never previously appeared in any format. We have completed this set with the only known track (also previously unissued) from the concert given by the same formation at Salle Pleyel, in Paris, two days before the Stuttgart performance.
John Coltrane - Complete Live In Stuttgart 1963 {2010 Domino}

By 1962, the John Coltrane Quartet with McCoy Tyner, Jimmy Garrison and Elvin Jones was a solid musical unit. For a while, in 1961 and early 1962, the quartet evolved into a quintet with the addition of reedman Eric Dolphy. This quintet (with Reggie Workman on bass) had visited Europe in November 1961. In mid-November 1962, the quartet (minus Dolphy; with Garrison on bass) began a new European tour. The same quartet would tour Europe again the following year. The 1963 tour took place right after Coltrane’s separation from his wife, Naima. Coltrane toured Europe without Naima in October/November 1963. Again, live recordings would be made, this time in Stockholm (October 22, 1963), Copenhagen (October 25), Paris (November 1), Berlin (November 2) & Stuttgart (November 4). This double set contains the complete Stuttgart performance, the last preserved concert from that 1963 tour. It was recorded at Stuttgart’s Liederhalle, where Coltrane had been recorded with Dolphy on November 29, 1961 (three tracks survive from that performance). The program was typical of Coltrane’s repertoire during that period, including extended versions of his own originals “Mr. P.C.” and “Impressions” (both of which were previously unissued), as well as readings of the oft-performed standards “Every Time We Say Goodbye”, “I Want to Know About You”, and his hit “My Favorite Things”. As a bonus, we have added another previously unissued performance, a reading of Coltrane’s own “Chasin’ the Trane” recorded by the same group at Salle Pleyel, in Paris, two days before the Stuttgart concert, on November 1, 1963.

Note: These performances were taken from non-professional tapes and, although the sound quality is very good throughout, some small imperfections may exist. Every effort has been made to correct them using modern technologies.

Personnel: John Coltrane (tenor and soprano sax); McCoy Tyner (piano); Jimmy Garrison (bass); Elvin Jones (drums).

tracklist:
CD1

01. The Promise
02. Afro-Blue
03. I Want to Talk About You
04. Impressions

CD2
01. My Favorite Things
02. Every Time We Say Goodbye
03. Mr. P.C.
04. Chasin' the Trane (Bonus Track)

John Coltrane - Complete Live In Stuttgart 1963 {2010 Domino}

X Lossless Decoder version 20121027 (142.1)

XLD extraction logfile from 2012-11-20 18:09:56 -0500

John Coltrane / Complete Live in Stuttgart 1963 (Bonus Track Version)

Used drive : HL-DT-ST DVDRW GX30N (revision RP09)

Ripper mode : XLD Secure Ripper
Disable audio cache : OK for the drive with a cache less than 1375KiB
Make use of C2 pointers : NO
Read offset correction : 6
Max retry count : 100
Gap status : Analyzed, Appended

TOC of the extracted CD
Track | Start | Length | Start sector | End sector
––––––––––––––––––––––––––––-
1 | 00:00:00 | 18:52:46 | 0 | 84945
2 | 18:52:46 | 06:04:11 | 84946 | 112256
3 | 24:56:57 | 35:37:02 | 112257 | 272533
4 | 60:33:59 | 05:27:42 | 272534 | 297100

AccurateRip Summary (DiscID: 000bb376-002f0841-320f7904)
Track 01 : OK (v2, confidence 3/3)
Track 02 : OK (v2, confidence 3/3)
Track 03 : OK (v2, confidence 3/3)
Track 04 : OK (v2, confidence 3/3)
->All tracks accurately ripped.

All Tracks
Album gain : -4.87 dB
Peak : 0.990784
Statistics
Read error : 0
Jitter error (maybe fixed) : 0
Retry sector count : 0
Damaged sector count : 0

Track 01
Filename : /Users/Kenny/Music/John Coltrane - Complete Live in Stuttgart 1963 (Bonus Track Version) (1963) [FLAC]/01 The Promise.flac
Pre-gap length : 00:02:00

Track gain : -4.63 dB
Peak : 0.775085
CRC32 hash (test run) : E0CEB2B4
CRC32 hash : E0CEB2B4
CRC32 hash (skip zero) : 63E14A62
AccurateRip v1 signature : C6A3D731
AccurateRip v2 signature : C4B6F76D
->Accurately ripped (v2, confidence 3/3)
Statistics
Read error : 0
Jitter error (maybe fixed) : 0
Retry sector count : 0
Damaged sector count : 0

Track 02
Filename : /Users/Kenny/Music/John Coltrane - Complete Live in Stuttgart 1963 (Bonus Track Version) (1963) [FLAC]/02 Afro-Blue.flac

Track gain : -5.52 dB
Peak : 0.937408
CRC32 hash (test run) : DC33052A
CRC32 hash : DC33052A
CRC32 hash (skip zero) : AF0E0ED3
AccurateRip v1 signature : D5911DF7
AccurateRip v2 signature : 43B7E6B5
->Accurately ripped (v2, confidence 3/3)
Statistics
Read error : 0
Jitter error (maybe fixed) : 0
Retry sector count : 0
Damaged sector count : 0

Track 03
Filename : /Users/Kenny/Music/John Coltrane - Complete Live in Stuttgart 1963 (Bonus Track Version) (1963) [FLAC]/03 I Want to Talk About You.flac

Track gain : -4.91 dB
Peak : 0.925934
CRC32 hash (test run) : ECFD83B6
CRC32 hash : ECFD83B6
CRC32 hash (skip zero) : 85731B8D
AccurateRip v1 signature : E016CF34
AccurateRip v2 signature : 59B02284
->Accurately ripped (v2, confidence 3/3)
Statistics
Read error : 0
Jitter error (maybe fixed) : 0
Retry sector count : 0
Damaged sector count : 0

Track 04
Filename : /Users/Kenny/Music/John Coltrane - Complete Live in Stuttgart 1963 (Bonus Track Version) (1963) [FLAC]/04 Impressions.flac

Track gain : -4.86 dB
Peak : 0.990784
CRC32 hash (test run) : B4C69818
CRC32 hash : B4C69818
CRC32 hash (skip zero) : 2C8F6A3E
AccurateRip v1 signature : 6AA3ABCD
AccurateRip v2 signature : 70FE1A4B
->Accurately ripped (v2, confidence 3/3)
Statistics
Read error : 0
Jitter error (maybe fixed) : 0
Retry sector count : 0
Damaged sector count : 0

No errors occurred

End of status report

X Lossless Decoder version 20121027 (142.1)

XLD extraction logfile from 2012-11-20 23:40:54 -0500

John Coltrane / Complete Live in Stuttgart 1963 (Bonus Track Version)

Used drive : HL-DT-ST DVDRW GX30N (revision RP09)

Ripper mode : XLD Secure Ripper
Disable audio cache : OK for the drive with a cache less than 1375KiB
Make use of C2 pointers : NO
Read offset correction : 6
Max retry count : 100
Gap status : Analyzed, Appended

TOC of the extracted CD
Track | Start | Length | Start sector | End sector
––––––––––––––––––––––––––––-
1 | 00:00:00 | 18:52:46 | 0 | 84945
2 | 18:52:46 | 06:04:11 | 84946 | 112256
3 | 24:56:57 | 35:37:02 | 112257 | 272533
4 | 60:33:59 | 05:27:42 | 272534 | 297100

AccurateRip Summary (DiscID: 000bb376-002f0841-320f7904)
Track 01 : OK (v2, confidence 3/3)
Track 02 : OK (v2, confidence 3/3)
Track 03 : OK (v2, confidence 3/3)
Track 04 : OK (v2, confidence 3/3)
->All tracks accurately ripped.

All Tracks
Album gain : -4.87 dB
Peak : 0.990784
Statistics
Read error : 0
Jitter error (maybe fixed) : 0
Retry sector count : 0
Damaged sector count : 0

Track 01
Filename : /Users/Kenny/Music/John Coltrane - Complete Live in Stuttgart 1963 (Bonus Track Version) (1963) [FLAC]/01 My Favorite Things.flac
Pre-gap length : 00:02:00

Track gain : -4.63 dB
Peak : 0.775085
CRC32 hash (test run) : E0CEB2B4
CRC32 hash : E0CEB2B4
CRC32 hash (skip zero) : 63E14A62
AccurateRip v1 signature : C6A3D731
AccurateRip v2 signature : C4B6F76D
->Accurately ripped (v2, confidence 3/3)
Statistics
Read error : 0
Jitter error (maybe fixed) : 0
Retry sector count : 0
Damaged sector count : 0

Track 02
Filename : /Users/Kenny/Music/John Coltrane - Complete Live in Stuttgart 1963 (Bonus Track Version) (1963) [FLAC]/02 Every Time We Say Goodbye.flac

Track gain : -5.52 dB
Peak : 0.937408
CRC32 hash (test run) : DC33052A
CRC32 hash : DC33052A
CRC32 hash (skip zero) : AF0E0ED3
AccurateRip v1 signature : D5911DF7
AccurateRip v2 signature : 43B7E6B5
->Accurately ripped (v2, confidence 3/3)
Statistics
Read error : 0
Jitter error (maybe fixed) : 0
Retry sector count : 0
Damaged sector count : 0

Track 03
Filename : /Users/Kenny/Music/John Coltrane - Complete Live in Stuttgart 1963 (Bonus Track Version) (1963) [FLAC]/03 Mr. P.C..flac

Track gain : -4.91 dB
Peak : 0.925934
CRC32 hash (test run) : ECFD83B6
CRC32 hash : ECFD83B6
CRC32 hash (skip zero) : 85731B8D
AccurateRip v1 signature : E016CF34
AccurateRip v2 signature : 59B02284
->Accurately ripped (v2, confidence 3/3)
Statistics
Read error : 0
Jitter error (maybe fixed) : 0
Retry sector count : 0
Damaged sector count : 0

Track 04
Filename : /Users/Kenny/Music/John Coltrane - Complete Live in Stuttgart 1963 (Bonus Track Version) (1963) [FLAC]/04 Chasin' The Trane.flac

Track gain : -4.86 dB
Peak : 0.990784
CRC32 hash (test run) : B4C69818
CRC32 hash : B4C69818
CRC32 hash (skip zero) : 2C8F6A3E
AccurateRip v1 signature : 6AA3ABCD
AccurateRip v2 signature : 70FE1A4B
->Accurately ripped (v2, confidence 3/3)
Statistics
Read error : 0
Jitter error (maybe fixed) : 0
Retry sector count : 0
Damaged sector count : 0

No errors occurred

End of status report


Thanks to Kenny!