Subcategories

John Coltrane - The Impulse! Albums: Volume One (2007) [5CD] {Verve Originals Series Remaster} [Repost]

Posted By: Hungry Mind
John Coltrane - The Impulse! Albums: Volume One (2007) [5CD] {Verve Originals Series Remaster} [Repost]

John Coltrane - The Impulse! Albums: Volume One (2007) [5CD] {Verve Originals Series Remaster}
EAC Rip | FLAC (tracks+.cue+log) - 1,20 GB | Scans TIFF - 471 MB | MP3 CBR 320 kbps (LAME 3.98) - 422 MB
Genre: jazz | RAR 5% Rec. | Label: Verve / Impulse! | 2007 Verve Originals

Each album newly remastered from the original master tapes. The set containing these five classic, influential John Coltrane albums: Africa/Brass (1961), Live At The Village Vanguard (1961), Coltrane (1962), Duke Ellington & John Coltrane (1962), Ballads (1962). If you like jazz and you don't own this then your a mug. Coltrane plays like a nutcase on this record. Coltrane is undoubtedly the scariest pair of lungs to ever touch a Sax. The whole album drags every emotion from your soul and creates something which will either make musicians hesitant to pick up their instruments or forever play with an unimaginable, inexplicable love for this insane thing called music.

John Coltrane - The Impulse! Albums: Volume One (2007) [5CD] {Verve Originals Series Remaster} [Repost]

John Coltrane - Africa/Brass (1961)
EAC Rip | FLAC (tracks+.cue+log) - 241 MB | Scans TIFF - 94 MB | MP3 CBR 320 kbps (LAME 3.98) - 81 MB
Genre: jazz | RAR 5% Rec. | Label: Verve / Impulse! | CAT # 48622 5 | 2007 Verve Originals

John Coltrane assembles a 20-piece band for these three songs. There's McCoy Tyner, Reggie Workman, Elvin Jones, and 16 others. It's heavy on brass, per the title, there are five french horns, for example. There are notable players like Eric Dolphy, Booker Little, Freddie Hubbard, and Julian Priester in the band, but the solos are by Coltrane, Tyner, or Jones. The orchestration was done by Coltrane, Tyner, and Dolphy. The liner notes say Dolphy did a lot of it, later it came out Tyner did more (though Dolphy was no longer around to argue the point). It's not really a big band in the Duke Ellington style, but with all of the horns, it's certainly a big band. "Africa" is perhaps the best Coltrane song which isn't on his "classic" albums. It's based on a steady, simple, bass and piano line, giving it a hypnotic, modal feel. The melody lines make the song stand out. "Greensleeves" has a catchy melody. It's very good, though Coltrane seems to be revisiting "My Favorite Things". "Blues Minor" doesn't have the greatest title, and its melody isn't particularily catchy. However, John Coltrane is playing saxophone, and McCoy Tyner plays a great piano solo. I don't know how this short, original version of the album compares to the longer, more expensive, complete version. It's a very interesting John Coltrane CD, the only "big band" album he led. I recommend it for all Coltrane fans.
John Coltrane - The Impulse! Albums: Volume One (2007) [5CD] {Verve Originals Series Remaster} [Repost]


ARTISTS
John Coltrane — soprano and tenor saxophone
Pat Patrick — baritone saxophone
Freddie Hubbard, Booker Little — trumpet
Britt Woodman — trombone
Julian Priester, Charles Greenlee, Carl Bowman — euphonium
Bill Barber — tuba
Garvin Bushell — piccolo, woodwinds
Julius Watkins, Jim Buffington, Bob Northern, Donald Corrado, Robert Swisshelm — French horn
Eric Dolphy — alto saxophone, bass clarinet, flute
McCoy Tyner — piano
Reggie Workman, Art Davis — bass
Elvin Jones — drums.

TRACKLIST
01. Africa
02. Greensleeves
03. Blues Minor

Exact Audio Copy V1.0 beta 3 from 29. August 2011

EAC extraction logfile from 7. November 2012, 20:18

John Coltrane / Africa/Brass

Used drive : ATAPI iHAS124 B Adapter: 4 ID: 0

Read mode : Secure
Utilize accurate stream : Yes
Defeat audio cache : Yes
Make use of C2 pointers : No

Read offset correction : 6
Overread into Lead-In and Lead-Out : No
Fill up missing offset samples with silence : Yes
Delete leading and trailing silent blocks : No
Null samples used in CRC calculations : Yes
Used interface : Native Win32 interface for Win NT & 2000
Gap handling : Appended to previous track

Used output format : User Defined Encoder
Selected bitrate : 1024 kBit/s
Quality : High
Add ID3 tag : No
Command line compressor : C:\Program Files (x86)\FLAC\flac.exe
Additional command line options : -8 -V -T "ARTIST=%artist%" -T "TITLE=%title%" -T "ALBUM=%albumtitle%" -T "DATE=%year%" -T "TRACKNUMBER=%tracknr%" -T "GENRE=%genre%" -T "PERFORMER=%albuminterpret%" -T "COMPOSER=%composer%" %haslyrics%–tag-from-file=LYRICS="%lyricsfile%"%haslyrics% -T "ALBUMARTIST=%albumartist%" -T "DISCNUMBER=%cdnumber%" -T "TOTALDISCS=%totalcds%" -T "TOTALTRACKS=%numtracks%" -T "COMMENT=%comment%" %source% -o %dest%


TOC of the extracted CD

Track | Start | Length | Start sector | End sector
––––––––––––––––––––––––––––-
1 | 0:00.00 | 16:28.42 | 0 | 74141
2 | 16:28.42 | 10:00.21 | 74142 | 119162
3 | 26:28.63 | 7:22.33 | 119163 | 152345


Track 1

Filename C:\EAC\John Coltrane {Impulse! Verve Originals}\01. Africa_Brass (1961)\01 - Africa.wav

Pre-gap length 0:00:02.00

Peak level 98.7 %
Extraction speed 6.7 X
Track quality 100.0 %
Test CRC FC154D40
Copy CRC FC154D40
Accurately ripped (confidence 5) [FA6C278D] (AR v2)
Copy OK

Track 2

Filename C:\EAC\John Coltrane {Impulse! Verve Originals}\01. Africa_Brass (1961)\02 - Greensleeves.wav

Pre-gap length 0:00:02.02

Peak level 98.6 %
Extraction speed 8.2 X
Track quality 100.0 %
Test CRC 1E0D57C9
Copy CRC 1E0D57C9
Accurately ripped (confidence 5) [FF5F70E1] (AR v2)
Copy OK

Track 3

Filename C:\EAC\John Coltrane {Impulse! Verve Originals}\01. Africa_Brass (1961)\03 - Blues Minor.wav

Pre-gap length 0:00:02.30

Peak level 97.2 %
Extraction speed 8.9 X
Track quality 100.0 %
Test CRC 116EC4F7
Copy CRC 116EC4F7
Accurately ripped (confidence 5) [42457887] (AR v2)
Copy OK


All tracks accurately ripped

No errors occurred

End of status report

==== Log checksum BD5DA2756600B4E83A3F4190933CB04563E1FCEA09162F22ED181A77765BB378 ====


John Coltrane - The Impulse! Albums: Volume One (2007) [5CD] {Verve Originals Series Remaster} [Repost]


––––––––––––––––––––––––––

John Coltrane - The Impulse! Albums: Volume One (2007) [5CD] {Verve Originals Series Remaster} [Repost]

John Coltrane - 'Live' At The Village Vanguard (1961)
EAC Rip | FLAC (tracks+.cue+log) - 286 MB | Scans TIFF - 96 MB | MP3 CBR 320 kbps (LAME 3.98) - 88 MB
Genre: jazz | RAR 5% Rec. | Label: Verve / Impulse! | CAT # 48625 6 | 2007 Verve Originals

This set documents the four-night stand by John Coltrane (sax) and his quintet at the Village Vanguard in New York City, November 1 – 5, 1961. Although these are not newly discovered tapes – as the majority of the selections have turned up on no less than five separate releases – their restoration is significant in assessing motifs in Coltrane's [read: multi-show] live appearances. Coltrane is accompanied by an all-star ensemble of Eric Dolphy (alto sax/bass clarinet), Garvin Bushell (oboe/contrabassoon), Ahmed Abdul-Malik (oud), McCoy Tyner (piano), Jimmy Garrison (bass), Reggie Workman (bass), Elvin Jones (drums), and Roy Haynes (drums). Their presence is as equally vital as Coltrane's – inspiring as well as informing the dimensions of improvisation.
John Coltrane - The Impulse! Albums: Volume One (2007) [5CD] {Verve Originals Series Remaster} [Repost]


ARTISTS
John Coltrane — saxophone
Eric Dolphy — bass clarinet
McCoy Tyner — piano
Reggie Workman — bass
Elvin Jones — drums

TRACKLIST
01. Spiritual
02. Softly as in A Morning Sunrise
03. Chasin' the Trane

Exact Audio Copy V1.0 beta 3 from 29. August 2011

EAC extraction logfile from 7. November 2012, 20:52

John Coltrane / 'Live' At The Village Vanguard

Used drive : ATAPI iHAS124 B Adapter: 4 ID: 0

Read mode : Secure
Utilize accurate stream : Yes
Defeat audio cache : Yes
Make use of C2 pointers : No

Read offset correction : 6
Overread into Lead-In and Lead-Out : No
Fill up missing offset samples with silence : Yes
Delete leading and trailing silent blocks : No
Null samples used in CRC calculations : Yes
Used interface : Native Win32 interface for Win NT & 2000
Gap handling : Appended to previous track

Used output format : User Defined Encoder
Selected bitrate : 1024 kBit/s
Quality : High
Add ID3 tag : No
Command line compressor : C:\Program Files (x86)\FLAC\flac.exe
Additional command line options : -8 -V -T "ARTIST=%artist%" -T "TITLE=%title%" -T "ALBUM=%albumtitle%" -T "DATE=%year%" -T "TRACKNUMBER=%tracknr%" -T "GENRE=%genre%" -T "PERFORMER=%albuminterpret%" -T "COMPOSER=%composer%" %haslyrics%–tag-from-file=LYRICS="%lyricsfile%"%haslyrics% -T "ALBUMARTIST=%albumartist%" -T "DISCNUMBER=%cdnumber%" -T "TOTALDISCS=%totalcds%" -T "TOTALTRACKS=%numtracks%" -T "COMMENT=%comment%" %source% -o %dest%


TOC of the extracted CD

Track | Start | Length | Start sector | End sector
––––––––––––––––––––––––––––-
1 | 0:00.00 | 13:49.55 | 0 | 62229
2 | 13:49.55 | 6:39.39 | 62230 | 92193
3 | 20:29.19 | 16:11.16 | 92194 | 165034


Track 1

Filename C:\EAC\John Coltrane {Impulse! Verve Originals}\02. 'Live' At The Village Vanguard (1961)\01 - Spiritual.wav

Pre-gap length 0:00:02.00

Peak level 96.7 %
Extraction speed 6.5 X
Track quality 100.0 %
Test CRC BB8D4BAD
Copy CRC BB8D4BAD
Accurately ripped (confidence 5) [E1AA7976] (AR v2)
Copy OK

Track 2

Filename C:\EAC\John Coltrane {Impulse! Verve Originals}\02. 'Live' At The Village Vanguard (1961)\02 - Softly As In A Morning Sunrise.wav

Peak level 98.3 %
Extraction speed 7.5 X
Track quality 100.0 %
Test CRC 3ED85927
Copy CRC 3ED85927
Accurately ripped (confidence 5) [7AFF559F] (AR v2)
Copy OK

Track 3

Filename C:\EAC\John Coltrane {Impulse! Verve Originals}\02. 'Live' At The Village Vanguard (1961)\03 - Chasin' The Trane.wav

Peak level 98.2 %
Extraction speed 9.1 X
Track quality 100.0 %
Test CRC E4FD03FA
Copy CRC E4FD03FA
Accurately ripped (confidence 5) [3A54FE54] (AR v2)
Copy OK


All tracks accurately ripped

No errors occurred

End of status report

==== Log checksum 116D41C0F7D4221EC3B6D9D4EB9CA85F5EF5E9B57FD82FA36CC4FA7A8B54F992 ====


John Coltrane - The Impulse! Albums: Volume One (2007) [5CD] {Verve Originals Series Remaster} [Repost]


–––––––––––––––––––––––––-

John Coltrane - The Impulse! Albums: Volume One (2007) [5CD] {Verve Originals Series Remaster} [Repost]

John Coltrane - Coltrane (1962)
EAC Rip | FLAC (tracks+.cue+log) - 288 MB | Scans TIFF - 91 MB | MP3 CBR 320 kbps (LAME 3.98) - 95 MB
Genre: jazz | RAR 5% Rec. | Label: Verve / Impulse! | CAT # 48628 7 | 2007 Verve Originals

Considered by many to be his finest single album, Coltrane finds John Coltrane displaying all of the exciting elements that sparked brilliance and allowed his fully formed instrumental voice to shine through in the most illuminating manner. On tenor saxophone, he's simply masterful, offering the burgeoning sheets of sound philosophy into endless weavings of melodic and tuneful displays of inventive, thoughtful, driven phrases. Coltrane also plays a bit of soprano saxophone as a primer for his more exploratory work to follow. Meanwhile, bassist Jimmy Garrison, drummer Elvin Jones, and especially the stellar McCoy Tyner have integrated their passionate dynamics into the inner whole of the quartet. The result is a most focused effort, a relatively popular session to both his fans or latecomers, with five selections that are brilliantly conceived and rendered. "Out of This World," at over 14 minutes in modal trim, is a powerful statement, stretched over Tyner's marvelous and deft chords, the churning rhythms conjured by Jones, and the vocal style Coltrane utilizes as he circles the wagons on this classic melody, including a nifty key change. "Tunji" is a mysterious, easily rendered piece in 4/4 which speaks to the spiritual path Coltrane tred, a bit riled up at times while Tyner remains serene. Hard bop is still in the back of their collective minds during "Miles' Mode," a sliver of a melody that jumps into jam mode in a free-for-all blowing session, while the converse is to be found in Mal Waldron's "Soul Eyes," the quintessential ballad and impressive here for the way Coltrane's holds notes, emotion, and expressive intellectuality. On soprano you can tell Coltrane is close to taking complete control of his newly found voicings, as a playful, jaunty "The Inch Worm" in 3/4 time is only slightly strained, but in which he finds complete communion with the others. Even more than any platitudes one can heap on this extraordinary recording, it historically falls between the albums Olé Coltrane and Impressions – completing a triad of studio efforts that are as definitive as anything Coltrane ever produced, and highly representative of him in his prime.
John Coltrane - The Impulse! Albums: Volume One (2007) [5CD] {Verve Originals Series Remaster} [Repost]


ARTISTS
John Coltrane (soprano saxophone, tenor saxophone)
McCoy Tyner (piano)
Elvin Jones (drums)
Jimmy Garrison (bass).

TRACKLIST
01. Out of This World
02. Soul Eyes
03. The Inch Worm
04. Tunji
05. Miles' Mode

Exact Audio Copy V1.0 beta 3 from 29. August 2011

EAC extraction logfile from 7. November 2012, 21:29

John Coltrane / Coltrane

Used drive : ATAPI iHAS124 B Adapter: 4 ID: 0

Read mode : Secure
Utilize accurate stream : Yes
Defeat audio cache : Yes
Make use of C2 pointers : No

Read offset correction : 6
Overread into Lead-In and Lead-Out : No
Fill up missing offset samples with silence : Yes
Delete leading and trailing silent blocks : No
Null samples used in CRC calculations : Yes
Used interface : Native Win32 interface for Win NT & 2000
Gap handling : Appended to previous track

Used output format : User Defined Encoder
Selected bitrate : 1024 kBit/s
Quality : High
Add ID3 tag : No
Command line compressor : C:\Program Files (x86)\FLAC\flac.exe
Additional command line options : -8 -V -T "ARTIST=%artist%" -T "TITLE=%title%" -T "ALBUM=%albumtitle%" -T "DATE=%year%" -T "TRACKNUMBER=%tracknr%" -T "GENRE=%genre%" -T "PERFORMER=%albuminterpret%" -T "COMPOSER=%composer%" %haslyrics%–tag-from-file=LYRICS="%lyricsfile%"%haslyrics% -T "ALBUMARTIST=%albumartist%" -T "DISCNUMBER=%cdnumber%" -T "TOTALDISCS=%totalcds%" -T "TOTALTRACKS=%numtracks%" -T "COMMENT=%comment%" %source% -o %dest%


TOC of the extracted CD

Track | Start | Length | Start sector | End sector
––––––––––––––––––––––––––––-
1 | 0:00.00 | 14:06.22 | 0 | 63471
2 | 14:06.22 | 5:26.53 | 63472 | 87974
3 | 19:33.00 | 6:19.33 | 87975 | 116432
4 | 25:52.33 | 6:33.24 | 116433 | 145931
5 | 32:25.57 | 7:31.69 | 145932 | 179825


Track 1

Filename C:\EAC\John Coltrane {Impulse! Verve Originals}\03. Coltrane (1962)\01 - Out Of This World.wav

Pre-gap length 0:00:02.00

Peak level 98.8 %
Extraction speed 6.5 X
Track quality 100.0 %
Test CRC 8EC96220
Copy CRC 8EC96220
Accurately ripped (confidence 6) [41E9354B] (AR v2)
Copy OK

Track 2

Filename C:\EAC\John Coltrane {Impulse! Verve Originals}\03. Coltrane (1962)\02 - Soul Eyes.wav

Pre-gap length 0:00:01.72

Peak level 98.2 %
Extraction speed 7.2 X
Track quality 100.0 %
Test CRC 3CB4E6A5
Copy CRC 3CB4E6A5
Accurately ripped (confidence 6) [874706C2] (AR v2)
Copy OK

Track 3

Filename C:\EAC\John Coltrane {Impulse! Verve Originals}\03. Coltrane (1962)\03 - The Inch Worm.wav

Pre-gap length 0:00:02.70

Peak level 98.8 %
Extraction speed 7.1 X
Track quality 99.9 %
Test CRC CF0808BC
Copy CRC CF0808BC
Accurately ripped (confidence 6) [85A475C4] (AR v2)
Copy OK

Track 4

Filename C:\EAC\John Coltrane {Impulse! Verve Originals}\03. Coltrane (1962)\04 - Tunji.wav

Pre-gap length 0:00:02.52

Peak level 98.6 %
Extraction speed 8.7 X
Track quality 100.0 %
Test CRC 1E9F59F2
Copy CRC 1E9F59F2
Accurately ripped (confidence 6) [45A5E492] (AR v2)
Copy OK

Track 5

Filename C:\EAC\John Coltrane {Impulse! Verve Originals}\03. Coltrane (1962)\05 - Miles' Mode.wav

Pre-gap length 0:00:01.92

Peak level 98.7 %
Extraction speed 9.4 X
Track quality 100.0 %
Test CRC E08E3777
Copy CRC E08E3777
Accurately ripped (confidence 6) [F61B434E] (AR v2)
Copy OK


All tracks accurately ripped

No errors occurred

End of status report

==== Log checksum 2050605531FBB50F362A2C2DA2A0D62347A7E033156093E5068C0FA9E0EC0B59 ====


John Coltrane - The Impulse! Albums: Volume One (2007) [5CD] {Verve Originals Series Remaster} [Repost]


––––––––––––––––––––––-

John Coltrane - The Impulse! Albums: Volume One (2007) [5CD] {Verve Originals Series Remaster} [Repost]

Duke Ellington & John Coltrane - Duke Ellington & John Coltrane (1962)
EAC Rip | FLAC (tracks+.cue+log) - 224 MB | Scans TIFF - 97 MB | MP3 CBR 320 kbps (LAME 3.98) - 82 MB
Genre: jazz | RAR 5% Rec. | Label: Verve / Impulse! | CAT # 48627 0 | 2007 Verve Originals

For this classic encounter, Duke Ellington "sat in" with the John Coltrane Quartet for a set dominated by Ellington's songs; some performances have his usual sidemen (bassist Aaron Bell and drummer Sam Woodyard) replacing Jimmy Garrison and Elvin Jones in the group. Although it would have been preferable to hear Coltrane play in the Duke Ellington orchestra instead of the other way around, the results are quite rewarding. Their version of "In a Sentimental Mood" is a high point, and such numbers as "Take the Coltrane," "Big Nick," and "My Little Brown Book" are quite memorable. Ellington always recognized talent, and Coltrane seemed quite happy to be recording with a fellow genius.
John Coltrane - The Impulse! Albums: Volume One (2007) [5CD] {Verve Originals Series Remaster} [Repost]


ARTISTS
Duke Ellington (piano)
John Coltrane (tenor & soprano saxophones)
Jimmy Garrison, Aaron Bell (bass)
Elvin Jones, Sam Woodyard (drums)

TRACKLIST
01. In a Sentimental Mood
02. Take the Coltrane
03. Big Nick
04. Stevie
05. My Little Brown Book
06. Angelica
07. The Feeling of Jazz

Exact Audio Copy V1.0 beta 3 from 29. August 2011

EAC extraction logfile from 7. November 2012, 21:57

Duke Ellington & John Coltrane / Duke Ellington & John Coltrane

Used drive : ATAPI iHAS124 B Adapter: 4 ID: 0

Read mode : Secure
Utilize accurate stream : Yes
Defeat audio cache : Yes
Make use of C2 pointers : No

Read offset correction : 6
Overread into Lead-In and Lead-Out : No
Fill up missing offset samples with silence : Yes
Delete leading and trailing silent blocks : No
Null samples used in CRC calculations : Yes
Used interface : Native Win32 interface for Win NT & 2000
Gap handling : Appended to previous track

Used output format : User Defined Encoder
Selected bitrate : 1024 kBit/s
Quality : High
Add ID3 tag : No
Command line compressor : C:\Program Files (x86)\FLAC\flac.exe
Additional command line options : -8 -V -T "ARTIST=%artist%" -T "TITLE=%title%" -T "ALBUM=%albumtitle%" -T "DATE=%year%" -T "TRACKNUMBER=%tracknr%" -T "GENRE=%genre%" -T "PERFORMER=%albuminterpret%" -T "COMPOSER=%composer%" %haslyrics%–tag-from-file=LYRICS="%lyricsfile%"%haslyrics% -T "ALBUMARTIST=%albumartist%" -T "DISCNUMBER=%cdnumber%" -T "TOTALDISCS=%totalcds%" -T "TOTALTRACKS=%numtracks%" -T "COMMENT=%comment%" %source% -o %dest%


TOC of the extracted CD

Track | Start | Length | Start sector | End sector
––––––––––––––––––––––––––––-
1 | 0:00.00 | 4:17.30 | 0 | 19304
2 | 4:17.30 | 4:44.65 | 19305 | 40669
3 | 9:02.20 | 4:30.69 | 40670 | 60988
4 | 13:33.14 | 4:25.20 | 60989 | 80883
5 | 17:58.34 | 5:22.22 | 80884 | 105055
6 | 23:20.56 | 5:58.73 | 105056 | 131978
7 | 29:19.54 | 5:29.74 | 131979 | 156727


Track 1

Filename C:\EAC\John Coltrane {Impulse! Verve Originals}\04. Duke Ellington & John Coltrane (1962)\01 - In A Sentimental Mood.wav

Pre-gap length 0:00:02.00

Peak level 98.3 %
Extraction speed 5.3 X
Track quality 100.0 %
Test CRC BCE57093
Copy CRC BCE57093
Accurately ripped (confidence 15) [54CBA88F] (AR v2)
Copy OK

Track 2

Filename C:\EAC\John Coltrane {Impulse! Verve Originals}\04. Duke Ellington & John Coltrane (1962)\02 - Take The Coltrane.wav

Pre-gap length 0:00:02.17

Peak level 98.3 %
Extraction speed 5.2 X
Track quality 99.9 %
Test CRC AC853B69
Copy CRC AC853B69
Accurately ripped (confidence 15) [73DB4463] (AR v2)
Copy OK

Track 3

Filename C:\EAC\John Coltrane {Impulse! Verve Originals}\04. Duke Ellington & John Coltrane (1962)\03 - Big Nick.wav

Pre-gap length 0:00:02.26

Peak level 98.3 %
Extraction speed 5.6 X
Track quality 99.9 %
Test CRC DC4164CF
Copy CRC DC4164CF
Accurately ripped (confidence 15) [73786E52] (AR v2)
Copy OK

Track 4

Filename C:\EAC\John Coltrane {Impulse! Verve Originals}\04. Duke Ellington & John Coltrane (1962)\04 - Stevie.wav

Pre-gap length 0:00:03.78

Peak level 98.2 %
Extraction speed 6.0 X
Track quality 99.9 %
Test CRC A1F43AA6
Copy CRC A1F43AA6
Accurately ripped (confidence 15) [3367ACA3] (AR v2)
Copy OK

Track 5

Filename C:\EAC\John Coltrane {Impulse! Verve Originals}\04. Duke Ellington & John Coltrane (1962)\05 - My Little Brown Book.wav

Pre-gap length 0:00:02.32

Peak level 98.3 %
Extraction speed 7.7 X
Track quality 100.0 %
Test CRC C27BC57B
Copy CRC C27BC57B
Accurately ripped (confidence 15) [D5164C0D] (AR v2)
Copy OK

Track 6

Filename C:\EAC\John Coltrane {Impulse! Verve Originals}\04. Duke Ellington & John Coltrane (1962)\06 - Angelica.wav

Pre-gap length 0:00:02.56

Peak level 98.2 %
Extraction speed 8.3 X
Track quality 100.0 %
Test CRC 3611E58A
Copy CRC 3611E58A
Accurately ripped (confidence 15) [54D2CC0E] (AR v2)
Copy OK

Track 7

Filename C:\EAC\John Coltrane {Impulse! Verve Originals}\04. Duke Ellington & John Coltrane (1962)\07 - The Feeling Of Jazz.wav

Pre-gap length 0:00:05.41

Peak level 98.3 %
Extraction speed 7.7 X
Track quality 99.9 %
Test CRC E537FB7C
Copy CRC E537FB7C
Accurately ripped (confidence 15) [DE664788] (AR v2)
Copy OK


All tracks accurately ripped

No errors occurred

End of status report

==== Log checksum 54AA3CF0B7FD885AF6E8AAD19D14A1C1DEF71EDBF917A68069DFF56EB30AD3FF ====


John Coltrane - The Impulse! Albums: Volume One (2007) [5CD] {Verve Originals Series Remaster} [Repost]


–––––––––––––––––––––––––––

John Coltrane - The Impulse! Albums: Volume One (2007) [5CD] {Verve Originals Series Remaster} [Repost]

John Coltrane - Ballads (1962)
EAC Rip | FLAC (tracks+.cue+log) - 197 MB | Scans TIFF - 94 MB | MP3 CBR 320 kbps (LAME 3.98) - 77 MB
Genre: jazz | RAR 5% Rec. | Label: Verve / Impulse! | CAT # 48620 1 | 2007 Verve Originals

Throughout John Coltrane's discography there are a handful of decisive and controversial albums that split his listening camp into factions. Generally, these occur in his later-period works such as Om and Ascension, which push into some pretty heady blowing. As a contrast, Ballads is often criticized as too easy and as too much of a compromise between Coltrane and Impulse! (the two had just entered into the first year of label representation). Seen as an answer to critics who found his work complicated with too many notes and too thin a concept, Ballads has even been accused of being a record that Coltrane didn't want to make. These conspiracy theories (and there are more) really just get in the way of enjoying a perfectly fine album of Coltrane doing what he always did – exploring new avenues and modes in an inexhaustible search for personal and artistic enlightenment. With Ballads he looks into the warmer side of things, a path he would take with both Johnny Hartman (on John Coltrane & Johnny Hartman) and with Duke Ellington (on Duke Ellington and John Coltrane). Here he lays out for McCoy Tyner mostly, and the results positively shimmer at times. He's not aggressive, and he's not outwardly. Instead he's introspective and at times even predictable, but that is precisely Ballads' draw.
John Coltrane - The Impulse! Albums: Volume One (2007) [5CD] {Verve Originals Series Remaster} [Repost]


ARTISTS
John Coltrane — saxophones
McCoy Tyner — piano
Jimmy Garrison — bass
Elvin Jones — drums

TRACKLIST
01. Say It (Over and Over Again)
02. You Don't Know What Love Is
03. Too Young to Go Steady
04. All or Nothing at All
05. I Wish I Knew
06. What's New
07. It's Easy to Remember
08. Nancy (With the Laughing Face)

Exact Audio Copy V1.0 beta 3 from 29. August 2011

EAC extraction logfile from 7. November 2012, 23:42

John Coltrane / Ballads

Used drive : ATAPI iHAS124 B Adapter: 4 ID: 0

Read mode : Secure
Utilize accurate stream : Yes
Defeat audio cache : Yes
Make use of C2 pointers : No

Read offset correction : 6
Overread into Lead-In and Lead-Out : No
Fill up missing offset samples with silence : Yes
Delete leading and trailing silent blocks : No
Null samples used in CRC calculations : Yes
Used interface : Native Win32 interface for Win NT & 2000
Gap handling : Appended to previous track

Used output format : User Defined Encoder
Selected bitrate : 1024 kBit/s
Quality : High
Add ID3 tag : No
Command line compressor : C:\Program Files (x86)\FLAC\flac.exe
Additional command line options : -8 -V -T "ARTIST=%artist%" -T "TITLE=%title%" -T "ALBUM=%albumtitle%" -T "DATE=%year%" -T "TRACKNUMBER=%tracknr%" -T "GENRE=%genre%" -T "PERFORMER=%albuminterpret%" -T "COMPOSER=%composer%" %haslyrics%–tag-from-file=LYRICS="%lyricsfile%"%haslyrics% -T "ALBUMARTIST=%albumartist%" -T "DISCNUMBER=%cdnumber%" -T "TOTALDISCS=%totalcds%" -T "TOTALTRACKS=%numtracks%" -T "COMMENT=%comment%" %source% -o %dest%


TOC of the extracted CD

Track | Start | Length | Start sector | End sector
––––––––––––––––––––––––––––-
1 | 0:00.00 | 4:18.26 | 0 | 19375
2 | 4:18.26 | 5:15.29 | 19376 | 43029
3 | 9:33.55 | 4:23.40 | 43030 | 62794
4 | 13:57.20 | 3:39.05 | 62795 | 79224
5 | 17:36.25 | 4:54.35 | 79225 | 101309
6 | 22:30.60 | 3:47.23 | 101310 | 118357
7 | 26:18.08 | 2:49.18 | 118358 | 131050
8 | 29:07.26 | 3:10.60 | 131051 | 145360


Track 1

Filename C:\EAC\John Coltrane {Impulse! Verve Originals}\05. Ballads (1962)\01 - Say It (Over And Over Again).wav

Pre-gap length 0:00:02.00

Peak level 98.3 %
Extraction speed 5.3 X
Track quality 100.0 %
Test CRC 125CC898
Copy CRC 125CC898
Accurately ripped (confidence 19) [5567FA66] (AR v2)
Copy OK

Track 2

Filename C:\EAC\John Coltrane {Impulse! Verve Originals}\05. Ballads (1962)\02 - You Don't Know What Love Is.wav

Pre-gap length 0:00:02.49

Peak level 97.0 %
Extraction speed 5.3 X
Track quality 99.9 %
Test CRC 4818A421
Copy CRC 4818A421
Accurately ripped (confidence 19) [F2D49819] (AR v2)
Copy OK

Track 3

Filename C:\EAC\John Coltrane {Impulse! Verve Originals}\05. Ballads (1962)\03 - Too Young To Go Steady.wav

Pre-gap length 0:00:02.93

Peak level 85.3 %
Extraction speed 6.6 X
Track quality 100.0 %
Test CRC 73E3ABF2
Copy CRC 73E3ABF2
Accurately ripped (confidence 19) [6EAC15A6] (AR v2)
Copy OK

Track 4

Filename C:\EAC\John Coltrane {Impulse! Verve Originals}\05. Ballads (1962)\04 - All Or Nothing At All.wav

Pre-gap length 0:00:02.48

Peak level 99.5 %
Extraction speed 6.8 X
Track quality 100.0 %
Test CRC 7B36A5CD
Copy CRC 7B36A5CD
Accurately ripped (confidence 19) [0F0DED77] (AR v2)
Copy OK

Track 5

Filename C:\EAC\John Coltrane {Impulse! Verve Originals}\05. Ballads (1962)\05 - I Wish I Knew.wav

Pre-gap length 0:00:03.90

Peak level 88.9 %
Extraction speed 6.5 X
Track quality 99.9 %
Test CRC D1D00BF5
Copy CRC D1D00BF5
Accurately ripped (confidence 19) [4F23BABC] (AR v2)
Copy OK

Track 6

Filename C:\EAC\John Coltrane {Impulse! Verve Originals}\05. Ballads (1962)\06 - What's New.wav

Pre-gap length 0:00:03.48

Peak level 99.5 %
Extraction speed 7.7 X
Track quality 100.0 %
Test CRC E1E024A4
Copy CRC E1E024A4
Accurately ripped (confidence 19) [ABB5323A] (AR v2)
Copy OK

Track 7

Filename C:\EAC\John Coltrane {Impulse! Verve Originals}\05. Ballads (1962)\07 - It's Easy To Remember.wav

Pre-gap length 0:00:02.84

Peak level 99.9 %
Extraction speed 7.6 X
Track quality 100.0 %
Test CRC 6F872E2E
Copy CRC 6F872E2E
Accurately ripped (confidence 19) [2C82CF77] (AR v2)
Copy OK

Track 8

Filename C:\EAC\John Coltrane {Impulse! Verve Originals}\05. Ballads (1962)\08 - Nancy (With The Laughing Face).wav

Pre-gap length 0:00:03.56

Peak level 69.3 %
Extraction speed 8.1 X
Track quality 100.0 %
Test CRC ED228202
Copy CRC ED228202
Accurately ripped (confidence 19) [68B305F3] (AR v2)
Copy OK


All tracks accurately ripped

No errors occurred

End of status report

==== Log checksum 90DC9C96F67A53F1E05129FAA1D11DF0F448B941BEF2CB04B543B76AD886BD60 ====


John Coltrane - The Impulse! Albums: Volume One (2007) [5CD] {Verve Originals Series Remaster} [Repost]


John Coltrane - The Impulse! Albums: Volume Two is coming soon………


John Coltrane - Africa/Brass (1961)


UPLOADED LINKS

BITSHARE LINKS

DEPOSITFILES LINKS



John Coltrane - 'Live' At The Village Vanguard (1961)


UPLOADED LINKS

BITSHARE LINKS

DEPOSITFILES LINKS



John Coltrane - Coltrane (1962)


UPLOADED LINKS

BITSHARE LINKS

DEPOSITFILES LINKS



Duke Ellington & John Coltrane - Duke Ellington & John Coltrane (1962)


UPLOADED LINKS

BITSHARE LINKS

DEPOSITFILES LINKS



John Coltrane - Ballads (1962)


UPLOADED LINKS

BITSHARE LINKS

DEPOSITFILES LINKS