Tags
Language
Tags

John Fahey - Christmas Guitar (1986) {Varrick--Rounder CDVR11503}

Posted By:
John Fahey - Christmas Guitar (1986) {Varrick--Rounder CDVR11503}

John Fahey - Christmas Guitar (1986) {Varrick–Rounder CDVR11503}
XLD rip (secure mode) | FLAC (tracks)+CUE+LOG -> 299 Mb | MP3 @320 -> 166 Mb
Full Artwork @ 300 dpi (png) -> 47 Mb | 5% repair rar
© 1986 Varrick / Rounder Records | CD VR 11503
Finger-Picked Guitar / Contemporary Folk / Folk Jazz / Folk-Blues / Progressive Folk

John Fahey is a visionary, an iconoclast, and a plain old American weirdo. He's also a brilliant acoustic guitarist, whose earnestness is matched only by his oblique sense of humor. These performances–ranging from the cheery "Joy to the World" and "We Three Kings" to the thoughtful "Bells of St. Mary's" and "In the Bleak Midwinter"–are pretty straightforward though. Some tend toward the academic, but all are quite beautiful in their own reserved way, making this the perfect unintrusive album for a quiet Christmas gathering or an evening by the hearth. The notoriously squirrely Fahey might be the last guy you'd invite over for eggnog, but you'd be foolish not to let his exquisite music into your home.

Personnel
John Fahey - guitar
Terry Robb - guitar (tracks: 10 - 17)

Track Listing
1. Joy To The World
2. What Child Is This
3. Medley: Hark The Herald Angels Sing, O Come All Ye Faithful
4. Auld Lang Syne
5. The Bells Of Saint Mary's
6. Good Christiam Men Rejoyce
7. We Three Kings Of Orient Are
8. Away In A Manger
9. God Rest Ye Merry Gentlemen Fantasy
10. Jolly Old Saint Nicholas
11. Santa Claus Is Coming To Town
12. The Skater's Waltz
13. The Christmas Song
14. Medley: Christmas Time's A-Coming, Rudolph The Red Nosed Reindeer
15. Medley: The Holly And The Ivy, The Cherry Tree Carol
16. Apple Blossom Time
17. White Christmas
18. The First Noel
19. Good King Wenceslas
20. Of The Father's Love Begotten
21. Away In A Manger
22. In The Bleak Midwinter
23. It Came Upon A Midnight Clear
24. Medley: Jesus, Won't You Come By Here, Go Tell It On The Mountain
25. Lo, How A Rose E'er Blooming
26. Silent Night, Holy Night

X Lossless Decoder version 20161007 (149.3)

XLD extraction logfile from 2017-04-06 16:00:41 -0400

John Fahey / Christmas Guitar

Used drive : (null) (null) (revision (null))
Media type : Pressed CD

Ripper mode : XLD Secure Ripper
Disable audio cache : OK for the drive with a cache less than 1375KiB
Make use of C2 pointers : NO
Read offset correction : 6
Max retry count : 100
Gap status : Analyzed, Appended (except HTOA)

TOC of the extracted CD
Track | Start | Length | Start sector | End sector
––––––––––––––––––––––––––––-
1 | 00:00:00 | 01:38:38 | 0 | 7387
2 | 01:38:38 | 03:26:00 | 7388 | 22837
3 | 05:04:38 | 04:32:00 | 22838 | 43237
4 | 09:36:38 | 02:10:00 | 43238 | 52987
5 | 11:46:38 | 02:24:00 | 52988 | 63787
6 | 14:10:38 | 01:21:00 | 63788 | 69862
7 | 15:31:38 | 01:52:00 | 69863 | 78262
8 | 17:23:38 | 01:25:00 | 78263 | 84637
9 | 18:48:38 | 03:00:00 | 84638 | 98137
10 | 21:48:38 | 01:45:00 | 98138 | 106012
11 | 23:33:38 | 02:46:37 | 106013 | 118499
12 | 26:20:00 | 03:58:38 | 118500 | 136387
13 | 30:18:38 | 02:27:00 | 136388 | 147412
14 | 32:45:38 | 04:09:37 | 147413 | 166124
15 | 36:55:00 | 02:16:38 | 166125 | 176362
16 | 39:11:38 | 01:39:00 | 176363 | 183787
17 | 40:50:38 | 01:45:00 | 183788 | 191662
18 | 42:35:38 | 03:56:00 | 191663 | 209362
19 | 46:31:38 | 01:08:00 | 209363 | 214462
20 | 47:39:38 | 01:28:00 | 214463 | 221062
21 | 49:07:38 | 02:34:00 | 221063 | 232612
22 | 51:41:38 | 01:54:00 | 232613 | 241162
23 | 53:35:38 | 03:04:00 | 241163 | 254962
24 | 56:39:38 | 03:28:00 | 254963 | 270562
25 | 60:07:38 | 01:53:00 | 270563 | 279037
26 | 62:00:38 | 03:14:00 | 279038 | 293587

AccurateRip Summary
Disc not found in AccurateRip DB.

All Tracks
Album gain : 8.14 dB
Peak : 0.497833
Statistics
Read error : 0
Jitter error (maybe fixed) : 0
Retry sector count : 0
Damaged sector count : 0

Track 01
Filename : /Volumes/Master/XLD Rips/John Fahey - Christmas Guitar [ALAC]/01 - Joy to the World.m4a
/Volumes/Master/XLD Rips/John Fahey - Christmas Guitar [FLAC]/01 - Joy to the World.flac
/Volumes/Master/XLD Rips/John Fahey - Christmas Guitar [MP3 320]/01 - Joy to the World.mp3
/Volumes/Master/XLD Rips/John Fahey - Christmas Guitar [MP3 V0]/01 - Joy to the World.mp3
/Volumes/Master/XLD Rips/John Fahey - Christmas Guitar [MP3 V2]/01 - Joy to the World.mp3
Pre-gap length : 00:02:00

Track gain : 9.94 dB
Peak : 0.272186
CRC32 hash (test run) : 75A258F6
CRC32 hash : 75A258F6
CRC32 hash (skip zero) : 7F71C64D
AccurateRip v1 signature : 3132A288
AccurateRip v2 signature : 36E62EA6
->Track not present in AccurateRip database.
Statistics
Read error : 0
Jitter error (maybe fixed) : 0
Retry sector count : 0
Damaged sector count : 0

Track 02
Filename : /Volumes/Master/XLD Rips/John Fahey - Christmas Guitar [ALAC]/02 - What Child Is This.m4a
/Volumes/Master/XLD Rips/John Fahey - Christmas Guitar [FLAC]/02 - What Child Is This.flac
/Volumes/Master/XLD Rips/John Fahey - Christmas Guitar [MP3 320]/02 - What Child Is This.mp3
/Volumes/Master/XLD Rips/John Fahey - Christmas Guitar [MP3 V0]/02 - What Child Is This.mp3
/Volumes/Master/XLD Rips/John Fahey - Christmas Guitar [MP3 V2]/02 - What Child Is This.mp3
Pre-gap length : 00:02:38

Track gain : 8.44 dB
Peak : 0.222382
CRC32 hash (test run) : B2D4373B
CRC32 hash : B2D4373B
CRC32 hash (skip zero) : 9C71FF0E
AccurateRip v1 signature : 6F5BF4C7
AccurateRip v2 signature : 5B706210
->Track not present in AccurateRip database.
Statistics
Read error : 0
Jitter error (maybe fixed) : 0
Retry sector count : 0
Damaged sector count : 0

Track 03
Filename : /Volumes/Master/XLD Rips/John Fahey - Christmas Guitar [ALAC]/03 - Medley: Hark the Herald Angels Sing/O Come All Ye Faithful.m4a
/Volumes/Master/XLD Rips/John Fahey - Christmas Guitar [FLAC]/03 - Medley: Hark the Herald Angels Sing/O Come All Ye Faithful.flac
/Volumes/Master/XLD Rips/John Fahey - Christmas Guitar [MP3 320]/03 - Medley: Hark the Herald Angels Sing/O Come All Ye Faithful.mp3
/Volumes/Master/XLD Rips/John Fahey - Christmas Guitar [MP3 V0]/03 - Medley: Hark the Herald Angels Sing/O Come All Ye Faithful.mp3
/Volumes/Master/XLD Rips/John Fahey - Christmas Guitar [MP3 V2]/03 - Medley: Hark the Herald Angels Sing/O Come All Ye Faithful.mp3
Pre-gap length : 00:04:00

Track gain : 11.29 dB
Peak : 0.226044
CRC32 hash (test run) : 589E0C4C
CRC32 hash : 589E0C4C
CRC32 hash (skip zero) : 69C0C0F2
AccurateRip v1 signature : B8F14AA1
AccurateRip v2 signature : BB787C49
->Track not present in AccurateRip database.
Statistics
Read error : 0
Jitter error (maybe fixed) : 0
Retry sector count : 0
Damaged sector count : 0

Track 04
Filename : /Volumes/Master/XLD Rips/John Fahey - Christmas Guitar [ALAC]/04 - Auld Lang Syne.m4a
/Volumes/Master/XLD Rips/John Fahey - Christmas Guitar [FLAC]/04 - Auld Lang Syne.flac
/Volumes/Master/XLD Rips/John Fahey - Christmas Guitar [MP3 320]/04 - Auld Lang Syne.mp3
/Volumes/Master/XLD Rips/John Fahey - Christmas Guitar [MP3 V0]/04 - Auld Lang Syne.mp3
/Volumes/Master/XLD Rips/John Fahey - Christmas Guitar [MP3 V2]/04 - Auld Lang Syne.mp3
Pre-gap length : 00:05:00

Track gain : 10.68 dB
Peak : 0.275055
CRC32 hash (test run) : 70D9FD4B
CRC32 hash : 70D9FD4B
CRC32 hash (skip zero) : 810D74EF
AccurateRip v1 signature : 5C2D6943
AccurateRip v2 signature : 848F0013
->Track not present in AccurateRip database.
Statistics
Read error : 0
Jitter error (maybe fixed) : 0
Retry sector count : 0
Damaged sector count : 0

Track 05
Filename : /Volumes/Master/XLD Rips/John Fahey - Christmas Guitar [ALAC]/05 - The Bells of Saint Mary's.m4a
/Volumes/Master/XLD Rips/John Fahey - Christmas Guitar [FLAC]/05 - The Bells of Saint Mary's.flac
/Volumes/Master/XLD Rips/John Fahey - Christmas Guitar [MP3 320]/05 - The Bells of Saint Mary's.mp3
/Volumes/Master/XLD Rips/John Fahey - Christmas Guitar [MP3 V0]/05 - The Bells of Saint Mary's.mp3
/Volumes/Master/XLD Rips/John Fahey - Christmas Guitar [MP3 V2]/05 - The Bells of Saint Mary's.mp3
Pre-gap length : 00:05:00

Track gain : 11.88 dB
Peak : 0.227966
CRC32 hash (test run) : D2101FC8
CRC32 hash : D2101FC8
CRC32 hash (skip zero) : 899651F5
AccurateRip v1 signature : F4DFCDDC
AccurateRip v2 signature : E980A517
->Track not present in AccurateRip database.
Statistics
Read error : 0
Jitter error (maybe fixed) : 0
Retry sector count : 0
Damaged sector count : 0

Track 06
Filename : /Volumes/Master/XLD Rips/John Fahey - Christmas Guitar [ALAC]/06 - Good Christian Men Rejoice.m4a
/Volumes/Master/XLD Rips/John Fahey - Christmas Guitar [FLAC]/06 - Good Christian Men Rejoice.flac
/Volumes/Master/XLD Rips/John Fahey - Christmas Guitar [MP3 320]/06 - Good Christian Men Rejoice.mp3
/Volumes/Master/XLD Rips/John Fahey - Christmas Guitar [MP3 V0]/06 - Good Christian Men Rejoice.mp3
/Volumes/Master/XLD Rips/John Fahey - Christmas Guitar [MP3 V2]/06 - Good Christian Men Rejoice.mp3
Pre-gap length : 00:05:00

Track gain : 9.52 dB
Peak : 0.203278
CRC32 hash (test run) : E4CD68CF
CRC32 hash : E4CD68CF
CRC32 hash (skip zero) : 1B9116B7
AccurateRip v1 signature : 1EACC6E5
AccurateRip v2 signature : 2182893E
->Track not present in AccurateRip database.
Statistics
Read error : 0
Jitter error (maybe fixed) : 0
Retry sector count : 0
Damaged sector count : 0

Track 07
Filename : /Volumes/Master/XLD Rips/John Fahey - Christmas Guitar [ALAC]/07 - We Three Kings of Orient Are.m4a
/Volumes/Master/XLD Rips/John Fahey - Christmas Guitar [FLAC]/07 - We Three Kings of Orient Are.flac
/Volumes/Master/XLD Rips/John Fahey - Christmas Guitar [MP3 320]/07 - We Three Kings of Orient Are.mp3
/Volumes/Master/XLD Rips/John Fahey - Christmas Guitar [MP3 V0]/07 - We Three Kings of Orient Are.mp3
/Volumes/Master/XLD Rips/John Fahey - Christmas Guitar [MP3 V2]/07 - We Three Kings of Orient Are.mp3
Pre-gap length : 00:04:00

Track gain : 9.22 dB
Peak : 0.273834
CRC32 hash (test run) : 2F23C308
CRC32 hash : 2F23C308
CRC32 hash (skip zero) : 6E1CEFA6
AccurateRip v1 signature : 67962C64
AccurateRip v2 signature : 1038EE33
->Track not present in AccurateRip database.
Statistics
Read error : 0
Jitter error (maybe fixed) : 0
Retry sector count : 0
Damaged sector count : 0

Track 08
Filename : /Volumes/Master/XLD Rips/John Fahey - Christmas Guitar [ALAC]/08 - Away in a Manger (1).m4a
/Volumes/Master/XLD Rips/John Fahey - Christmas Guitar [FLAC]/08 - Away in a Manger (1).flac
/Volumes/Master/XLD Rips/John Fahey - Christmas Guitar [MP3 320]/08 - Away in a Manger (1).mp3
/Volumes/Master/XLD Rips/John Fahey - Christmas Guitar [MP3 V0]/08 - Away in a Manger (1).mp3
/Volumes/Master/XLD Rips/John Fahey - Christmas Guitar [MP3 V2]/08 - Away in a Manger (1).mp3
Pre-gap length : 00:05:00

Track gain : 8.02 dB
Peak : 0.213776
CRC32 hash (test run) : 849E39BC
CRC32 hash : 849E39BC
CRC32 hash (skip zero) : E8F59CAD
AccurateRip v1 signature : 082F8B8C
AccurateRip v2 signature : 0FA33CC3
->Track not present in AccurateRip database.
Statistics
Read error : 0
Jitter error (maybe fixed) : 0
Retry sector count : 0
Damaged sector count : 0

Track 09
Filename : /Volumes/Master/XLD Rips/John Fahey - Christmas Guitar [ALAC]/09 - God Rest Ye Merry Gentlemen Fantasy.m4a
/Volumes/Master/XLD Rips/John Fahey - Christmas Guitar [FLAC]/09 - God Rest Ye Merry Gentlemen Fantasy.flac
/Volumes/Master/XLD Rips/John Fahey - Christmas Guitar [MP3 320]/09 - God Rest Ye Merry Gentlemen Fantasy.mp3
/Volumes/Master/XLD Rips/John Fahey - Christmas Guitar [MP3 V0]/09 - God Rest Ye Merry Gentlemen Fantasy.mp3
/Volumes/Master/XLD Rips/John Fahey - Christmas Guitar [MP3 V2]/09 - God Rest Ye Merry Gentlemen Fantasy.mp3
Pre-gap length : 00:04:00

Track gain : 8.55 dB
Peak : 0.220673
CRC32 hash (test run) : 92D0B3F3
CRC32 hash : 92D0B3F3
CRC32 hash (skip zero) : 6C6404CD
AccurateRip v1 signature : DC23E6BD
AccurateRip v2 signature : 7C07503C
->Track not present in AccurateRip database.
Statistics
Read error : 0
Jitter error (maybe fixed) : 0
Retry sector count : 0
Damaged sector count : 0

Track 10
Filename : /Volumes/Master/XLD Rips/John Fahey - Christmas Guitar [ALAC]/10 - Jolly Old Saint Nicholas.m4a
/Volumes/Master/XLD Rips/John Fahey - Christmas Guitar [FLAC]/10 - Jolly Old Saint Nicholas.flac
/Volumes/Master/XLD Rips/John Fahey - Christmas Guitar [MP3 320]/10 - Jolly Old Saint Nicholas.mp3
/Volumes/Master/XLD Rips/John Fahey - Christmas Guitar [MP3 V0]/10 - Jolly Old Saint Nicholas.mp3
/Volumes/Master/XLD Rips/John Fahey - Christmas Guitar [MP3 V2]/10 - Jolly Old Saint Nicholas.mp3
Pre-gap length : 00:04:00

Track gain : 7.10 dB
Peak : 0.284058
CRC32 hash (test run) : 9D930284
CRC32 hash : 9D930284
CRC32 hash (skip zero) : 975D9EB0
AccurateRip v1 signature : F5A29DFB
AccurateRip v2 signature : D55DED7A
->Track not present in AccurateRip database.
Statistics
Read error : 0
Jitter error (maybe fixed) : 0
Retry sector count : 0
Damaged sector count : 0

Track 11
Filename : /Volumes/Master/XLD Rips/John Fahey - Christmas Guitar [ALAC]/11 - Santa Claus Is Coming to Town.m4a
/Volumes/Master/XLD Rips/John Fahey - Christmas Guitar [FLAC]/11 - Santa Claus Is Coming to Town.flac
/Volumes/Master/XLD Rips/John Fahey - Christmas Guitar [MP3 320]/11 - Santa Claus Is Coming to Town.mp3
/Volumes/Master/XLD Rips/John Fahey - Christmas Guitar [MP3 V0]/11 - Santa Claus Is Coming to Town.mp3
/Volumes/Master/XLD Rips/John Fahey - Christmas Guitar [MP3 V2]/11 - Santa Claus Is Coming to Town.mp3
Pre-gap length : 00:02:00

Track gain : 6.60 dB
Peak : 0.462799
CRC32 hash (test run) : F2637F05
CRC32 hash : F2637F05
CRC32 hash (skip zero) : 02B761A0
AccurateRip v1 signature : D972A9FA
AccurateRip v2 signature : E10E8DA8
->Track not present in AccurateRip database.
Statistics
Read error : 0
Jitter error (maybe fixed) : 0
Retry sector count : 0
Damaged sector count : 0

Track 12
Filename : /Volumes/Master/XLD Rips/John Fahey - Christmas Guitar [ALAC]/12 - The Skater's Waltz.m4a
/Volumes/Master/XLD Rips/John Fahey - Christmas Guitar [FLAC]/12 - The Skater's Waltz.flac
/Volumes/Master/XLD Rips/John Fahey - Christmas Guitar [MP3 320]/12 - The Skater's Waltz.mp3
/Volumes/Master/XLD Rips/John Fahey - Christmas Guitar [MP3 V0]/12 - The Skater's Waltz.mp3
/Volumes/Master/XLD Rips/John Fahey - Christmas Guitar [MP3 V2]/12 - The Skater's Waltz.mp3
Pre-gap length : 00:02:37

Track gain : 6.37 dB
Peak : 0.497833
CRC32 hash (test run) : 125219C6
CRC32 hash : 125219C6
CRC32 hash (skip zero) : 119FD3AC
AccurateRip v1 signature : 5168185E
AccurateRip v2 signature : B5C809FB
->Track not present in AccurateRip database.
Statistics
Read error : 0
Jitter error (maybe fixed) : 0
Retry sector count : 0
Damaged sector count : 0

Track 13
Filename : /Volumes/Master/XLD Rips/John Fahey - Christmas Guitar [ALAC]/13 - The Christmas Song.m4a
/Volumes/Master/XLD Rips/John Fahey - Christmas Guitar [FLAC]/13 - The Christmas Song.flac
/Volumes/Master/XLD Rips/John Fahey - Christmas Guitar [MP3 320]/13 - The Christmas Song.mp3
/Volumes/Master/XLD Rips/John Fahey - Christmas Guitar [MP3 V0]/13 - The Christmas Song.mp3
/Volumes/Master/XLD Rips/John Fahey - Christmas Guitar [MP3 V2]/13 - The Christmas Song.mp3
Pre-gap length : 00:02:00

Track gain : 7.95 dB
Peak : 0.337982
CRC32 hash (test run) : C7D9706C
CRC32 hash : C7D9706C
CRC32 hash (skip zero) : C9E81A06
AccurateRip v1 signature : 1FB6C906
AccurateRip v2 signature : 72F5BF26
->Track not present in AccurateRip database.
Statistics
Read error : 0
Jitter error (maybe fixed) : 0
Retry sector count : 0
Damaged sector count : 0

Track 14
Filename : /Volumes/Master/XLD Rips/John Fahey - Christmas Guitar [ALAC]/14 - Medley: Christmas Time's A-Coming/Rudolph the Red-Nosed Reindeer.m4a
/Volumes/Master/XLD Rips/John Fahey - Christmas Guitar [FLAC]/14 - Medley: Christmas Time's A-Coming/Rudolph the Red-Nosed Reindeer.flac
/Volumes/Master/XLD Rips/John Fahey - Christmas Guitar [MP3 320]/14 - Medley: Christmas Time's A-Coming/Rudolph the Red-Nosed Reindeer.mp3
/Volumes/Master/XLD Rips/John Fahey - Christmas Guitar [MP3 V0]/14 - Medley: Christmas Time's A-Coming/Rudolph the Red-Nosed Reindeer.mp3
/Volumes/Master/XLD Rips/John Fahey - Christmas Guitar [MP3 V2]/14 - Medley: Christmas Time's A-Coming/Rudolph the Red-Nosed Reindeer.mp3
Pre-gap length : 00:04:00

Track gain : 6.82 dB
Peak : 0.458466
CRC32 hash (test run) : 5F0D2AB1
CRC32 hash : 5F0D2AB1
CRC32 hash (skip zero) : A927E3BF
AccurateRip v1 signature : CC290C5D
AccurateRip v2 signature : C24D7E07
->Track not present in AccurateRip database.
Statistics
Read error : 0
Jitter error (maybe fixed) : 0
Retry sector count : 0
Damaged sector count : 0

Track 15
Filename : /Volumes/Master/XLD Rips/John Fahey - Christmas Guitar [ALAC]/15 - Medley: The Holly and the Ivy/The Cherry Tree Carol.m4a
/Volumes/Master/XLD Rips/John Fahey - Christmas Guitar [FLAC]/15 - Medley: The Holly and the Ivy/The Cherry Tree Carol.flac
/Volumes/Master/XLD Rips/John Fahey - Christmas Guitar [MP3 320]/15 - Medley: The Holly and the Ivy/The Cherry Tree Carol.mp3
/Volumes/Master/XLD Rips/John Fahey - Christmas Guitar [MP3 V0]/15 - Medley: The Holly and the Ivy/The Cherry Tree Carol.mp3
/Volumes/Master/XLD Rips/John Fahey - Christmas Guitar [MP3 V2]/15 - Medley: The Holly and the Ivy/The Cherry Tree Carol.mp3
Pre-gap length : 00:03:37

Track gain : 7.07 dB
Peak : 0.306854
CRC32 hash (test run) : 14D89A8D
CRC32 hash : 14D89A8D
CRC32 hash (skip zero) : 8BC3907F
AccurateRip v1 signature : 464A6B34
AccurateRip v2 signature : 50C7BE2A
->Track not present in AccurateRip database.
Statistics
Read error : 0
Jitter error (maybe fixed) : 0
Retry sector count : 0
Damaged sector count : 0

Track 16
Filename : /Volumes/Master/XLD Rips/John Fahey - Christmas Guitar [ALAC]/16 - Apple Blossom Time.m4a
/Volumes/Master/XLD Rips/John Fahey - Christmas Guitar [FLAC]/16 - Apple Blossom Time.flac
/Volumes/Master/XLD Rips/John Fahey - Christmas Guitar [MP3 320]/16 - Apple Blossom Time.mp3
/Volumes/Master/XLD Rips/John Fahey - Christmas Guitar [MP3 V0]/16 - Apple Blossom Time.mp3
/Volumes/Master/XLD Rips/John Fahey - Christmas Guitar [MP3 V2]/16 - Apple Blossom Time.mp3
Pre-gap length : 00:04:38

Track gain : 6.63 dB
Peak : 0.368835
CRC32 hash (test run) : 6F803068
CRC32 hash : 6F803068
CRC32 hash (skip zero) : AF5A3230
AccurateRip v1 signature : D3636C24
AccurateRip v2 signature : 4475C4B7
->Track not present in AccurateRip database.
Statistics
Read error : 0
Jitter error (maybe fixed) : 0
Retry sector count : 0
Damaged sector count : 0

Track 17
Filename : /Volumes/Master/XLD Rips/John Fahey - Christmas Guitar [ALAC]/17 - White Christmas.m4a
/Volumes/Master/XLD Rips/John Fahey - Christmas Guitar [FLAC]/17 - White Christmas.flac
/Volumes/Master/XLD Rips/John Fahey - Christmas Guitar [MP3 320]/17 - White Christmas.mp3
/Volumes/Master/XLD Rips/John Fahey - Christmas Guitar [MP3 V0]/17 - White Christmas.mp3
/Volumes/Master/XLD Rips/John Fahey - Christmas Guitar [MP3 V2]/17 - White Christmas.mp3
Pre-gap length : 00:04:00

Track gain : 7.26 dB
Peak : 0.362030
CRC32 hash (test run) : 1A53DF58
CRC32 hash : 1A53DF58
CRC32 hash (skip zero) : 47272566
AccurateRip v1 signature : 567DFFCA
AccurateRip v2 signature : AE38B27C
->Track not present in AccurateRip database.
Statistics
Read error : 0
Jitter error (maybe fixed) : 0
Retry sector count : 0
Damaged sector count : 0

Track 18
Filename : /Volumes/Master/XLD Rips/John Fahey - Christmas Guitar [ALAC]/18 - The First Noel.m4a
/Volumes/Master/XLD Rips/John Fahey - Christmas Guitar [FLAC]/18 - The First Noel.flac
/Volumes/Master/XLD Rips/John Fahey - Christmas Guitar [MP3 320]/18 - The First Noel.mp3
/Volumes/Master/XLD Rips/John Fahey - Christmas Guitar [MP3 V0]/18 - The First Noel.mp3
/Volumes/Master/XLD Rips/John Fahey - Christmas Guitar [MP3 V2]/18 - The First Noel.mp3
Pre-gap length : 00:05:00

Track gain : 11.34 dB
Peak : 0.195282
CRC32 hash (test run) : AC0DAE85
CRC32 hash : AC0DAE85
CRC32 hash (skip zero) : E30A4E09
AccurateRip v1 signature : 4DB0AC73
AccurateRip v2 signature : C65A3A42
->Track not present in AccurateRip database.
Statistics
Read error : 0
Jitter error (maybe fixed) : 0
Retry sector count : 0
Damaged sector count : 0

Track 19
Filename : /Volumes/Master/XLD Rips/John Fahey - Christmas Guitar [ALAC]/19 - Good King Wenceslas.m4a
/Volumes/Master/XLD Rips/John Fahey - Christmas Guitar [FLAC]/19 - Good King Wenceslas.flac
/Volumes/Master/XLD Rips/John Fahey - Christmas Guitar [MP3 320]/19 - Good King Wenceslas.mp3
/Volumes/Master/XLD Rips/John Fahey - Christmas Guitar [MP3 V0]/19 - Good King Wenceslas.mp3
/Volumes/Master/XLD Rips/John Fahey - Christmas Guitar [MP3 V2]/19 - Good King Wenceslas.mp3
Pre-gap length : 00:05:00

Track gain : 8.44 dB
Peak : 0.247070
CRC32 hash (test run) : E12D0D86
CRC32 hash : E12D0D86
CRC32 hash (skip zero) : 1956A197
AccurateRip v1 signature : BEFC242E
AccurateRip v2 signature : DA8A5639
->Track not present in AccurateRip database.
Statistics
Read error : 0
Jitter error (maybe fixed) : 0
Retry sector count : 0
Damaged sector count : 0

Track 20
Filename : /Volumes/Master/XLD Rips/John Fahey - Christmas Guitar [ALAC]/20 - Of the Father's Love Begotten.m4a
/Volumes/Master/XLD Rips/John Fahey - Christmas Guitar [FLAC]/20 - Of the Father's Love Begotten.flac
/Volumes/Master/XLD Rips/John Fahey - Christmas Guitar [MP3 320]/20 - Of the Father's Love Begotten.mp3
/Volumes/Master/XLD Rips/John Fahey - Christmas Guitar [MP3 V0]/20 - Of the Father's Love Begotten.mp3
/Volumes/Master/XLD Rips/John Fahey - Christmas Guitar [MP3 V2]/20 - Of the Father's Love Begotten.mp3
Pre-gap length : 00:05:00

Track gain : 11.72 dB
Peak : 0.167816
CRC32 hash (test run) : F53DE696
CRC32 hash : F53DE696
CRC32 hash (skip zero) : 2EB09C14
AccurateRip v1 signature : 3CB99498
AccurateRip v2 signature : 0CC11D49
->Track not present in AccurateRip database.
Statistics
Read error : 0
Jitter error (maybe fixed) : 0
Retry sector count : 0
Damaged sector count : 0

Track 21
Filename : /Volumes/Master/XLD Rips/John Fahey - Christmas Guitar [ALAC]/21 - Away in a Manger (2).m4a
/Volumes/Master/XLD Rips/John Fahey - Christmas Guitar [FLAC]/21 - Away in a Manger (2).flac
/Volumes/Master/XLD Rips/John Fahey - Christmas Guitar [MP3 320]/21 - Away in a Manger (2).mp3
/Volumes/Master/XLD Rips/John Fahey - Christmas Guitar [MP3 V0]/21 - Away in a Manger (2).mp3
/Volumes/Master/XLD Rips/John Fahey - Christmas Guitar [MP3 V2]/21 - Away in a Manger (2).mp3
Pre-gap length : 00:04:00

Track gain : 9.48 dB
Peak : 0.223267
CRC32 hash (test run) : 84873C33
CRC32 hash : 84873C33
CRC32 hash (skip zero) : B4D778B1
AccurateRip v1 signature : 09EBDB33
AccurateRip v2 signature : 0C476CC3
->Track not present in AccurateRip database.
Statistics
Read error : 0
Jitter error (maybe fixed) : 0
Retry sector count : 0
Damaged sector count : 0

Track 22
Filename : /Volumes/Master/XLD Rips/John Fahey - Christmas Guitar [ALAC]/22 - In the Bleak Midwinter.m4a
/Volumes/Master/XLD Rips/John Fahey - Christmas Guitar [FLAC]/22 - In the Bleak Midwinter.flac
/Volumes/Master/XLD Rips/John Fahey - Christmas Guitar [MP3 320]/22 - In the Bleak Midwinter.mp3
/Volumes/Master/XLD Rips/John Fahey - Christmas Guitar [MP3 V0]/22 - In the Bleak Midwinter.mp3
/Volumes/Master/XLD Rips/John Fahey - Christmas Guitar [MP3 V2]/22 - In the Bleak Midwinter.mp3
Pre-gap length : 00:04:00

Track gain : 9.95 dB
Peak : 0.206268
CRC32 hash (test run) : B75A9A47
CRC32 hash : B75A9A47
CRC32 hash (skip zero) : 3B75ADE3
AccurateRip v1 signature : 5D4E5FC9
AccurateRip v2 signature : 8198679A
->Track not present in AccurateRip database.
Statistics
Read error : 0
Jitter error (maybe fixed) : 0
Retry sector count : 0
Damaged sector count : 0

Track 23
Filename : /Volumes/Master/XLD Rips/John Fahey - Christmas Guitar [ALAC]/23 - It Came Upon a Midnight Clear.m4a
/Volumes/Master/XLD Rips/John Fahey - Christmas Guitar [FLAC]/23 - It Came Upon a Midnight Clear.flac
/Volumes/Master/XLD Rips/John Fahey - Christmas Guitar [MP3 320]/23 - It Came Upon a Midnight Clear.mp3
/Volumes/Master/XLD Rips/John Fahey - Christmas Guitar [MP3 V0]/23 - It Came Upon a Midnight Clear.mp3
/Volumes/Master/XLD Rips/John Fahey - Christmas Guitar [MP3 V2]/23 - It Came Upon a Midnight Clear.mp3
Pre-gap length : 00:05:00

Track gain : 9.82 dB
Peak : 0.204956
CRC32 hash (test run) : 8249C083
CRC32 hash : 8249C083
CRC32 hash (skip zero) : 16471EEB
AccurateRip v1 signature : F5FED06A
AccurateRip v2 signature : 4CC978E7
->Track not present in AccurateRip database.
Statistics
Read error : 0
Jitter error (maybe fixed) : 0
Retry sector count : 0
Damaged sector count : 0

Track 24
Filename : /Volumes/Master/XLD Rips/John Fahey - Christmas Guitar [ALAC]/24 - Medley: Jesus, Won't You Come by Here/Go Tell It on the Mountain.m4a
/Volumes/Master/XLD Rips/John Fahey - Christmas Guitar [FLAC]/24 - Medley: Jesus, Won't You Come by Here/Go Tell It on the Mountain.flac
/Volumes/Master/XLD Rips/John Fahey - Christmas Guitar [MP3 320]/24 - Medley: Jesus, Won't You Come by Here/Go Tell It on the Mountain.mp3
/Volumes/Master/XLD Rips/John Fahey - Christmas Guitar [MP3 V0]/24 - Medley: Jesus, Won't You Come by Here/Go Tell It on the Mountain.mp3
/Volumes/Master/XLD Rips/John Fahey - Christmas Guitar [MP3 V2]/24 - Medley: Jesus, Won't You Come by Here/Go Tell It on the Mountain.mp3
Pre-gap length : 00:06:00

Track gain : 9.46 dB
Peak : 0.223175
CRC32 hash (test run) : F385A1C5
CRC32 hash : F385A1C5
CRC32 hash (skip zero) : 0FB909ED
AccurateRip v1 signature : E7DF4241
AccurateRip v2 signature : 2B6151AD
->Track not present in AccurateRip database.
Statistics
Read error : 0
Jitter error (maybe fixed) : 0
Retry sector count : 0
Damaged sector count : 0

Track 25
Filename : /Volumes/Master/XLD Rips/John Fahey - Christmas Guitar [ALAC]/25 - Lo, How a Rose E'er Blooming.m4a
/Volumes/Master/XLD Rips/John Fahey - Christmas Guitar [FLAC]/25 - Lo, How a Rose E'er Blooming.flac
/Volumes/Master/XLD Rips/John Fahey - Christmas Guitar [MP3 320]/25 - Lo, How a Rose E'er Blooming.mp3
/Volumes/Master/XLD Rips/John Fahey - Christmas Guitar [MP3 V0]/25 - Lo, How a Rose E'er Blooming.mp3
/Volumes/Master/XLD Rips/John Fahey - Christmas Guitar [MP3 V2]/25 - Lo, How a Rose E'er Blooming.mp3
Pre-gap length : 00:04:00

Track gain : 11.42 dB
Peak : 0.158142
CRC32 hash (test run) : C827CE14
CRC32 hash : C827CE14
CRC32 hash (skip zero) : 0DD39FBE
AccurateRip v1 signature : B51D8BDD
AccurateRip v2 signature : 6D3D8B48
->Track not present in AccurateRip database.
Statistics
Read error : 0
Jitter error (maybe fixed) : 0
Retry sector count : 0
Damaged sector count : 0

Track 26
Filename : /Volumes/Master/XLD Rips/John Fahey - Christmas Guitar [ALAC]/26 - Silent Night, Holy Night.m4a
/Volumes/Master/XLD Rips/John Fahey - Christmas Guitar [FLAC]/26 - Silent Night, Holy Night.flac
/Volumes/Master/XLD Rips/John Fahey - Christmas Guitar [MP3 320]/26 - Silent Night, Holy Night.mp3
/Volumes/Master/XLD Rips/John Fahey - Christmas Guitar [MP3 V0]/26 - Silent Night, Holy Night.mp3
/Volumes/Master/XLD Rips/John Fahey - Christmas Guitar [MP3 V2]/26 - Silent Night, Holy Night.mp3
Pre-gap length : 00:04:00

Track gain : 9.53 dB
Peak : 0.231110
CRC32 hash (test run) : E0698280
CRC32 hash : E0698280
CRC32 hash (skip zero) : F4B2C1AE
AccurateRip v1 signature : C39B6419
AccurateRip v2 signature : B47BEDBD
->Track not present in AccurateRip database.
Statistics
Read error : 0
Jitter error (maybe fixed) : 0
Retry sector count : 0
Damaged sector count : 0

No errors occurred

End of status report

––-BEGIN XLD SIGNATURE––-
4.EBKmdQYc_G1jp2C_DZbv15j.AqX6cjybtrQJH6LMF8KQfVuyAHgG2gsyDLlMpq3QF5JMOtK02o8Qq9uc_ftBQ2tpZEwtUy199IQUi
––-END XLD SIGNATURE––-


John Fahey - Christmas Guitar (1986) {Varrick--Rounder CDVR11503}

John Fahey - Christmas Guitar (1986) {Varrick--Rounder CDVR11503}


see more John Fahey…


===