Subcategories

John Fahey - Rain Forests, Oceans, And Other Themes (1984) {Varrick Records CD019 rel 1995}

Posted By: ruskaval
John Fahey - Rain Forests, Oceans, And Other Themes (1984) {Varrick Records CD019 rel 1995}

John Fahey - Rain Forests, Oceans, And Other Themes (1984) {Varrick Records CD019 rel 1995}
EAC rip (secure mode) | FLAC (tracks)+CUE+LOG -> 249 Mb | MP3 @320 -> 125 Mb | Artwork | 5% repair rar
© 1984, 1995 Varrick / Rounder Records | CD VR 019
Finger-Picked Guitar / Contemporary Folk / Folk Jazz / Folk-Blues / Progressive Folk

John Fahey's newest work is slightly more subdued than last year's Let Go, but equally as radiant. A nimble-fingered master since his 1959 debut Blind Joe Death Fahey has continually created profound expressions on the acoustic guitar, in a mystical yet intimate setting using his intricate finger-picking style-one that often builds on a rolling, ragtime blues base. Here, Fahey offers five solo pieces ("Atlantic High" and "Intro To Ocean Waves/Ocean Waves" most preferred), and five with guitarist and part-time partner Terry Robb, who effectively compliments Fahey's style, shining most brightly when playing bottleneck guitar, as on "May This Be Love/Casey Jones." Other tandem efforts worth hearing more than once are "Juroscho Ascopi," "Samba De Orfeo" and "Theme And Variations" which features some percussion and bass for added depth.
John Fahey - Rain Forests, Oceans, And Other Themes (1984) {Varrick Records CD019 rel 1995}


Personnel
John Fahey – guitar
Terry Robb – guitar, bottleneck guitar
Guy Maxwell – percussion, drum machine
Scott White – bass

The sessions which produced this album took place in Cascade Recording Studios, Portland, Oregon, during November and December, 1984.

Tracklist
1. Melody McOcean (06:38)
2. Layla (05:15)
3. Rain Forest (06:44)
4. The World Is Waiting For You (02:30)
5. Lullaby And Finale From The Firebird (04:16)
6. Atlantic High (02:06)
7. Samba De Orfeo (03:11)
8. Theme And Variations (02:58)
9. May This Be Love / Casey Jones (03:25)
10. Intro To Ocean Waves/ Ocean Waves (06:20)
11. Juroscho Ascopi (05:28)
12. St. Patrick's Hymn (02:37)

Exact Audio Copy V1.3 from 2. September 2016

EAC extraction logfile from 22. September 2017, 23:49

John Fahey / Rain Forests, Oceans, and Other Themes

Used drive : HL-DT-STDVD-RAM GHC0N Adapter: 1 ID: 0

Read mode : Secure
Utilize accurate stream : Yes
Defeat audio cache : Yes
Make use of C2 pointers : No

Read offset correction : 6
Overread into Lead-In and Lead-Out : No
Fill up missing offset samples with silence : Yes
Delete leading and trailing silent blocks : No
Null samples used in CRC calculations : Yes
Used interface : Native Win32 interface for Win NT & 2000
Gap handling : Appended to previous track

Used output format : User Defined Encoder
Selected bitrate : 1024 kBit/s
Quality : High
Add ID3 tag : No
Command line compressor : C:\Program Files (x86)\Exact Audio Copy\Flac\flac.exe
Additional command line options : -8 -e -p -V -T "ARTIST=%artist%" -T "TITLE=%title%" -T "ALBUM=%albumtitle%" -T "DATE=%year%" -T "TRACKNUMBER=%tracknr%" -T "GENRE=%genre%" -T "PERFORMER=%albuminterpret%" -T "COMPOSER=%composer%" %haslyrics%–tag-from-file=LYRICS="%lyricsfile%"%haslyrics% -T "ALBUMARTIST=%albumartist%" -T "DISCNUMBER=%cdnumber%" -T "TOTALDISCS=%totalcds%" -T "TOTALTRACKS=%numtracks%" -T "COMMENT=%comment%" %source% -o %dest%


TOC of the extracted CD

Track | Start | Length | Start sector | End sector
––––––––––––––––––––––––––––-
1 | 0:00.00 | 6:42.37 | 0 | 30186
2 | 6:42.37 | 5:21.38 | 30187 | 54299
3 | 12:04.00 | 6:47.37 | 54300 | 84861
4 | 18:51.37 | 2:35.00 | 84862 | 96486
5 | 21:26.37 | 4:19.38 | 96487 | 115949
6 | 25:46.00 | 2:08.37 | 115950 | 125586
7 | 27:54.37 | 3:12.00 | 125587 | 139986
8 | 31:06.37 | 3:00.00 | 139987 | 153486
9 | 34:06.37 | 3:28.00 | 153487 | 169086
10 | 37:34.37 | 6:30.68 | 169087 | 198404
11 | 44:05.30 | 5:19.45 | 198405 | 222374
12 | 49:25.00 | 2:38.37 | 222375 | 234261


Track 1

Filename C:\Users\Neil\Documents\what.cd\NEW\John Fahey - Rain Forests, Oceans, and Other Themes [FLAC]\01 Melody McOcean.wav

Pre-gap length 0:00:02.00

Peak level 38.4 %
Extraction speed 3.2 X
Track quality 100.0 %
Test CRC E98EDF40
Copy CRC E98EDF40
Cannot be verified as accurate (confidence 4) [44165A81], AccurateRip returned [718D080C] (AR v2)
Copy OK

Track 2

Filename C:\Users\Neil\Documents\what.cd\NEW\John Fahey - Rain Forests, Oceans, and Other Themes [FLAC]\02 Layla.wav

Peak level 51.8 %
Extraction speed 3.6 X
Track quality 100.0 %
Test CRC 5DBE7DF7
Copy CRC 5DBE7DF7
Cannot be verified as accurate (confidence 4) [0A622C3E], AccurateRip returned [2D39202C] (AR v2)
Copy OK

Track 3

Filename C:\Users\Neil\Documents\what.cd\NEW\John Fahey - Rain Forests, Oceans, and Other Themes [FLAC]\03 Rain Forest.wav

Peak level 45.4 %
Extraction speed 4.1 X
Track quality 100.0 %
Test CRC 4BC648E1
Copy CRC 4BC648E1
Cannot be verified as accurate (confidence 4) [B6F26384], AccurateRip returned [1A837648] (AR v2)
Copy OK

Track 4

Filename C:\Users\Neil\Documents\what.cd\NEW\John Fahey - Rain Forests, Oceans, and Other Themes [FLAC]\04 The World Is Waiting for the Sunrise.wav

Peak level 41.7 %
Extraction speed 2.7 X
Track quality 99.9 %
Test CRC 99236E08
Copy CRC 99236E08
Cannot be verified as accurate (confidence 4) [FD9B90A2], AccurateRip returned [E23ECF72] (AR v2)
Copy OK

Track 5

Filename C:\Users\Neil\Documents\what.cd\NEW\John Fahey - Rain Forests, Oceans, and Other Themes [FLAC]\05 Lullaby and Finale From The Firebird.wav

Peak level 66.9 %
Extraction speed 4.3 X
Track quality 100.0 %
Test CRC AD2F1819
Copy CRC AD2F1819
Cannot be verified as accurate (confidence 4) [3CDDDBF2], AccurateRip returned [2A744969] (AR v2)
Copy OK

Track 6

Filename C:\Users\Neil\Documents\what.cd\NEW\John Fahey - Rain Forests, Oceans, and Other Themes [FLAC]\06 Atlantic High.wav

Peak level 41.1 %
Extraction speed 2.6 X
Track quality 99.9 %
Test CRC 1A76CA5F
Copy CRC 1A76CA5F
Cannot be verified as accurate (confidence 4) [9ACF4CB5], AccurateRip returned [7BBF72FC] (AR v2)
Copy OK

Track 7

Filename C:\Users\Neil\Documents\what.cd\NEW\John Fahey - Rain Forests, Oceans, and Other Themes [FLAC]\07 Samba de Orfeo.wav

Peak level 41.8 %
Extraction speed 4.4 X
Track quality 100.0 %
Test CRC 2E4A4492
Copy CRC 2E4A4492
Cannot be verified as accurate (confidence 4) [A0365940], AccurateRip returned [C7A780FD] (AR v2)
Copy OK

Track 8

Filename C:\Users\Neil\Documents\what.cd\NEW\John Fahey - Rain Forests, Oceans, and Other Themes [FLAC]\08 Theme and Variations.wav

Peak level 59.3 %
Extraction speed 4.4 X
Track quality 100.0 %
Test CRC D0417161
Copy CRC D0417161
Cannot be verified as accurate (confidence 4) [5589C81C], AccurateRip returned [57432FD9] (AR v2)
Copy OK

Track 9

Filename C:\Users\Neil\Documents\what.cd\NEW\John Fahey - Rain Forests, Oceans, and Other Themes [FLAC]\09 May This Be Love,Casey Jones.wav

Peak level 75.2 %
Extraction speed 4.6 X
Track quality 100.0 %
Test CRC BE427DEA
Copy CRC BE427DEA
Cannot be verified as accurate (confidence 4) [DDBA0B12], AccurateRip returned [B588F229] (AR v2)
Copy OK

Track 10

Filename C:\Users\Neil\Documents\what.cd\NEW\John Fahey - Rain Forests, Oceans, and Other Themes [FLAC]\10 Intro to Ocean Waves,Ocean Waves.wav

Peak level 45.8 %
Extraction speed 5.3 X
Track quality 100.0 %
Test CRC D8BD49F9
Copy CRC D8BD49F9
Cannot be verified as accurate (confidence 4) [3BA6F652], AccurateRip returned [C229096B] (AR v2)
Copy OK

Track 11

Filename C:\Users\Neil\Documents\what.cd\NEW\John Fahey - Rain Forests, Oceans, and Other Themes [FLAC]\11 Juroscho Ascopi.wav

Peak level 42.6 %
Extraction speed 5.4 X
Track quality 100.0 %
Test CRC 25D497CA
Copy CRC 25D497CA
Cannot be verified as accurate (confidence 4) [F47E627A], AccurateRip returned [4169A198] (AR v2)
Copy OK

Track 12

Filename C:\Users\Neil\Documents\what.cd\NEW\John Fahey - Rain Forests, Oceans, and Other Themes [FLAC]\12 St. Patick's Hymn.wav

Peak level 35.8 %
Extraction speed 5.0 X
Track quality 100.0 %
Test CRC 12EE78B9
Copy CRC 12EE78B9
Cannot be verified as accurate (confidence 4) [862B87AD], AccurateRip returned [486D4C98] (AR v2)
Copy OK


No tracks could be verified as accurate
You may have a different pressing from the one(s) in the database

No errors occurred

End of status report

–– CUETools DB Plugin V2.1.6

[CTDB TOCID: UT.b2gdswJP4H8_x3ET7IYrTFvA-] found
Submit result: UT.b2gdswJP4H8_x3ET7IYrTFvA- has been confirmed
Track | CTDB Status
1 | (11/12) Accurately ripped
2 | (11/12) Accurately ripped
3 | (11/12) Accurately ripped
4 | (11/12) Accurately ripped
5 | (11/12) Accurately ripped
6 | (11/12) Accurately ripped
7 | (11/12) Accurately ripped
8 | (11/12) Accurately ripped
9 | (11/12) Accurately ripped
10 | (11/12) Accurately ripped
11 | (11/12) Accurately ripped
12 | (11/12) Accurately ripped


==== Log checksum 82383694A619BE5F7FAE8E1B5CBE5D534B4005E924BB95F20B0FBFD5A1DFA57E ====


John Fahey - Rain Forests, Oceans, And Other Themes (1984) {Varrick Records CD019 rel 1995}

John Fahey - Rain Forests, Oceans, And Other Themes (1984) {Varrick Records CD019 rel 1995}


see more John Fahey…


===