Subcategories

John Zorn - A Vision In Blakelight (2012) {Tzadik TZ 8303}

Posted By: ruskaval
John Zorn - A Vision In Blakelight (2012) {Tzadik TZ 8303}

John Zorn - A Vision In Blakelight (2012) {Tzadik TZ 8303}
EAC rip (secure mode) | FLAC (tracks)+CUE+LOG -> 267 Mb | MP3 @320 -> 118 Mb
Artwork -> 7 Mb | 5% repair rar
© 2012 Tzadik | TZ 8303 | Tzadik Archival Series
Jazz / Modern Creative / Experimental

Inspired by the spiritual mythology of William Blake, A Vision in Blakelight is the latest in Zorn’s continuing series of 21st century mystical works. With a cinematic sweep reminiscent of his best film scores the music is alternately romantic, ominous, ecstatic, driving and meditative. Featuring the Nova quartet augmented by harp and percussion—and the charismatic Jack Huston reciting from Blake’s Jerusalem on one mysterious track—this suite of ten instrumental miniatures references jazz, classical, easy listening, film music and minimalism. A lovely and varied suite reflecting the humanistic philosophy of the immortal visionary William Blake with a dramatic and brilliant lyricism.

Personnel:
Cyro Baptista: Percussion
Joey Baron: Drums
Trevor Dunn: Bass
Carol Emanuel: Harp
John Medeski: Piano, Organ
Kenny Wollesen: Vibes, Bells

John Zorn - A Vision In Blakelight (2012) {Tzadik TZ 8303}


tracklist:
01. When The Morning Stars Sang Together
02. The Hammer Of Los
03. Jerusalem
04. The Prophecy
05. And He Rode Upon The Cherubim
06. Marriage Of Heaven And Hell
07. A Woman Clothed With The Sun
08. Shadows in Ancient Time
09. An Island In The Moon
10. Night Thoughts

Exact Audio Copy V1.0 beta 3 from 29. August 2011

EAC extraction logfile from 24. October 2012, 15:31

John Zorn / A Vision in Blakelight

Used drive : TSSTcorpCDDVDW SH-S223F Adapter: 1 ID: 0

Read mode : Secure
Utilize accurate stream : Yes
Defeat audio cache : Yes
Make use of C2 pointers : No

Read offset correction : 6
Overread into Lead-In and Lead-Out : No
Fill up missing offset samples with silence : Yes
Delete leading and trailing silent blocks : No
Null samples used in CRC calculations : Yes
Used interface : Native Win32 interface for Win NT & 2000
Gap handling : Appended to previous track

Used output format : User Defined Encoder
Selected bitrate : 1024 kBit/s
Quality : High
Add ID3 tag : No
Command line compressor : C:\Program Files (x86)\FLAC\flac.exe
Additional command line options : -8 -V -T "ARTIST=%artist%" -T "TITLE=%title%" -T "ALBUM=%albumtitle%" -T "DATE=%year%" -T "TRACKNUMBER=%tracknr%" -T "GENRE=%genre%" -T "PERFORMER=%albuminterpret%" -T "COMPOSER=%composer%" %haslyrics%–tag-from-file=LYRICS="%lyricsfile%"%haslyrics% -T "ALBUMARTIST=%albumartist%" -T "DISCNUMBER=%cdnumber%" -T "TOTALDISCS=%totalcds%" -T "TOTALTRACKS=%numtracks%" -T "COMMENT=%comment%" %source% -o %dest%


TOC of the extracted CD

Track | Start | Length | Start sector | End sector
––––––––––––––––––––––––––––-
1 | 0:00.00 | 5:27.74 | 0 | 24598
2 | 5:27.74 | 3:58.29 | 24599 | 42477
3 | 9:26.28 | 5:14.45 | 42478 | 66072
4 | 14:40.73 | 3:09.74 | 66073 | 80321
5 | 17:50.72 | 5:09.33 | 80322 | 103529
6 | 23:00.30 | 4:17.45 | 103530 | 122849
7 | 27:18.00 | 5:20.12 | 122850 | 146861
8 | 32:38.12 | 5:38.23 | 146862 | 172234
9 | 38:16.35 | 7:06.18 | 172235 | 204202
10 | 45:22.53 | 4:55.50 | 204203 | 226377


Track 1

Filename Y:\EAC Rips\01 When The Morning Stars Sang Together.wav

Pre-gap length 0:00:02.00

Peak level 92.0 %
Extraction speed 1.9 X
Track quality 99.9 %
Test CRC 198ECD6D
Copy CRC 198ECD6D
Track not present in AccurateRip database
Copy OK

Track 2

Filename Y:\EAC Rips\02 The Hammer of Los.wav

Peak level 96.4 %
Extraction speed 1.3 X
Track quality 99.9 %
Test CRC 3FDD151A
Copy CRC 3FDD151A
Track not present in AccurateRip database
Copy OK

Track 3

Filename Y:\EAC Rips\03 Jerusalem.wav

Peak level 97.5 %
Extraction speed 2.1 X
Track quality 100.0 %
Test CRC F9A6D38D
Copy CRC F9A6D38D
Track not present in AccurateRip database
Copy OK

Track 4

Filename Y:\EAC Rips\04 The Prophecy.wav

Peak level 95.2 %
Extraction speed 1.6 X
Track quality 100.0 %
Test CRC 71B77DE4
Copy CRC 71B77DE4
Track not present in AccurateRip database
Copy OK

Track 5

Filename Y:\EAC Rips\05 And He Rode Upon The Cherubim.wav

Peak level 89.9 %
Extraction speed 1.5 X
Track quality 99.9 %
Test CRC AFAF994F
Copy CRC AFAF994F
Track not present in AccurateRip database
Copy OK

Track 6

Filename Y:\EAC Rips\06 Marriage of Heaven and Hell.wav

Peak level 97.2 %
Extraction speed 1.4 X
Track quality 99.9 %
Test CRC 96587F49
Copy CRC 96587F49
Track not present in AccurateRip database
Copy OK

Track 7

Filename Y:\EAC Rips\07 A Woman Clothed with the Sun.wav

Peak level 82.0 %
Extraction speed 1.8 X
Track quality 100.0 %
Test CRC 36D1F4EF
Copy CRC 36D1F4EF
Track not present in AccurateRip database
Copy OK

Track 8

Filename Y:\EAC Rips\08 Shadows in Ancient Time.wav

Peak level 92.6 %
Extraction speed 2.0 X
Track quality 99.9 %
Test CRC CBFA5757
Copy CRC CBFA5757
Track not present in AccurateRip database
Copy OK

Track 9

Filename Y:\EAC Rips\09 An Island in the Moon.wav

Peak level 93.7 %
Extraction speed 2.0 X
Track quality 99.9 %
Test CRC 5C4458B8
Copy CRC 5C4458B8
Track not present in AccurateRip database
Copy OK

Track 10

Filename Y:\EAC Rips\10 Night Thoughts.wav

Peak level 89.9 %
Extraction speed 2.0 X
Track quality 100.0 %
Test CRC 3D6929AF
Copy CRC 3D6929AF
Track not present in AccurateRip database
Copy OK


None of the tracks are present in the AccurateRip database

No errors occurred

End of status report

–– CUETools DB Plugin V2.1.3

[CTDB TOCID: ii9oTc5T7xaE2gVqlPUEXe8w0.U-] disk not present in database, Submit result: ii9oTc5T7xaE2gVqlPUEXe8w0.U- has been uploaded


==== Log checksum 35A8246627DBD2C3F3604BE02AD4FF388A2DF24D5584DAFD0F031511E642C26A ====


John Zorn - A Vision In Blakelight (2012) {Tzadik TZ 8303}

John Zorn - A Vision In Blakelight (2012) {Tzadik TZ 8303}



===