Subcategories

John Zorn - The Gnostic Preludes (2012) + The Satyr's Play - Cerberus (2011) {Tzadik} [repost]

Posted By: ruskaval
John Zorn - The Gnostic Preludes (2012) + The Satyr's Play - Cerberus (2011) {Tzadik} [repost]

John Zorn - The Gnostic Preludes (2012) + The Satyr's Play - Cerberus (2011) {Tzadik}
EAC & XLD rip | FLAC (tracks)+CUE+LOG -> 429 Mb | MP3 @320 -> 204 Mb
Full Artwork @ 300 dpi (jpg) -> 21 Mb | 5% repair rar
© 2011, 2012 Tzadik | TZ 7390 / TZ 7395
Jazz / Modern Creative / Chamber Jazz

Two dramatic new worlds in sound from our downtown Alchemist who continues to confound and defy expectations well into his fourth decade of recorded activity. Scored for two percussionists, The Satyr's Play is a dramatic work that mysteriously evokes the decadent excesses of Bacchanalia and Saturnalia.

John Zorn - The Gnostic Preludes (2012) + The Satyr's Play - Cerberus (2011) {Tzadik} [repost]

John Zorn - The Satyr's Play - Cerberus (2011) {Tzadik}
EAC rip | FLAC (tracks)+CUE+LOG -> 211 Mb | MP3 @320 -> 89 Mb | Artwork | 5% repair rar
© 2011 Tzadik | TZ 7390

Presented in book form accompanied by a esoteric text beautifully illustrated with rare drawings by the great mystical artist Austin Osman Spare, this is a work of subtle nuance and sexuality. In contrast, Cerberus, is a flamboyant and dynamic trio for brass. A demonic piece featuring three undisputed Brass virtuosos, it jumps styles, moods and genres in classic Zorn fashion. Radical, moody and colorful chamber works for the 21st century.

Personnel:
Cyro Baptista: Percussion
Marcus Rojas: Tuba
David Taylor: Bass Trombone
Kenny Wollesen: Percussion
Peter Evans: Trumpet

tracklist:
01. The Satyr's Play [Ode I]
02. The Satyr's Play [Ode II]
03. The Satyr's Play [Ode III]
04. The Satyr's Play [Ode IV]
05. The Satyr's Play [Ode V]
06. The Satyr's Play [Ode VI]
07. The Satyr's Play [Ode VII]
08. The Satyr's Play [Ode VIII]
09. Cerberus

Exact Audio Copy V1.0 beta 2 from 29. April 2011

EAC extraction logfile from 12. September 2011, 21:00

John Zohn / The Satyr's Play - Cerebrus

Used drive : TSSTcorpCD/DVDW TS-H652M Adapter: 0 ID: 0

Read mode : Secure
Utilize accurate stream : Yes
Defeat audio cache : Yes
Make use of C2 pointers : No

Read offset correction : 6
Overread into Lead-In and Lead-Out : No
Fill up missing offset samples with silence : Yes
Delete leading and trailing silent blocks : No
Null samples used in CRC calculations : Yes
Used interface : Native Win32 interface for Win NT & 2000
Gap handling : Appended to previous track

Used output format : User Defined Encoder
Selected bitrate : 128 kBit/s
Quality : High
Add ID3 tag : No
Command line compressor : C:\Program Files (x86)\FLAC\flac.exe
Additional command line options : -8 -V -T "ARTIST=%artist%" -T "TITLE=%title%" -T "ALBUM=%albumtitle%" -T "DATE=%year%" -T "TRACKNUMBER=%tracknr%" -T "GENRE=%genre%" -T "PERFORMER=%albuminterpret%" -T "COMPOSER=%composer%" %haslyrics%–tag-from-file=LYRICS


TOC of the extracted CD

Track | Start | Length | Start sector | End sector
––––––––––––––––––––––––––––-
1 | 0:00.00 | 3:47.74 | 0 | 17098
2 | 3:47.74 | 3:38.44 | 17099 | 33492
3 | 7:26.43 | 2:54.18 | 33493 | 46560
4 | 10:20.61 | 3:50.05 | 46561 | 63815
5 | 14:10.66 | 2:35.06 | 63816 | 75446
6 | 16:45.72 | 4:32.54 | 75447 | 95900
7 | 21:18.51 | 3:35.69 | 95901 | 112094
8 | 24:54.45 | 1:38.45 | 112095 | 119489
9 | 26:33.15 | 10:34.21 | 119490 | 167060


Track 1

Filename E:\EAC Rips\John Zorn - 2011 - Satyrs Play - Cerebus [FLAC]\01 - Visions of Dionysus- Ode I.wav

Pre-gap length 0:00:02.00

Peak level 96.6 %
Extraction speed 2.5 X
Track quality 100.0 %
Test CRC 53364EA7
Copy CRC 53364EA7
Accurately ripped (confidence 1) [FCFF3E50] (AR v2)
Copy OK

Track 2

Filename E:\EAC Rips\John Zorn - 2011 - Satyrs Play - Cerebus [FLAC]\02 - Visions of Dionysus- Ode II.wav

Peak level 96.6 %
Extraction speed 2.7 X
Track quality 100.0 %
Test CRC 44FEE9DE
Copy CRC 44FEE9DE
Accurately ripped (confidence 1) [A57BE746] (AR v2)
Copy OK

Track 3

Filename E:\EAC Rips\John Zorn - 2011 - Satyrs Play - Cerebus [FLAC]\03 - Visions of Dionysus- Ode III.wav

Peak level 96.6 %
Extraction speed 2.8 X
Track quality 100.0 %
Test CRC D9084E42
Copy CRC D9084E42
Accurately ripped (confidence 1) [4BCF1180] (AR v2)
Copy OK

Track 4

Filename E:\EAC Rips\John Zorn - 2011 - Satyrs Play - Cerebus [FLAC]\04 - Visions of Dionysus- Ode IV.wav

Peak level 96.6 %
Extraction speed 2.8 X
Track quality 99.9 %
Test CRC 73145467
Copy CRC 73145467
Accurately ripped (confidence 1) [18B53AEA] (AR v2)
Copy OK

Track 5

Filename E:\EAC Rips\John Zorn - 2011 - Satyrs Play - Cerebus [FLAC]\05 - Visions of Dionysus- Ode V.wav

Peak level 96.6 %
Extraction speed 3.1 X
Track quality 100.0 %
Test CRC 7A72FC20
Copy CRC 7A72FC20
Accurately ripped (confidence 1) [33508B33] (AR v2)
Copy OK

Track 6

Filename E:\EAC Rips\John Zorn - 2011 - Satyrs Play - Cerebus [FLAC]\06 - Visions of Dionysus- Ode VI.wav

Peak level 96.6 %
Extraction speed 3.6 X
Track quality 100.0 %
Test CRC B0D83F64
Copy CRC B0D83F64
Accurately ripped (confidence 1) [42F9F05C] (AR v2)
Copy OK

Track 7

Filename E:\EAC Rips\John Zorn - 2011 - Satyrs Play - Cerebus [FLAC]\07 - Visions of Dionysus- Ode VII.wav

Peak level 96.6 %
Extraction speed 3.7 X
Track quality 100.0 %
Test CRC 4B73C586
Copy CRC 4B73C586
Accurately ripped (confidence 1) [3DE5CE49] (AR v2)
Copy OK

Track 8

Filename E:\EAC Rips\John Zorn - 2011 - Satyrs Play - Cerebus [FLAC]\08 - Visions of Dionysus- Ode VIII.wav

Peak level 96.6 %
Extraction speed 2.5 X
Track quality 99.8 %
Test CRC 6C64FB72
Copy CRC 6C64FB72
Accurately ripped (confidence 1) [8AA25450] (AR v2)
Copy OK

Track 9

Filename E:\EAC Rips\John Zorn - 2011 - Satyrs Play - Cerebus [FLAC]\09 - Cerebrus.wav

Peak level 96.6 %
Extraction speed 4.5 X
Track quality 100.0 %
Test CRC 48752DDC
Copy CRC 48752DDC
Accurately ripped (confidence 1) [5207E9D7] (AR v2)
Copy OK


All tracks accurately ripped

No errors occurred

End of status report

==== Log checksum A3ACBDAB45F4ECB3ECF8FA7D8A060FFEEA18CA6963C829DAE0527E08B2DCEAE5 ====


John Zorn - The Gnostic Preludes (2012) + The Satyr's Play - Cerberus (2011) {Tzadik} [repost]

John Zorn - The Gnostic Preludes (2012) + The Satyr's Play - Cerberus (2011) {Tzadik} [repost]




–––––––––––––––––––––––-
John Zorn - The Gnostic Preludes (2012) + The Satyr's Play - Cerberus (2011) {Tzadik} [repost]

John Zorn - The Gnostic Preludes (2012) {Tzadik}
XLD rip | FLAC (tracks)+CUE+LOG -> 218 Mb | MP3 @320 -> 115 Mb
Full Artwork @ 300 dpi (jpg) -> 20 Mb | 5% repair rar
© 2012 Tzadik | TZ 7395

Get ready for some of the most beautiful music Zorn has ever made! The Gnostic Preludes is the latest volume in the mystical quest of In Search of the Miraculous, The Goddess and At the Gates of Paradise. Here Zorn turns to chamber music simplicity with an intimate ensemble of harp, vibraphone and guitar inspired by Early Music, Debussy, the minimalism of Reich, Riley and Glass and esoteric spiritual traditions from around the world. The music is lyrical and hypnotic, perfect for early morning meditation, a lonely afternoon, or midnight contemplation. Performed with great feeling by long time Zorn collaborators Bill Frisell, Carol Emanuel and Kenny Wollesen, who interact with sensitivity and grace The Gnostic Preludes is one of Zorn's most tender and subtle creations.

Personnel:
Carol Emanuel: Harp
Bill Frisell: Guitar
Kenny Wollesen: Vibes, Bells

tracklist:
01. Prelude 1: The Middle Pillar
02. Prelude 2: The Book of Pleasure
03. Prelude 3: Prelude of Light
04. Prelude 4: Diatesseron
05. Prelude 5: Music of the Spheres
06. Prelude 6: Circumambulation
07. Prelude 7: Sign and Sigil
08. Prelude 8: The Invisibles

X Lossless Decoder version 20120226 (139.1)

XLD extraction logfile from 2012-03-23 20:22:02 -0700

John Zorn / The Gnostic Preludes

Used drive : PIONEER DVD-RW DVRTS08 (revision Q81B)

Ripper mode : XLD Secure Ripper
Disable audio cache : OK for the drive with a cache less than 1375KiB
Make use of C2 pointers : NO
Read offset correction : 48
Max retry count : 100
Gap status : Analyzed, Appended (except HTOA)

TOC of the extracted CD
Track | Start | Length | Start sector | End sector
––––––––––––––––––––––––––––-
1 | 00:00:00 | 06:39:17 | 0 | 29941
2 | 06:39:17 | 06:05:45 | 29942 | 57361
3 | 12:44:62 | 05:56:15 | 57362 | 84076
4 | 18:41:02 | 04:35:17 | 84077 | 104718
5 | 23:16:19 | 08:13:62 | 104719 | 141755
6 | 31:30:06 | 06:33:58 | 141756 | 171288
7 | 38:03:64 | 06:22:34 | 171289 | 199972
8 | 44:26:23 | 03:35:20 | 199973 | 216117

AccurateRip Summary
Disc not found in AccurateRip DB.

All Tracks
Album gain : -6.56 dB
Peak : 1.000000
Statistics
Read error : 0
Jitter error (maybe fixed) : 0
Retry sector count : 0
Damaged sector count : 0

Track 01
Filename : /Volumes/kindablue/rips/John Zorn - 2012 - The Gnostic Preludes [FLAC]/01 The Middle Pillar.flac
/Volumes/kindablue/rips/John Zorn - 2012 - The Gnostic Preludes [V0]/01 The Middle Pillar.mp3
Pre-gap length : 00:02:00

Track gain : -5.22 dB
Peak : 0.966125
CRC32 hash (test run) : 506BAC6F
CRC32 hash : 506BAC6F
CRC32 hash (skip zero) : 71365969
AccurateRip signature : ACC9CD2F
->Track not present in AccurateRip database.
Statistics
Read error : 0
Jitter error (maybe fixed) : 0
Retry sector count : 0
Damaged sector count : 0

Track 02
Filename : /Volumes/kindablue/rips/John Zorn - 2012 - The Gnostic Preludes [FLAC]/02 The Book Of Pleasure.flac
/Volumes/kindablue/rips/John Zorn - 2012 - The Gnostic Preludes [V0]/02 The Book Of Pleasure.mp3

Track gain : -7.14 dB
Peak : 0.911896
CRC32 hash (test run) : 6B82E8C8
CRC32 hash : 6B82E8C8
CRC32 hash (skip zero) : FE302B07
AccurateRip signature : 1EFA2310
->Track not present in AccurateRip database.
Statistics
Read error : 0
Jitter error (maybe fixed) : 0
Retry sector count : 0
Damaged sector count : 0

Track 03
Filename : /Volumes/kindablue/rips/John Zorn - 2012 - The Gnostic Preludes [FLAC]/03 Prelude Of Light.flac
/Volumes/kindablue/rips/John Zorn - 2012 - The Gnostic Preludes [V0]/03 Prelude Of Light.mp3

Track gain : -6.10 dB
Peak : 1.000000
CRC32 hash (test run) : 4555FD3D
CRC32 hash : 4555FD3D
CRC32 hash (skip zero) : 3554EF2B
AccurateRip signature : A4D01A2A
->Track not present in AccurateRip database.
Statistics
Read error : 0
Jitter error (maybe fixed) : 0
Retry sector count : 0
Damaged sector count : 0

Track 04
Filename : /Volumes/kindablue/rips/John Zorn - 2012 - The Gnostic Preludes [FLAC]/04 Diaetesseron.flac
/Volumes/kindablue/rips/John Zorn - 2012 - The Gnostic Preludes [V0]/04 Diaetesseron.mp3

Track gain : -5.59 dB
Peak : 0.966125
CRC32 hash (test run) : EE40717B
CRC32 hash : EE40717B
CRC32 hash (skip zero) : 0599F142
AccurateRip signature : 2006D047
->Track not present in AccurateRip database.
Statistics
Read error : 0
Jitter error (maybe fixed) : 0
Retry sector count : 0
Damaged sector count : 0

Track 05
Filename : /Volumes/kindablue/rips/John Zorn - 2012 - The Gnostic Preludes [FLAC]/05 Music Of The Spheres.flac
/Volumes/kindablue/rips/John Zorn - 2012 - The Gnostic Preludes [V0]/05 Music Of The Spheres.mp3

Track gain : -6.70 dB
Peak : 0.860718
CRC32 hash (test run) : F5C89272
CRC32 hash : F5C89272
CRC32 hash (skip zero) : 8FC14FAB
AccurateRip signature : 0FC30462
->Track not present in AccurateRip database.
Statistics
Read error : 0
Jitter error (maybe fixed) : 0
Retry sector count : 0
Damaged sector count : 0

Track 06
Filename : /Volumes/kindablue/rips/John Zorn - 2012 - The Gnostic Preludes [FLAC]/06 Circumambulation.flac
/Volumes/kindablue/rips/John Zorn - 2012 - The Gnostic Preludes [V0]/06 Circumambulation.mp3

Track gain : -7.63 dB
Peak : 0.967194
CRC32 hash (test run) : C895C39D
CRC32 hash : C895C39D
CRC32 hash (skip zero) : 73699AA0
AccurateRip signature : 767DF659
->Track not present in AccurateRip database.
Statistics
Read error : 0
Jitter error (maybe fixed) : 0
Retry sector count : 0
Damaged sector count : 0

Track 07
Filename : /Volumes/kindablue/rips/John Zorn - 2012 - The Gnostic Preludes [FLAC]/07 Sign And Signal.flac
/Volumes/kindablue/rips/John Zorn - 2012 - The Gnostic Preludes [V0]/07 Sign And Signal.mp3

Track gain : -5.88 dB
Peak : 0.912476
CRC32 hash (test run) : 61AF71D0
CRC32 hash : 61AF71D0
CRC32 hash (skip zero) : 0728E6D2
AccurateRip signature : 72C21ECB
->Track not present in AccurateRip database.
Statistics
Read error : 0
Jitter error (maybe fixed) : 0
Retry sector count : 0
Damaged sector count : 0

Track 08
Filename : /Volumes/kindablue/rips/John Zorn - 2012 - The Gnostic Preludes [FLAC]/08 The Invisibles.flac
/Volumes/kindablue/rips/John Zorn - 2012 - The Gnostic Preludes [V0]/08 The Invisibles.mp3

Track gain : -4.37 dB
Peak : 0.966003
CRC32 hash (test run) : 0955C4BA
CRC32 hash : 0955C4BA
CRC32 hash (skip zero) : 11F85EFD
AccurateRip signature : 65C631A2
->Track not present in AccurateRip database.
Statistics
Read error : 0
Jitter error (maybe fixed) : 0
Retry sector count : 0
Damaged sector count : 0

No errors occurred

End of status report


John Zorn - The Gnostic Preludes (2012) + The Satyr's Play - Cerberus (2011) {Tzadik} [repost]

John Zorn - The Gnostic Preludes (2012) + The Satyr's Play - Cerberus (2011) {Tzadik} [repost]



All thanks goes to the original releasers!


John Zorn - The Satyr's Play - Cerberus (2011) {Tzadik}

UPLOADED Linkz

BITSHARE Linkz



John Zorn - The Gnostic Preludes (2012) {Tzadik}

UPLOADED Linkz

BITSHARE Linkz