Tags
Language
Tags

Johnny Rivers - At The Whisky a Go Go & Here We a Go Go Again! (1964) {BGO Records BGOCD241 rel 1994}

Posted By: ruskaval
Johnny Rivers - At The Whisky a Go Go & Here We a Go Go Again! (1964) {BGO Records BGOCD241 rel 1994}

Johnny Rivers - At The Whisky a Go Go & Here We a Go Go Again! (1964) {BGO Records BGOCD241 rel 1994}
EAC rip (secure mode) | FLAC (tracks)+CUE+LOG -> 546 Mb | MP3 @320 -> 180 Mb
Full Artwork @ 300 dpi (jpg) -> 14 Mb | 5% repair rar
© 1964, 1994 Liberty / Beat Goes On Records | BGOCD241
Rock & Roll / Rockabilly / Early Pop

Johnny Rivers' first two LPs – 1964's At the Whiskey-a-Go-Go and Here We A-Go-Go Again, both recorded at the famed Los Angeles club – are compiled on this set, a portrait of the singer at his mid-1960s peak.

I first heard the latter of this compilation (Here We A-Go-Go Again) at a friends place back in 1969. His mom had the record and everytime I'd visit, she would let me blare the stereo as long as I'd have Johnny Rivers playing. Some years later I bought both albums for my own and still listen to them today although "Here We A-Go-GO Again" gets the nod. Johnnys crisp guitar and harmonica playing along with Jerry Rubins drums and Joe Osbournes bass gave this trio a great sound.

Great songs like Chuck Berrys "Maybelline" and Roger Millers "Dang Me" were spun out on Johnnys southern style of Rockabilly Blues. "High Heal Sneakers" has a great bottom line rhythym with Johnnys almost inert vocal style. The album is mostly all cover tunes but I really appreciated the way Rivers kept the tempo for the audience who on more than one occasion included themselves in on the show. It's a real simple concept with a small venue armed with talented musicians playing to a very receptive crowd. I still play these songs and although not a considered a classic by any means, it still remains one of my favorites.

Track Listing:

At The Whisky A Go Go (1964)
1. Memphis
2. It Won't Happen With Me
3. Oh Lonesome Me
4. Lawdy Miss Clawdy
5. Whisky a Go Go
6. Walking the Dog
7. Brown Eyed Handsome Man
8. You Can Have Her
9. Multiplication
10. Medley: La Bamba/Twist And Shout

Here We A Go Go Again! (1964)
11. Maybellene
12. Dang Me
13. Hello Josephine
14. Hi-Heel Sneakers
15. Can't Buy Me Love
16. I've Got a Woman
17. Baby, What You Want Me To Do
18. Midnight Special
19. Roll Over Beethoven
20. Walk Myself on Home
21. Johnny B Goode
22. Whole Lotta Shakin' Goin'

Exact Audio Copy V1.0 beta 6 from 9. April 2015

EAC extraction logfile from 16. July 2016, 10:49

Johnny Rivers / At The Whisky A Go Go / Here We A Go Go Again!

Used drive : TSSTcorpCDDVDW SH-224BB Adapter: 1 ID: 0

Read mode : Secure
Utilize accurate stream : Yes
Defeat audio cache : Yes
Make use of C2 pointers : No

Read offset correction : 6
Overread into Lead-In and Lead-Out : No
Fill up missing offset samples with silence : Yes
Delete leading and trailing silent blocks : No
Null samples used in CRC calculations : Yes
Used interface : Native Win32 interface for Win NT & 2000
Gap handling : Appended to previous track

Used output format : User Defined Encoder
Selected bitrate : 768 kBit/s
Quality : High
Add ID3 tag : No
Command line compressor : C:\Program Files (x86)\Exact Audio Copy\Flac\flac.exe
Additional command line options : -8 -V -T "ARTIST=%artist%" -T "TITLE=%title%" -T "ALBUM=%albumtitle%" -T "DATE=%year%" -T "TRACKNUMBER=%tracknr%" -T "TOTALTRACKS=%numtracks%" -T "GENRE=%genre%" -T "ALBUMARTIST=%albumartist%" -T "ALBUM ARTIST=%albumartist%" -T "COMMENT=EAC Secure Mode, Test & Copy, AccurateRip, FLAC -8" %source%


TOC of the extracted CD

Track | Start | Length | Start sector | End sector
––––––––––––––––––––––––––––-
1 | 0:00.32 | 2:44.40 | 32 | 12371
2 | 2:44.72 | 3:25.48 | 12372 | 27794
3 | 6:10.45 | 2:42.37 | 27795 | 39981
4 | 8:53.07 | 2:58.30 | 39982 | 53361
5 | 11:51.37 | 4:00.70 | 53362 | 71431
6 | 15:52.32 | 3:49.00 | 71432 | 88606
7 | 19:41.32 | 2:38.63 | 88607 | 100519
8 | 22:20.20 | 3:19.50 | 100520 | 115494
9 | 25:39.70 | 2:52.00 | 115495 | 128394
10 | 28:31.70 | 6:27.10 | 128395 | 157429
11 | 34:59.05 | 2:16.70 | 157430 | 167699
12 | 37:16.00 | 2:33.45 | 167700 | 179219
13 | 39:49.45 | 2:31.02 | 179220 | 190546
14 | 42:20.47 | 3:49.48 | 190547 | 207769
15 | 46:10.20 | 2:41.52 | 207770 | 219896
16 | 48:51.72 | 6:21.23 | 219897 | 248494
17 | 55:13.20 | 5:53.67 | 248495 | 275036
18 | 61:07.12 | 2:29.40 | 275037 | 286251
19 | 63:36.52 | 2:58.40 | 286252 | 299641
20 | 66:35.17 | 2:37.68 | 299642 | 311484
21 | 69:13.10 | 2:56.22 | 311485 | 324706
22 | 72:09.32 | 3:15.00 | 324707 | 339331


Track 1

Filename C:\Rips\Johnny Rivers - At The Whisky A Go Go (1964) & Here We A Go Go Again! (1964) [FLAC]\01 - Memphis.wav

Pre-gap length 0:00:02.32

Peak level 96.4 %
Extraction speed 1.9 X
Track quality 100.0 %
Test CRC 4CE92A45
Copy CRC 4CE92A45
Accurately ripped (confidence 1) [D721DC3F] (AR v2)
Copy OK

Track 2

Filename C:\Rips\Johnny Rivers - At The Whisky A Go Go (1964) & Here We A Go Go Again! (1964) [FLAC]\02 - It Won't Happen With Me.wav

Peak level 100.0 %
Extraction speed 1.9 X
Track quality 100.0 %
Test CRC A532751D
Copy CRC A532751D
Accurately ripped (confidence 1) [CA749E8D] (AR v2)
Copy OK

Track 3

Filename C:\Rips\Johnny Rivers - At The Whisky A Go Go (1964) & Here We A Go Go Again! (1964) [FLAC]\03 - Oh Lonesome Me.wav

Peak level 99.6 %
Extraction speed 1.9 X
Track quality 100.0 %
Test CRC BD932B11
Copy CRC BD932B11
Accurately ripped (confidence 1) [8B1A9EC3] (AR v2)
Copy OK

Track 4

Filename C:\Rips\Johnny Rivers - At The Whisky A Go Go (1964) & Here We A Go Go Again! (1964) [FLAC]\04 - Lawdy Miss Clawdy.wav

Peak level 98.0 %
Extraction speed 1.9 X
Track quality 100.0 %
Test CRC 1A7056CB
Copy CRC 1A7056CB
Accurately ripped (confidence 1) [8F4D135F] (AR v2)
Copy OK

Track 5

Filename C:\Rips\Johnny Rivers - At The Whisky A Go Go (1964) & Here We A Go Go Again! (1964) [FLAC]\05 - Whisky A Go Go.wav

Peak level 98.3 %
Extraction speed 2.0 X
Track quality 100.0 %
Test CRC 01B76441
Copy CRC 01B76441
Accurately ripped (confidence 1) [6A953460] (AR v2)
Copy OK

Track 6

Filename C:\Rips\Johnny Rivers - At The Whisky A Go Go (1964) & Here We A Go Go Again! (1964) [FLAC]\06 - Walking The Dog.wav

Peak level 97.3 %
Extraction speed 2.0 X
Track quality 100.0 %
Test CRC 0811D38D
Copy CRC 0811D38D
Accurately ripped (confidence 1) [D75D0C19] (AR v2)
Copy OK

Track 7

Filename C:\Rips\Johnny Rivers - At The Whisky A Go Go (1964) & Here We A Go Go Again! (1964) [FLAC]\07 - Brown Eyed Handsome Man.wav

Peak level 99.0 %
Extraction speed 1.9 X
Track quality 100.0 %
Test CRC 99A286A3
Copy CRC 99A286A3
Accurately ripped (confidence 1) [5BAF4691] (AR v2)
Copy OK

Track 8

Filename C:\Rips\Johnny Rivers - At The Whisky A Go Go (1964) & Here We A Go Go Again! (1964) [FLAC]\08 - You Can Have Her (I Don't Want Her).wav

Peak level 100.0 %
Extraction speed 1.9 X
Track quality 100.0 %
Test CRC 7F13DC96
Copy CRC 7F13DC96
Accurately ripped (confidence 1) [ACA6D601] (AR v2)
Copy OK

Track 9

Filename C:\Rips\Johnny Rivers - At The Whisky A Go Go (1964) & Here We A Go Go Again! (1964) [FLAC]\09 - Multiplication.wav

Peak level 100.0 %
Extraction speed 1.6 X
Track quality 99.9 %
Test CRC 921172F4
Copy CRC 921172F4
Accurately ripped (confidence 1) [E5682529] (AR v2)
Copy OK

Track 10

Filename C:\Rips\Johnny Rivers - At The Whisky A Go Go (1964) & Here We A Go Go Again! (1964) [FLAC]\10 - Medley La Bamba - Twist And Shout.wav

Peak level 98.0 %
Extraction speed 2.1 X
Track quality 100.0 %
Test CRC E6FDB980
Copy CRC E6FDB980
Accurately ripped (confidence 1) [9765AAE1] (AR v2)
Copy OK

Track 11

Filename C:\Rips\Johnny Rivers - At The Whisky A Go Go (1964) & Here We A Go Go Again! (1964) [FLAC]\11 - Maybellene.wav

Pre-gap length 0:00:02.50

Peak level 98.5 %
Extraction speed 1.8 X
Track quality 100.0 %
Test CRC 90732DB8
Copy CRC 90732DB8
Accurately ripped (confidence 1) [A6509E29] (AR v2)
Copy OK

Track 12

Filename C:\Rips\Johnny Rivers - At The Whisky A Go Go (1964) & Here We A Go Go Again! (1964) [FLAC]\12 - Dang Me.wav

Peak level 96.6 %
Extraction speed 1.8 X
Track quality 100.0 %
Test CRC FF3243D8
Copy CRC FF3243D8
Accurately ripped (confidence 1) [FA7C3E38] (AR v2)
Copy OK

Track 13

Filename C:\Rips\Johnny Rivers - At The Whisky A Go Go (1964) & Here We A Go Go Again! (1964) [FLAC]\13 - Hello Josephine.wav

Peak level 97.3 %
Extraction speed 1.5 X
Track quality 99.9 %
Test CRC 3165B0BF
Copy CRC 3165B0BF
Accurately ripped (confidence 1) [F80A2DA7] (AR v2)
Copy OK

Track 14

Filename C:\Rips\Johnny Rivers - At The Whisky A Go Go (1964) & Here We A Go Go Again! (1964) [FLAC]\14 - Hi Heel Sneakers.wav

Peak level 97.7 %
Extraction speed 2.0 X
Track quality 100.0 %
Test CRC 10B593D8
Copy CRC 10B593D8
Accurately ripped (confidence 1) [A27E4A19] (AR v2)
Copy OK

Track 15

Filename C:\Rips\Johnny Rivers - At The Whisky A Go Go (1964) & Here We A Go Go Again! (1964) [FLAC]\15 - Can't Buy Me Love.wav

Peak level 100.0 %
Extraction speed 1.5 X
Track quality 99.9 %
Test CRC 92BA81FF
Copy CRC 92BA81FF
Accurately ripped (confidence 1) [57C10527] (AR v2)
Copy OK

Track 16

Filename C:\Rips\Johnny Rivers - At The Whisky A Go Go (1964) & Here We A Go Go Again! (1964) [FLAC]\16 - I've Got A Woman.wav

Peak level 97.3 %
Extraction speed 2.1 X
Track quality 100.0 %
Test CRC 3D6B7E46
Copy CRC 3D6B7E46
Accurately ripped (confidence 1) [4F2B7E39] (AR v2)
Copy OK

Track 17

Filename C:\Rips\Johnny Rivers - At The Whisky A Go Go (1964) & Here We A Go Go Again! (1964) [FLAC]\17 - Baby What You Want Me To Do.wav

Peak level 96.6 %
Extraction speed 1.9 X
Track quality 99.9 %
Test CRC 9A244DBC
Copy CRC 9A244DBC
Accurately ripped (confidence 1) [95D7B2DB] (AR v2)
Copy OK

Track 18

Filename C:\Rips\Johnny Rivers - At The Whisky A Go Go (1964) & Here We A Go Go Again! (1964) [FLAC]\18 - Midnight Special.wav

Peak level 98.1 %
Extraction speed 1.8 X
Track quality 100.0 %
Test CRC E3EF0A08
Copy CRC E3EF0A08
Accurately ripped (confidence 1) [97DD81C3] (AR v2)
Copy OK

Track 19

Filename C:\Rips\Johnny Rivers - At The Whisky A Go Go (1964) & Here We A Go Go Again! (1964) [FLAC]\19 - Roll Over Beethoven.wav

Peak level 93.3 %
Extraction speed 1.9 X
Track quality 100.0 %
Test CRC 9AAD2908
Copy CRC 9AAD2908
Accurately ripped (confidence 1) [531B3759] (AR v2)
Copy OK

Track 20

Filename C:\Rips\Johnny Rivers - At The Whisky A Go Go (1964) & Here We A Go Go Again! (1964) [FLAC]\20 - Walk Myself On Home.wav

Peak level 97.5 %
Extraction speed 1.9 X
Track quality 100.0 %
Test CRC 6FBA6DBE
Copy CRC 6FBA6DBE
Accurately ripped (confidence 1) [2C72126A] (AR v2)
Copy OK

Track 21

Filename C:\Rips\Johnny Rivers - At The Whisky A Go Go (1964) & Here We A Go Go Again! (1964) [FLAC]\21 - Johnny B. Goode.wav

Peak level 96.2 %
Extraction speed 1.6 X
Track quality 99.9 %
Test CRC 866E1967
Copy CRC 866E1967
Accurately ripped (confidence 1) [BB1FD136] (AR v2)
Copy OK

Track 22

Filename C:\Rips\Johnny Rivers - At The Whisky A Go Go (1964) & Here We A Go Go Again! (1964) [FLAC]\22 - Whole Lotta Shakin' Goin' On.wav

Peak level 97.6 %
Extraction speed 1.9 X
Track quality 100.0 %
Test CRC A4740591
Copy CRC A4740591
Accurately ripped (confidence 1) [4E8F95E0] (AR v2)
Copy OK


All tracks accurately ripped

No errors occurred

End of status report

==== Log checksum 2DC7C50288EBE0104BFF0EDBDBD3F8A9108DD16B6051B61A3DEB799EFE4DD970 ====


Johnny Rivers - At The Whisky a Go Go & Here We a Go Go Again! (1964) {BGO Records BGOCD241 rel 1994}

Johnny Rivers - At The Whisky a Go Go & Here We a Go Go Again! (1964) {BGO Records BGOCD241 rel 1994}



===