Tags
Language
Tags

The Johnny Smith Trio - Johnny Smith Favorites (1959) {2016 Japan SHM-CD Jazz Masters Collection 1200 Series WPCR-29141}

Posted By: ruskaval
The Johnny Smith Trio - Johnny Smith Favorites (1959) {2016 Japan SHM-CD Jazz Masters Collection 1200 Series WPCR-29141}

The Johnny Smith Trio - Johnny Smith Favorites (1959) {2016 Japan SHM-CD Jazz Masters Collection 1200 Series WPCR-29141}
EAC rip (secure mode) | FLAC (tracks)+CUE+LOG -> 185 Mb | MP3 @320 -> 78 Mb
Full Artwork @ 600 dpi (jpg) -> 51 Mb | 5% repair rar | 24bit remaster
© 1959, 2016 Roost / Parlophone / Warner Music Japan | WPCR-29141
Jazz / Cool / Guitar

SHM-CD reissue. Comes with a mini-description. Features new remastering if it comes from Parlophone. Guitarist Johnny Smith in a sweet, laidback trio setting – just the kind of mode that's perfect for his gentle sense of color and tone – a style he virtually invented for jazz guitar in the 50s! The album's one of his classics for the Roost label, and it's a masterpiece in chromatic hues – subtle, simple, but completely fantastic – at a level that makes Johnny Smith one of the true legends in jazz guitar from the 50s. Accompaniment is by George Roumanis on bass and Mousie Alexander on drums – but both players are extremely gentle, and leave most of the sound to Johnny – as it should be. Titles include "Little Girl Blue", "My Funny Valentine", "Polka Dots & Moonbeams", "Everything Happens To Me", "Pavanne", and "Blues Back Stage".
The Johnny Smith Trio - Johnny Smith Favorites (1959) {2016 Japan SHM-CD Jazz Masters Collection 1200 Series WPCR-29141}


Personnel:
Johnny Smith - guitar
George Roumanis - bass
Mousey Alexander - drums

tracklist:
01 - Moonlight In Vermont
02 - My Funny Valentine
03 - Little Girl Blue
04 - My One And Only Love
05 - Jimmy Van Heusen Medley- Darn That Dream - Polka Dots And Moonbeams
06 - Satin Doll
07 - Blues Back Stage
08 - Everything Happens To Me
09 - Pavanne
10 - Willow Weep For Me

Exact Audio Copy V1.1 from 23. June 2015

EAC extraction logfile from 18. December 2016, 20:56

The Johnny Smith Trio / Johnny Smith Favorites

Used drive : TSSTcorpCDDVDW SE-208DB Adapter: 1 ID: 2

Read mode : Secure
Utilize accurate stream : Yes
Defeat audio cache : Yes
Make use of C2 pointers : No

Read offset correction : 6
Overread into Lead-In and Lead-Out : No
Fill up missing offset samples with silence : Yes
Delete leading and trailing silent blocks : No
Null samples used in CRC calculations : Yes
Used interface : Native Win32 interface for Win NT & 2000
Gap handling : Appended to previous track

Used output format : User Defined Encoder
Selected bitrate : 1024 kBit/s
Quality : High
Add ID3 tag : No
Command line compressor : C:\Program Files (x86)\FLAC Frontend\tools\flac.exe
Additional command line options : -8 -V -T "ARTIST=%artist%" -T "TITLE=%title%" -T "ALBUM=%albumtitle%" -T "DATE=%year%" -T "TRACKNUMBER=%tracknr%" -T "TOTALTRACKS=%numtracks%" -T "GENRE=%genre%" -T "ALBUMARTIST=%albumartist%" -T "ALBUM ARTIST=%albumartist%" -T "COMMENT=EAC Secure Mode, Test & Copy, AccurateRip, FLAC -8" %source%


TOC of the extracted CD

Track | Start | Length | Start sector | End sector
––––––––––––––––––––––––––––-
1 | 0:00.00 | 2:37.04 | 0 | 11778
2 | 2:37.04 | 3:23.66 | 11779 | 27069
3 | 6:00.70 | 2:54.12 | 27070 | 40131
4 | 8:55.07 | 2:46.34 | 40132 | 52615
5 | 11:41.41 | 4:09.69 | 52616 | 71359
6 | 15:51.35 | 2:57.40 | 71360 | 84674
7 | 18:49.00 | 3:58.00 | 84675 | 102524
8 | 22:47.00 | 3:24.39 | 102525 | 117863
9 | 26:11.39 | 1:32.47 | 117864 | 124810
10 | 27:44.11 | 6:05.73 | 124811 | 152258


Track 1

Filename D:\_EAC\The Johnny Smith Trio - Johnny Smith Favorites (1959) [FLAC] {WPCR-29141}\01 - Moonlight In Vermont.wav

Pre-gap length 0:00:02.00

Peak level 80.9 %
Extraction speed 2.0 X
Track quality 99.9 %
Test CRC F1DA4DB1
Copy CRC F1DA4DB1
Track not present in AccurateRip database
Copy OK

Track 2

Filename D:\_EAC\The Johnny Smith Trio - Johnny Smith Favorites (1959) [FLAC] {WPCR-29141}\02 - My Funny Valentine.wav

Peak level 87.8 %
Extraction speed 3.0 X
Track quality 100.0 %
Test CRC 955C09BF
Copy CRC 955C09BF
Track not present in AccurateRip database
Copy OK

Track 3

Filename D:\_EAC\The Johnny Smith Trio - Johnny Smith Favorites (1959) [FLAC] {WPCR-29141}\03 - Little Girl Blue.wav

Peak level 73.4 %
Extraction speed 3.1 X
Track quality 100.0 %
Test CRC 8E1FA976
Copy CRC 8E1FA976
Track not present in AccurateRip database
Copy OK

Track 4

Filename D:\_EAC\The Johnny Smith Trio - Johnny Smith Favorites (1959) [FLAC] {WPCR-29141}\04 - My One And Only Love.wav

Peak level 89.7 %
Extraction speed 3.2 X
Track quality 100.0 %
Test CRC 01974865
Copy CRC 01974865
Track not present in AccurateRip database
Copy OK

Track 5

Filename D:\_EAC\The Johnny Smith Trio - Johnny Smith Favorites (1959) [FLAC] {WPCR-29141}\05 - Jimmy Van Heusen Medley- Darn That Dream - Polka Dots And Moonbeams.wav

Peak level 99.7 %
Extraction speed 3.7 X
Track quality 100.0 %
Test CRC 86200ED9
Copy CRC 86200ED9
Track not present in AccurateRip database
Copy OK

Track 6

Filename D:\_EAC\The Johnny Smith Trio - Johnny Smith Favorites (1959) [FLAC] {WPCR-29141}\06 - Satin Doll.wav

Peak level 95.2 %
Extraction speed 3.6 X
Track quality 100.0 %
Test CRC 4614E8DB
Copy CRC 4614E8DB
Track not present in AccurateRip database
Copy OK

Track 7

Filename D:\_EAC\The Johnny Smith Trio - Johnny Smith Favorites (1959) [FLAC] {WPCR-29141}\07 - Blues Back Stage.wav

Peak level 99.7 %
Extraction speed 4.0 X
Track quality 100.0 %
Test CRC 2599E809
Copy CRC 2599E809
Track not present in AccurateRip database
Copy OK

Track 8

Filename D:\_EAC\The Johnny Smith Trio - Johnny Smith Favorites (1959) [FLAC] {WPCR-29141}\08 - Everything Happens To Me.wav

Peak level 77.6 %
Extraction speed 3.2 X
Track quality 99.9 %
Test CRC F743016C
Copy CRC F743016C
Track not present in AccurateRip database
Copy OK

Track 9

Filename D:\_EAC\The Johnny Smith Trio - Johnny Smith Favorites (1959) [FLAC] {WPCR-29141}\09 - Pavanne.wav

Peak level 23.0 %
Extraction speed 2.3 X
Track quality 99.8 %
Test CRC EB6F058C
Copy CRC EB6F058C
Track not present in AccurateRip database
Copy OK

Track 10

Filename D:\_EAC\The Johnny Smith Trio - Johnny Smith Favorites (1959) [FLAC] {WPCR-29141}\10 - Willow Weep For Me.wav

Peak level 99.7 %
Extraction speed 4.6 X
Track quality 100.0 %
Test CRC 3319E558
Copy CRC 3319E558
Track not present in AccurateRip database
Copy OK


None of the tracks are present in the AccurateRip database

No errors occurred

End of status report

==== Log checksum 5B39BF18BECD0E3AEB309278E226778C5451DD0AF4C6BF2FC4E33AD859B7DC3E ====


The Johnny Smith Trio - Johnny Smith Favorites (1959) {2016 Japan SHM-CD Jazz Masters Collection 1200 Series WPCR-29141}

The Johnny Smith Trio - Johnny Smith Favorites (1959) {2016 Japan SHM-CD Jazz Masters Collection 1200 Series WPCR-29141}


see more Japan SHM-CD Jazz Masters Collection 1200 Series…


===