Tags
Language
Tags

Jon & Valerie Guerra - It's Almost Christmas (2015)

Posted By: aasana
Jon & Valerie Guerra - It's Almost Christmas (2015)

Jon & Valerie Guerra - It's Almost Christmas (2015)
EAC Rip | FLAC (tracks+.cue) | 00:37:03 | 225,62 MB
Pop; Jazz | Label: Descendant Records

It's Almost Christmas is the first Christmas album by the husband and wife duo, Jon & Valerie Guerra. Descendant Records (Sony) released the album on November 13, 2015.

In December 2015 (and again in December 2016), Jon & Valerie Guerra opened for Amy Grant and Vince Gill's "Christmas at the Ryman" concerts at the venerable Ryman Auditorium in Nashville, TN.

Awarding the album four stars from New Release Today, Phronsie Howell states, "Jon & Valerie did a bang-up job bringing the Christmas spirit to listeners." Of the track "Beginning to Feel like Christmas," Elmore Magazine states, "Jon and Valerie's new song is likely to find its way into your Christmas tradition." Bersain Beristain, rating the album two stars at Jesus Freak Hideout, writes, "It's Almost Christmas might have more in common with…generic holiday selections". Giving the album a nine out of ten stars for Jesus Wired, Rebekah Joy says, "Both Jon and Valerie carry such powerful, and beautiful voices, that blend together so well."

01. Jon & Valerie Guerra - Winter Wonderland (2:30)
02. Jon & Valerie Guerra - It's Almost Christmas (4:35)
03. Jon & Valerie Guerra - The Way You Look Tonight / I'll Be Home For Christmas (2:42)
04. Jon & Valerie Guerra - Have Yourself A Merry Little Christmas (3:01)
05. Jon & Valerie Guerra - White Christmas (2:32)
06. Jon & Valerie Guerra - Edelweiss (2:34)
07. Jon & Valerie Guerra - Beginning To Feel Like Christmas (3:14)
08. Jon & Valerie Guerra - Little Drummer Boy (3:45)
09. Jon & Valerie Guerra - Will I See You At Grandma's House? (3:05)
10. Jon & Valerie Guerra - Auld Lang Syne (4:10)
11. Jon & Valerie Guerra - Lord Remind Me (4:55)

Exact Audio Copy V1.0 beta 3 from 29. August 2011

EAC extraction logfile from 24. February 2017, 15:53

Jon & Valerie Guerra / It's Almost Christmas

Used drive : hp DVDWBD TS-LB23L Adapter: 1 ID: 0

Read mode : Secure
Utilize accurate stream : Yes
Defeat audio cache : Yes
Make use of C2 pointers : No

Read offset correction : 6
Overread into Lead-In and Lead-Out : No
Fill up missing offset samples with silence : Yes
Delete leading and trailing silent blocks : No
Null samples used in CRC calculations : Yes
Used interface : Native Win32 interface for Win NT & 2000
Gap handling : Appended to previous track

Used output format : User Defined Encoder
Selected bitrate : 1024 kBit/s
Quality : High
Add ID3 tag : No
Command line compressor : C:\Program Files (x86)\Exact Audio Copy\FLAC\FLAC.EXE
Additional command line options : -8 -V -T "ARTIST=%artist%" -T "TITLE=%title%" -T "ALBUM=%albumtitle%" -T "DATE=%year%" -T "TRACKNUMBER=%tracknr%" -T "GENRE=%genre%" -T "PERFORMER=%albuminterpret%" -T "COMPOSER=%composer%" %haslyrics%–tag-from-file=LYRICS="%lyricsfile%"%haslyrics% -T "ALBUMARTIST=%albumartist%" -T "DISCNUMBER=%cdnumber%" -T "TOTALDISCS=%totalcds%" -T "TOTALTRACKS=%numtracks%" -T "COMMENT=%comment%" %source% -o %dest%


TOC of the extracted CD

Track | Start | Length | Start sector | End sector
––––––––––––––––––––––––––––-
1 | 0:00.00 | 2:30.06 | 0 | 11255
2 | 2:30.06 | 4:35.00 | 11256 | 31880
3 | 7:05.06 | 2:42.12 | 31881 | 44042
4 | 9:47.18 | 3:00.68 | 44043 | 57610
5 | 12:48.11 | 2:32.10 | 57611 | 69020
6 | 15:20.21 | 2:33.66 | 69021 | 80561
7 | 17:54.12 | 3:14.09 | 80562 | 95120
8 | 21:08.21 | 3:44.55 | 95121 | 111975
9 | 24:53.01 | 3:05.24 | 111976 | 125874
10 | 27:58.25 | 4:10.28 | 125875 | 144652
11 | 32:08.53 | 4:54.43 | 144653 | 166745


Track 1

Filename C:\FLAC\Guerra\01 Winter Wonderland.wav

Pre-gap length 0:00:02.00

Peak level 96.6 %
Extraction speed 1.1 X
Track quality 99.9 %
Test CRC 3884DAE9
Copy CRC 3884DAE9
Track not present in AccurateRip database
Copy OK

Track 2

Filename C:\FLAC\Guerra\02 It's Almost Christmas.wav

Peak level 96.6 %
Extraction speed 1.5 X
Track quality 100.0 %
Test CRC 4630546D
Copy CRC 4630546D
Track not present in AccurateRip database
Copy OK

Track 3

Filename C:\FLAC\Guerra\03 The Way You Look Tonight , I'll Be Home For Christmas.wav

Peak level 96.6 %
Extraction speed 1.3 X
Track quality 100.0 %
Test CRC EE656D3F
Copy CRC EE656D3F
Track not present in AccurateRip database
Copy OK

Track 4

Filename C:\FLAC\Guerra\04 Have Yourself A Merry Little Christmas.wav

Peak level 96.6 %
Extraction speed 1.3 X
Track quality 99.9 %
Test CRC B87661ED
Copy CRC B87661ED
Track not present in AccurateRip database
Copy OK

Track 5

Filename C:\FLAC\Guerra\05 White Christmas.wav

Peak level 96.6 %
Extraction speed 1.6 X
Track quality 100.0 %
Test CRC 20B8BD4D
Copy CRC 20B8BD4D
Track not present in AccurateRip database
Copy OK

Track 6

Filename C:\FLAC\Guerra\06 Edelweiss.wav

Peak level 96.6 %
Extraction speed 1.8 X
Track quality 100.0 %
Test CRC B1C2375C
Copy CRC B1C2375C
Track not present in AccurateRip database
Copy OK

Track 7

Filename C:\FLAC\Guerra\07 Beginning To Feel Like Christmas.wav

Peak level 96.6 %
Extraction speed 1.8 X
Track quality 100.0 %
Test CRC 6B5F85A5
Copy CRC 6B5F85A5
Track not present in AccurateRip database
Copy OK

Track 8

Filename C:\FLAC\Guerra\08 Little Drummer Boy.wav

Peak level 96.6 %
Extraction speed 1.7 X
Track quality 99.9 %
Test CRC BB252FC0
Copy CRC BB252FC0
Track not present in AccurateRip database
Copy OK

Track 9

Filename C:\FLAC\Guerra\09 Will I See You At Grandma's House.wav

Peak level 96.6 %
Extraction speed 1.8 X
Track quality 100.0 %
Test CRC A6E01447
Copy CRC A6E01447
Track not present in AccurateRip database
Copy OK

Track 10

Filename C:\FLAC\Guerra\10 Auld Lang Syne.wav

Peak level 96.6 %
Extraction speed 2.0 X
Track quality 100.0 %
Test CRC 3CE11222
Copy CRC 3CE11222
Track not present in AccurateRip database
Copy OK

Track 11

Filename C:\FLAC\Guerra\11 Lord Remind Me.wav

Peak level 96.6 %
Extraction speed 2.3 X
Track quality 100.0 %
Test CRC D96C029B
Copy CRC D96C029B
Track not present in AccurateRip database
Copy OK


None of the tracks are present in the AccurateRip database

No errors occurred

End of status report

–– CUETools DB Plugin V2.1.4

[CTDB TOCID: ShWneE01k0nz9yTQa8af2K9DWjo-] found
Submit result: ShWneE01k0nz9yTQa8af2K9DWjo- has been confirmed
Track | CTDB Status
1 | (1/1) Accurately ripped
2 | (1/1) Accurately ripped
3 | (1/1) Accurately ripped
4 | (1/1) Accurately ripped
5 | (1/1) Accurately ripped
6 | (1/1) Accurately ripped
7 | (1/1) Accurately ripped
8 | (1/1) Accurately ripped
9 | (1/1) Accurately ripped
10 | (1/1) Accurately ripped
11 | (1/1) Accurately ripped


==== Log checksum 75E9F3038122262DF2B2BA2D9D20E49505F602073FFB9526BF8ECC061B459A61 ====

––––––––––––––––––––––––––––––

Exact Audio Copy V1.0 beta 3 from 29. August 2011

EAC extraction logfile from 24. February 2017, 15:53

Jon & Valerie Guerra / It's Almost Christmas

Used drive : hp DVDWBD TS-LB23L Adapter: 1 ID: 0

Read mode : Secure
Utilize accurate stream : Yes
Defeat audio cache : Yes
Make use of C2 pointers : No

Read offset correction : 6
Overread into Lead-In and Lead-Out : No
Fill up missing offset samples with silence : Yes
Delete leading and trailing silent blocks : No
Null samples used in CRC calculations : Yes
Used interface : Native Win32 interface for Win NT & 2000
Gap handling : Appended to previous track

Used output format : User Defined Encoder
Selected bitrate : 1024 kBit/s
Quality : High
Add ID3 tag : No
Command line compressor : C:\Program Files (x86)\Exact Audio Copy\FLAC\FLAC.EXE
Additional command line options : -8 -V -T "ARTIST=%artist%" -T "TITLE=%title%" -T "ALBUM=%albumtitle%" -T "DATE=%year%" -T "TRACKNUMBER=%tracknr%" -T "GENRE=%genre%" -T "PERFORMER=%albuminterpret%" -T "COMPOSER=%composer%" %haslyrics%–tag-from-file=LYRICS="%lyricsfile%"%haslyrics% -T "ALBUMARTIST=%albumartist%" -T "DISCNUMBER=%cdnumber%" -T "TOTALDISCS=%totalcds%" -T "TOTALTRACKS=%numtracks%" -T "COMMENT=%comment%" %source% -o %dest%


TOC of the extracted CD

Track | Start | Length | Start sector | End sector
––––––––––––––––––––––––––––-
1 | 0:00.00 | 2:30.06 | 0 | 11255
2 | 2:30.06 | 4:35.00 | 11256 | 31880
3 | 7:05.06 | 2:42.12 | 31881 | 44042
4 | 9:47.18 | 3:00.68 | 44043 | 57610
5 | 12:48.11 | 2:32.10 | 57611 | 69020
6 | 15:20.21 | 2:33.66 | 69021 | 80561
7 | 17:54.12 | 3:14.09 | 80562 | 95120
8 | 21:08.21 | 3:44.55 | 95121 | 111975
9 | 24:53.01 | 3:05.24 | 111976 | 125874
10 | 27:58.25 | 4:10.28 | 125875 | 144652
11 | 32:08.53 | 4:54.43 | 144653 | 166745


Track 1

Filename C:\FLAC\Guerra\01 Winter Wonderland.wav

Pre-gap length 0:00:02.00

Peak level 96.6 %
Extraction speed 1.1 X
Track quality 99.9 %
Test CRC 3884DAE9
Copy CRC 3884DAE9
Track not present in AccurateRip database
Copy OK

Track 2

Filename C:\FLAC\Guerra\02 It's Almost Christmas.wav

Peak level 96.6 %
Extraction speed 1.5 X
Track quality 100.0 %
Test CRC 4630546D
Copy CRC 4630546D
Track not present in AccurateRip database
Copy OK

Track 3

Filename C:\FLAC\Guerra\03 The Way You Look Tonight , I'll Be Home For Christmas.wav

Peak level 96.6 %
Extraction speed 1.3 X
Track quality 100.0 %
Test CRC EE656D3F
Copy CRC EE656D3F
Track not present in AccurateRip database
Copy OK

Track 4

Filename C:\FLAC\Guerra\04 Have Yourself A Merry Little Christmas.wav

Peak level 96.6 %
Extraction speed 1.3 X
Track quality 99.9 %
Test CRC B87661ED
Copy CRC B87661ED
Track not present in AccurateRip database
Copy OK

Track 5

Filename C:\FLAC\Guerra\05 White Christmas.wav

Peak level 96.6 %
Extraction speed 1.6 X
Track quality 100.0 %
Test CRC 20B8BD4D
Copy CRC 20B8BD4D
Track not present in AccurateRip database
Copy OK

Track 6

Filename C:\FLAC\Guerra\06 Edelweiss.wav

Peak level 96.6 %
Extraction speed 1.8 X
Track quality 100.0 %
Test CRC B1C2375C
Copy CRC B1C2375C
Track not present in AccurateRip database
Copy OK

Track 7

Filename C:\FLAC\Guerra\07 Beginning To Feel Like Christmas.wav

Peak level 96.6 %
Extraction speed 1.8 X
Track quality 100.0 %
Test CRC 6B5F85A5
Copy CRC 6B5F85A5
Track not present in AccurateRip database
Copy OK

Track 8

Filename C:\FLAC\Guerra\08 Little Drummer Boy.wav

Peak level 96.6 %
Extraction speed 1.7 X
Track quality 99.9 %
Test CRC BB252FC0
Copy CRC BB252FC0
Track not present in AccurateRip database
Copy OK

Track 9

Filename C:\FLAC\Guerra\09 Will I See You At Grandma's House.wav

Peak level 96.6 %
Extraction speed 1.8 X
Track quality 100.0 %
Test CRC A6E01447
Copy CRC A6E01447
Track not present in AccurateRip database
Copy OK

Track 10

Filename C:\FLAC\Guerra\10 Auld Lang Syne.wav

Peak level 96.6 %
Extraction speed 2.0 X
Track quality 100.0 %
Test CRC 3CE11222
Copy CRC 3CE11222
Track not present in AccurateRip database
Copy OK

Track 11

Filename C:\FLAC\Guerra\11 Lord Remind Me.wav

Peak level 96.6 %
Extraction speed 2.3 X
Track quality 100.0 %
Test CRC D96C029B
Copy CRC D96C029B
Track not present in AccurateRip database
Copy OK


None of the tracks are present in the AccurateRip database

No errors occurred

End of status report

–– CUETools DB Plugin V2.1.4

[CTDB TOCID: ShWneE01k0nz9yTQa8af2K9DWjo-] found
Submit result: ShWneE01k0nz9yTQa8af2K9DWjo- has been confirmed
Track | CTDB Status
1 | (1/1) Accurately ripped
2 | (1/1) Accurately ripped
3 | (1/1) Accurately ripped
4 | (1/1) Accurately ripped
5 | (1/1) Accurately ripped
6 | (1/1) Accurately ripped
7 | (1/1) Accurately ripped
8 | (1/1) Accurately ripped
9 | (1/1) Accurately ripped
10 | (1/1) Accurately ripped
11 | (1/1) Accurately ripped


==== Log checksum 75E9F3038122262DF2B2BA2D9D20E49505F602073FFB9526BF8ECC061B459A61 ====